#TITLE:Heartbeat, Heartbreak;
#SUBTITLE:(TOWA TEI Remix);
#ARTIST:Shihoko Hirata;
#TITLETRANSLIT:;
#SUBTITLETRANSLIT:;
#ARTISTTRANSLIT:;
#CREDIT:DigiMindAxel;
#BANNER:Heartbeat, Heartbreak (TOWA TEI Remix).png;
#BACKGROUND:Heartbeat, Heartbreak (TOWA TEI Remix)-bg.png;
#LYRICSPATH:Heartbeat, Heartbreak (TOWA TEI Remix).lrc;
#CDTITLE:PERSONA 4 DANCING ALL NIGHT.png;
#MUSIC:Heartbeat, Heartbreak (TOWA TEI Remix).ogg;
#METERTYPE:DDR X;
#OFFSET:-0.296;
#SAMPLESTART:2.445;
#SAMPLELENGTH:12.000;
#SELECTABLE:YES;
#BPMS:0.000=110.000;
#STOPS:64.000=1.091
;
#BGCHANGES:;

//---------------dance-single - ----------------
#NOTES:
     dance-single:
     :
     Easy:
     4:
     0.173,0.179,0.100,0.100,0.000:
0000
0000
0000
0000
,
0000
0000
0000
0000
,
0000
0000
0000
0000
,
0000
0000
0000
0000
,
0000
0000
0000
0000
,
2000
0000
0000
3001
0000
0000
0000
0000
,
2000
0000
0000
3001
0000
0000
0000
0000
,
2000
0000
0000
3001
0000
0000
0000
0000
,
1000
0100
0010
0001
,
0100
0000
0010
0000
,
1000
0000
0001
0000
,
1000
0000
0100
0000
,
1000
0000
0001
0000
,
0100
0010
0100
0000
,
0001
0100
0001
0000
,
1000
0001
1000
0000
,
1001
0000
0000
0000
0002
0000
0000
1003
,
0000
0000
0000
0000
0002
0000
0000
1003
,
0000
0000
0000
0000
0002
0000
0000
1003
,
0000
0000
0001
0100
,
0010
0000
1000
0000
0002
0000
0000
1003
,
0000
0000
0000
0000
0002
0000
0000
1003
,
0000
0000
0000
0000
0002
0000
0000
1003
,
0000
0000
0001
0100
,
0010
0100
0001
1000
,
0001
0000
1000
0100
,
1000
0000
0001
1000
,
0001
0000
0100
0001
,
0100
0000
0001
0010
,
0100
0000
1000
0100
,
0010
0000
0001
0100
,
0010
0000
0100
0100
,
0100
0000
0100
0000
1001
0000
0000
0001
,
0000
0000
0000
0000
1001
0000
0000
1000
,
0000
0000
0000
0000
1001
0000
0000
0001
,
0000
0000
0000
0000
1001
0000
0000
1000
,
0000
0000
0000
0000
0110
0000
0000
0010
,
0000
0000
0000
0000
0110
0000
0000
0100
,
0000
0000
0000
0000
0110
0000
0000
0010
,
0000
0000
1001
0001
,
0001
0001
0000
0000
;

//---------------dance-single - ----------------
#NOTES:
     dance-single:
     :
     Medium:
     7:
     0.316,0.359,0.367,0.155,0.078: // measure 1
0000
0000
0000
0000
,  // measure 2
0000
0000
0000
0000
,  // measure 3
0000
0000
0000
0000
,  // measure 4
0000
0000
0000
0000
,  // measure 5
0000
0000
0000
0000
,  // measure 6
1001
0000
0000
1100
0000
0000
0000
0000
,  // measure 7
1001
0000
0000
0011
0000
0000
0000
0000
,  // measure 8
0110
0000
0000
1001
0000
0000
0000
0001
,  // measure 9
1000
0000
0100
0010
0001
0000
0100
0001
,  // measure 10
2000
0000
3100
0000
0010
0010
0010
0000
,  // measure 11
0002
0000
0103
0000
0010
0010
0110
0000
,  // measure 12
2000
0000
3100
0000
0020
0001
0000
0031
,  // measure 13
0200
0000
0310
0000
1000
1000
1001
0000
,  // measure 14
0002
0000
0103
0000
0010
0010
0010
0000
,  // measure 15
2000
0000
3001
0000
0100
0100
0110
0000
,  // measure 16
2000
0000
3100
0000
0020
0001
0000
0031
,  // measure 17
0110
0000
1000
0001
0011
0000
0000
0110
,  // measure 18
0000
0000
0000
0000
1100
0000
0000
0110
,  // measure 19
0000
0000
0000
0000
0110
0000
0000
1001
,  // measure 20
0000
0000
0000
0001
0100
0000
0010
1000
,  // measure 21
0100
1000
0010
0000
0110
0000
0000
0101
,  // measure 22
0000
0000
0000
0010
0110
0000
0000
1010
,  // measure 23
0000
0000
0000
0000
0110
0000
0000
1001
,  // measure 24
0000
0000
0000
0001
0100
0000
0010
1000
,  // measure 25
0100
0000
1000
0100
0020
0001
0000
0031
,  // measure 26
0000
0100
0010
0100
0002
0000
0000
1003
,  // measure 27
0000
0000
0001
0000
0020
0100
0000
0130
,  // measure 28
0000
1000
0001
1000
0020
0000
0000
0130
,  // measure 29
0000
0000
0001
0000
0010
0100
1000
0000
,  // measure 30
0001
0010
0100
2000
0000
0001
0000
0100
,  // measure 31
0000
3001
0000
0000
1000
0010
0100
0000
,  // measure 32
0010
0100
0001
0000
0110
0000
0110
0000
,  // measure 33
0110
0000
0000
0000
0110
0000
0000
0000
1001
0000
0000
0001
0000
0000
1000
0000
,  // measure 34
0000
1000
0000
0000
0000
0000
0000
0000
0100
0000
0000
0100
0000
0000
0010
0000
,  // measure 35
0000
0010
0000
0000
0000
0000
0000
0000
0001
0000
0000
0001
0000
0000
0100
0000
,  // measure 36
0000
0100
0000
0000
0000
0000
0000
0000
0010
0000
0000
0010
0000
0000
1000
0000
,  // measure 37
0000
1000
0000
0000
0000
0000
0000
0000
1010
0000
0000
0010
0000
0000
1010
0000
,  // measure 38
0000
0010
0000
0000
0000
0000
0000
0000
0110
0000
0000
0100
0000
0000
0110
0000
,  // measure 39
0000
0100
0000
0000
0000
0000
0000
0000
1010
0000
0000
0010
0000
0000
1010
0000
,  // measure 40
0000
0010
0000
0000
0000
0000
0000
0000
0100
0000
0001
0000
0010
0000
0100
0000
,  // measure 41
1000
0001
0100
0001
0000
0000
0000
0000
;

//---------------dance-single - ----------------
#NOTES:
     dance-single:
     :
     Hard:
     11:
     0.532,0.494,0.600,0.078,0.572:
0000
0000
0000
0000
,
0000
0000
0000
0000
,
0000
0000
0000
0000
,
0000
0000
0000
0000
,
0000
0000
0000
0000
,
1001
0000
0000
1000
0000
0000
1010
0000
0000
0010
0000
0000
0000
0000
0010
0000
,
0110
0000
0000
0100
0000
0000
0101
0000
0000
0001
0000
0000
0000
0000
0000
0000
,
0011
0000
0000
0010
0000
0000
0110
0000
0000
0100
0000
0000
0000
0000
0100
1000
,
0100
1000
0000
0010
0100
0000
0100
0000
0010
0100
0000
0000
0002
0000
1000
0000
,
1003
0000
0000
0000
1001
0000
0000
0000
0001
0100
0010
0000
0110
0000
0000
0000
,
1100
0000
0000
0000
0010
0000
0001
0100
0000
0001
0100
0000
0110
0000
0000
0000
,
1000
0000
0000
0001
0000
0000
0000
0000
0000
1000
0000
0000
0001
0000
0000
0000
0000
0000
0100
0000
0000
0001
0000
0000
0000
0000
0000
0100
0000
0000
0001
0000
0000
0000
0000
0000
1000
0000
0000
0000
0100
0000
1000
0000
0000
0000
0000
0000
,
0010
0100
0000
0010
0100
0000
0001
1000
0000
0001
1000
0000
0100
0010
0000
0000
,
0101
0000
0000
0000
1001
0000
0000
0000
1000
0010
0100
0000
0110
0000
0000
0000
,
0011
0000
0000
0000
0001
0000
1000
0010
0000
1000
0010
0000
1001
0000
0000
0000
,
1000
0000
0000
0001
0000
0000
0000
0000
0000
1000
0000
0000
0001
0000
0000
0000
0000
0000
0010
0000
0000
0100
0000
0000
0000
0000
0000
0010
0000
0000
0100
0000
0000
0000
0000
0000
1000
0000
0000
0000
0010
0000
1000
0000
0000
0000
0000
0000
,
1001
0000
0000
0000
1000
0001
1000
0000
0001
0100
0000
0010
0100
0000
0001
0100
,
0000
0010
0100
0000
0001
0000
1000
0000
0010
0100
0000
1000
0100
0000
0010
0100
,
0000
1000
0100
0000
0010
0000
1000
0000
0001
1000
0000
0010
1000
0000
0001
1000
,
0000
0010
1000
0000
0001
0000
0010
0100
1000
0000
0001
0000
0001
0000
0100
0000
,
0100
0000
0010
0000
0010
0000
0000
0000
1000
0001
0000
0010
0100
0000
1000
0001
,
0000
0010
0100
0000
1000
0000
0001
0000
0100
0001
0000
1000
0100
0000
0010
0100
,
0000
1000
0010
0000
0100
0000
0001
0000
0010
0100
0000
1000
0010
0000
0100
0010
,
0000
0100
0001
0000
1000
0000
0001
0010
0001
0010
0000
0001
1000
0000
1000
0000
,
0010
0100
0000
0000
0002
0000
1000
0000
1003
0000
0001
0100
0000
0010
0000
0200
,
0000
0000
0001
0000
0001
0000
0301
0000
0000
0000
1100
0000
0000
0110
0000
0000
,
0011
0000
0000
1001
0000
0000
0110
0000
0000
0000
0010
0100
0000
0001
0000
0200
,
0000
0000
0010
0000
0010
0000
0310
0000
1010
0000
0000
0110
0000
0000
0102
0000
,
0000
0000
0000
0000
1003
0000
0000
0000
0001
0000
1000
0010
0100
0001
0000
0000
,
1000
0010
0100
0001
0000
0000
2001
0000
0000
0000
0100
0000
0000
0100
0000
0000
,
0001
0000
0000
0001
0000
0000
3001
0000
0000
0000
1000
0010
0000
0100
0000
0020
,
0000
1000
1000
1030
0001
0100
1000
0100
,
0001
0000
0010
0000
1000
0000
0010
0000
0011
0000
0000
1001
0000
0000
0011
0000
,
0000
1001
0000
0000
1000
0000
0001
0000
0101
0000
0000
0110
0000
0000
1010
0000
,
0000
0110
0000
0000
0010
0000
0000
0000
1100
0000
0000
0110
0000
0000
0101
0000
,
0000
1001
0000
0000
1000
0000
0000
0000
0101
0000
0000
0110
0000
0000
1100
0000
,
0000
1001
0000
0000
0110
0000
0000
0000
1001
0000
0000
0101
0000
0000
1001
0000
,
0000
0101
0000
0000
0100
0000
0010
0000
1010
0000
0000
0110
0000
0000
0101
0000
,
0000
1001
0000
0000
0001
0000
0000
0000
0011
0000
0000
0110
0000
0000
0011
0000
,
0000
0000
0000
0110
0000
0000
0000
0000
0000
0000
0000
0000
0100
0000
0000
0000
0000
0000
1000
0000
0000
0000
0000
0000
0001
0000
0010
0000
0001
0000
0010
0000
0000
0000
0000
0000
0001
0000
1000
0000
0001
0000
1000
0000
0000
0000
0000
0000
,
0100
1000
0100
1000
0000
0000
0010
0100
0010
0100
0001
0010
0000
0000
0000
0000
0000
0000
0000
0000
0000
0000
0000
0000
;

//---------------dance-single - ----------------
#NOTES:
     dance-single:
     :
     Beginner:
     1:
     0.075,0.110,0.133,0.000,0.000:
0000
0000
0000
0000
,
0000
0000
0000
0000
,
0000
0000
0000
0000
,
0000
0000
0000
0000
,
0000
0000
0000
0000
,
1001
0000
0000
0000
,
0110
0000
0000
0000
,
1001
0000
0000
0000
,
0001
0000
0000
0000
,
0100
0000
0000
0000
,
0001
0000
0000
0000
,
1000
0000
0000
0000
,
0100
0000
0000
0000
,
1000
0000
0000
0000
,
0001
0000
0000
0000
,
1000
0000
0000
0000
,
0100
0000
0010
0000
,
0000
0000
0001
0000
,
0000
0000
0010
0000
,
0000
0000
0000
0000
,
0000
0000
0001
0000
,
0000
0000
1000
0000
,
0000
0000
0001
0000
,
0000
0000
1000
0000
,
0000
0000
0010
0000
,
0000
0000
0100
0000
,
0000
0000
0010
0000
,
0000
0000
0100
0000
,
0000
0000
0001
0000
,
0000
0000
1000
0000
,
0000
0000
0001
0000
,
0000
0000
1001
0000
,
0000
0000
1001
0000
,
0000
0000
0110
0000
,
0000
0000
1001
0000
,
0000
0000
0110
0000
,
0000
0000
1001
0000
,
0000
0000
0110
0000
,
0000
0000
1001
0000
,
0000
0000
1001
0000
;
