#TITLE:Harpuia;
#SUBTITLE:;
#ARTIST:BlackY;
#TITLETRANSLIT:;
#SUBTITLETRANSLIT:;
#ARTISTTRANSLIT:;
#CREDIT:DigiMindAxel;
#BANNER:Harpuia.png;
#BACKGROUND:Harpuia-bg.png;
#LYRICSPATH:;
#CDTITLE:SOUND VOLTEX.png;
#MUSIC:Harpuia.ogg;
#METERTYPE:DDR X;
#OFFSET:-7.683;
#SAMPLESTART:70.810;
#SAMPLELENGTH:12.000;
#SELECTABLE:YES;
#DISPLAYBPM:*;
#BPMS:0.000=186.000,16.000=372.000,24.000=186.000,152.000=372.000,168.000=93.000,188.000=186.000,280.000=372.000,312.000=186.000;
#STOPS:313.500=0.322580
,315.500=0.322580
;
#BGCHANGES:;

//---------------dance-single - ----------------
#NOTES:
     dance-single:
     :
     Easy:
     7:
     0.313,0.494,0.169,0.228,0.000:
2000
0000
0000
0000
,
3020
0000
0000
0000
,
0130
0000
0000
0100
0000
0000
0100
0000
,
0000
0002
0000
0000
0000
0000
0000
0000
,
2000
0000
0000
0000
,
3003
0000
0000
0000
,
0001
0001
0010
0010
,
0001
0001
0010
0010
,
0100
0010
0001
1000
,
0020
0000
1030
0001
,
0010
0000
0100
1000
,
0010
0100
0010
1000
,
1001
0001
0010
0000
,
0100
0100
0010
0010
,
0001
1000
0100
0000
,
0010
0001
0100
0000
,
0001
0000
1000
0000
1001
0000
0000
1001
,
0000
0000
1001
0000
0000
1001
0000
0000
,
1000
0010
1000
0001
,
0010
0100
0010
0001
,
0100
0010
0100
0001
,
1000
1000
0001
0001
,
0200
0010
0000
0300
,
0020
0100
0000
0030
,
2000
0001
0000
3000
,
0002
1000
0000
0003
,
0020
0001
0001
0030
,
0200
1000
1000
0300
,
0020
0100
0100
0030
,
0200
0010
0010
0310
,
1001
0000
0001
0000
0000
0010
0000
0000
,
0100
0000
0000
1000
0000
0000
0010
0000
,
0000
0000
1001
0000
0000
1000
0000
0000
,
0100
0000
0000
0010
0000
0000
0000
0000
,
1001
1000
0001
1000
,
0100
0100
0010
0010
,
0001
0100
0010
0100
,
0001
1000
0001
1000
,
0200
0000
0000
0000
,
0000
0000
0000
0000
,
0000
0000
0000
0000
,
0000
0000
0000
0000
,
2300
0000
0000
0000
,
3002
0000
0000
0000
,
2003
0000
3002
0000
,
0023
0000
0230
0000
,
2300
0000
0002
0000
,
3003
0000
0000
0000
,
0001
0100
0001
0100
,
0010
1000
0010
1000
,
0001
0010
0100
0010
,
0001
1000
0020
0000
,
0130
0001
0100
0001
,
1000
0100
0010
0100
,
1000
0001
0100
0001
,
1000
0100
1000
0010
,
0100
0010
0100
0010
,
1000
0100
0010
0001
,
1001
1000
0001
0001
,
1000
0100
1000
0010
,
0100
0100
0010
0010
,
0100
0001
0010
0100
,
1001
1000
0001
0001
,
0100
0001
0100
0010
,
1001
1000
0001
0001
,
1000
0100
0010
0100
,
1000
1000
0010
0010
,
0100
0100
0001
0001
,
0010
0100
1000
0001
,
0110
0110
1001
1001
,
2002
0000
0000
0000
,
0000
0000
0000
0000
,
0000
0000
0000
0000
,
0000
0000
0000
0000
,
0000
0000
0000
0000
,
0000
0000
0000
0000
,
3003
0000
0000
0000
,
0000
0000
0000
0000
,
1001
0000
1001
0000
,
1001
0000
0220
0000
,
0000
0000
0000
0000
,
0000
0000
0000
0000
,
0000
0000
0000
0000
,
0000
0000
0330
0000
;

//---------------dance-single - ----------------
#NOTES:
     dance-single:
     :
     Medium:
     13:
     0.540,0.741,0.498,0.084,0.080:
1100
0000
0100
0000
0100
0000
0100
0100
,
1001
0001
0001
0001
,
0101
0000
0000
0110
0000
0000
1010
0000
,
0000
0000
1001
0000
0000
1000
0000
0000
0001
0000
0000
1000
0000
0000
0001
0000
,
2002
0000
0000
0000
,
0000
0000
3003
0000
,
0001
0100
0001
1000
0100
0000
0100
0000
,
0010
0100
0010
0001
0100
0000
0100
0000
,
0001
0000
0100
0000
0001
0000
1000
0000
0100
0000
0000
0100
0000
0000
0100
0000
,
0000
1001
0000
0000
0001
0010
0100
1000
,
0001
0000
0000
0000
0101
0000
0100
0010
,
0100
0001
1000
0000
1010
0000
1000
0000
,
1001
0000
0000
0001
0000
0000
0001
0000
0000
0000
0100
0000
0000
0000
0010
0000
,
1000
0001
1000
0001
0010
0100
0010
0000
,
0001
0100
0010
0100
0001
0000
0001
0000
,
0010
0100
1000
0100
0010
0000
0010
0000
,
0001
0000
1000
0000
0100
0000
1000
0000
0001
0000
0000
0001
0000
0000
0010
0000
,
0000
0010
0000
0000
0100
0000
0000
0100
0000
0000
1000
0000
0000
1000
0000
0000
,
1000
0001
0010
0100
1000
0000
0001
1000
,
0100
0010
1000
0010
0100
1000
0001
0000
,
1000
0010
0100
1000
0100
0010
1000
0000
,
0001
0100
0001
0100
0010
0010
0010
0000
,
1001
1100
0010
0001
,
0100
0110
0010
1000
,
0100
1100
0010
0001
,
1000
1010
0010
0100
,
0001
1001
0100
0010
,
0001
0101
0100
0010
,
1000
1001
0001
1001
,
1000
0100
1000
0100
0010
0001
0010
0001
,
0010
0000
0011
0000
0000
0110
0000
0000
,
1100
0000
0000
0110
0000
0000
1001
1001
,
0000
0000
0101
0000
0000
0110
0000
0000
,
1010
0000
0000
0220
0000
0000
0000
0330
,
1001
0000
1000
0001
1000
0001
0010
0000
,
0100
1000
0100
1000
0010
0100
0001
0000
,
1001
0100
1001
0100
,
1100
0000
0110
0000
0010
0001
0100
0010
,
2200
0000
0000
0000
,
0000
0000
0000
0000
,
0000
0000
0000
0000
,
0000
0000
3300
0000
,
1001
0001
0010
0100
,
1000
0000
0001
0100
0010
0000
0100
0000
,
0001
0000
1000
0000
0100
0000
0010
0001
,
1000
0000
1000
0000
0010
0000
0100
0001
,
1000
0000
0000
0001
0001
0000
0000
0000
,
1001
0000
0000
1000
0000
0000
0001
0000
0000
0000
0000
0000
1001
0000
0000
0000
,
1000
0010
0100
0001
0010
0100
0010
0001
,
1000
0100
0010
0001
0010
0100
1000
0000
,
0010
0000
0100
0000
0010
0000
0100
0000
0001
0000
0000
0010
0000
0000
0100
0000
,
1000
0001
1000
0001
0100
0010
1000
0000
,
0100
0010
0001
0010
0100
0010
0001
1000
,
0001
0100
0010
0100
0001
0100
0010
0000
,
0100
0010
0100
0001
0100
0010
1000
0100
,
0010
0001
0100
0001
0010
0001
0100
0000
,
1001
0000
0001
1000
0000
0001
1000
0000
,
0100
1000
0010
0100
0001
0001
0001
0000
,
1001
0000
0000
0000
1100
0000
0000
0000
0011
0000
0000
0001
0000
0000
0001
0000
,
1001
0000
0000
0000
0101
0000
0000
0000
1010
0000
0000
1000
0000
0000
1000
0000
,
0001
0000
0100
0000
0001
0000
1000
0000
0100
0000
0000
0100
0000
0000
0010
0000
,
0000
0010
0000
0000
0001
0000
0000
0001
0000
0000
0010
0000
0000
0010
0000
0000
,
0011
0001
0010
0100
1000
0010
1000
0001
,
1001
1000
0100
1000
0010
0100
0001
1000
,
1010
0010
0100
0001
1001
1000
0100
0010
,
1001
1000
0100
0010
0001
1000
0100
0010
,
0101
0100
0010
0100
0001
1000
0100
0000
,
1001
1000
0100
0010
0100
1000
0010
0000
,
0101
0100
0001
1000
0100
0010
0001
1000
,
0100
0100
1000
1000
0010
0100
0001
0100
,
0202
0000
0000
0000
,
0000
0000
0000
0000
,
0000
0000
0000
0000
,
0000
0000
0000
0000
,
0000
0000
0000
0000
,
0000
0000
0000
0000
,
0303
0000
0000
0000
,
0000
0000
0000
0000
,
1001
0000
0000
1000
0000
0000
0001
0000
0110
0000
0000
0010
0000
0000
0100
0000
,
1010
0000
0000
1000
0000
0000
0010
0000
0220
0000
0000
0000
0000
0000
0000
0000
,
0000
0000
0000
0000
,
0000
0000
0000
0000
,
0000
0000
0000
0000
,
0000
0000
0330
0000
;

//---------------dance-single - ----------------
#NOTES:
     dance-single:
     :
     Hard:
     16:
     0.756,0.917,0.575,0.177,0.600: // measure 1
1002
1000
1000
1000
,  // measure 2
0203
0001
0001
0301
,  // measure 3
1001
0000
1000
1001
0000
0001
1001
0000
,  // measure 4
0000
0000
1001
0000
0000
0001
0000
0000
0010
0000
0000
0100
0000
0000
1000
0000
,  // measure 5
2020
0000
0000
3000
,  // measure 6
0000
0100
0130
0000
,  // measure 7
0001
0000
0100
0000
0001
0000
1000
0000
0100
0000
1000
0001
0000
1000
0001
0000
,  // measure 8
0100
0000
0001
0000
1000
0000
0100
0000
1000
0000
0010
0100
0000
0010
0100
0000
,  // measure 9
0001
0000
0010
0000
0100
0000
1000
0000
1100
0000
0000
1100
0000
0000
1100
0000
,  // measure 10
0000
0000
1001
0000
0001
0000
0010
0000
0100
0010
0100
0000
1000
0001
1000
0000
,  // measure 11
0010
0000
0100
0000
1000
0000
0100
0000
0010
0000
0000
0000
1000
0000
0000
1000
,  // measure 12
0010
0000
0100
0000
0010
0000
1000
0000
0100
0000
0010
0000
0100
1000
0100
1000
,  // measure 13
0100
1000
0001
0010
0100
1000
0001
0100
,  // measure 14
0010
0000
0010
0000
0100
0000
0100
0000
0001
1000
0100
1000
0001
0000
0000
0000
,  // measure 15
1001
0000
0001
0000
0100
0000
0001
0000
1000
0000
0100
0010
0000
0100
0010
0000
,  // measure 16
0001
0000
0100
0000
0010
0000
0100
0000
0001
0000
1000
0100
0000
1000
0100
0000
,  // measure 17
0010
0000
0001
0000
0010
0000
0001
0000
1001
0000
0000
1001
0000
0000
0110
0000
,  // measure 18
0000
0110
0000
0000
1100
0000
0000
1100
0000
0000
1001
0000
0000
1001
0000
0000
,  // measure 19
1100
0000
0010
0000
0001
0000
1000
0000
0010
0000
0100
0000
0010
1000
0001
1000
,  // measure 20
0010
0100
0001
0010
0001
1000
0100
0010
,  // measure 21
0001
1000
0001
0000
0010
0000
0100
0000
1000
0010
1000
0000
0001
0010
0100
0000
,  // measure 22
0020
0001
0032
0100
0203
0010
0010
0310
,  // measure 23
1001
0000
0001
0000
0100
0001
0000
1000
0000
0100
0000
0010
0000
0000
0001
0000
,  // measure 24
0100
0000
0100
0000
0010
1000
0000
0001
0000
0010
0000
0100
0000
0000
1000
0000
,  // measure 25
0010
0000
0010
0000
1000
0001
0000
0100
0000
0010
0000
1000
0000
0000
0100
0000
,  // measure 26
0010
0000
0010
0000
0001
1000
0000
0010
0000
0100
0000
0001
0000
0000
1000
0000
,  // measure 27
0100
0000
0100
0000
0010
0100
0000
1000
0000
0001
0000
0100
0000
0000
0010
0000
,  // measure 28
0100
0000
0100
0000
0001
1000
0000
0100
0000
0010
0000
0001
0000
0000
0100
0000
,  // measure 29
0010
0000
0010
0000
0100
0001
0000
1000
0000
1000
0000
0010
0100
0000
0100
0000
,  // measure 30
0001
0010
0100
0010
0001
1000
0010
1000
,  // measure 31
0001
0001
0110
0000
1000
0110
0000
0001
,  // measure 32
0110
0000
1000
0110
0000
0001
0110
0110
,  // measure 33
0000
1000
0110
0000
0001
0110
0000
1000
,  // measure 34
0110
0000
0000
0000
0000
0000
0001
0000
0000
0110
0000
0000
0000
0000
1000
0000
0100
0000
1000
0000
0001
0000
0010
0000
,  // measure 35
0100
0000
1000
0000
0010
1000
0000
0100
0000
1000
0000
0010
0000
0000
1000
0000
,  // measure 36
0100
0000
0010
0000
0001
0100
0000
0010
0000
0100
0000
0001
0000
0000
1000
0000
,  // measure 37
0100
0100
1000
0010
0100
0100
0001
0010
,  // measure 38
0200
0000
0000
1000
0000
0000
1300
0001
1000
0001
1000
0001
0100
0010
0100
0010
,  // measure 39
0200
0000
0000
0000
,  // measure 40
0000
0000
0000
0000
,  // measure 41
0000
0000
0000
0000
,  // measure 42
0000
0000
0310
0000
,  // measure 43
0012
0203
0320
2030
,  // measure 44
3002
0000
1003
0100
0001
0000
0100
0000
,  // measure 45
1000
0000
0001
0000
0010
0000
0001
0100
,  // measure 46
1000
0000
0100
0000
0001
0000
0010
0100
,  // measure 47
2000
0000
0000
0001
3001
0000
0000
0000
,  // measure 48
1001
0000
0000
1001
0000
0000
1001
0000
1000
0010
0100
0010
1000
0000
0000
0000
,  // measure 49
1001
0000
0001
0000
0100
0010
0000
1000
0100
0000
0001
0000
0100
0000
1000
0000
,  // measure 50
0010
0100
0001
0020
0000
0100
0100
0130
,  // measure 51
1010
0000
0000
1010
0000
0000
0010
0000
1001
0000
0000
1001
0000
0000
1001
0000
,  // measure 52
0001
0000
0010
0000
1000
0000
0010
0000
0001
1000
0001
1000
0020
0000
0000
0000
,  // measure 53
0130
0000
0001
0000
1000
0100
0000
0010
0100
0000
1000
0000
0010
0000
0001
0000
,  // measure 54
0010
0000
1000
0100
0000
1000
0001
0000
1000
0100
0000
1000
0001
0000
0100
0000
,  // measure 55
1000
0000
0100
0000
0001
1000
0000
0010
0000
1000
0001
0000
0010
0000
0001
0000
,  // measure 56
1000
0100
0010
0000
0001
0000
0100
0000
1000
0000
0100
0000
0001
0000
1000
0000
,  // measure 57
1001
0010
0010
1000
1000
0100
0010
0001
,  // measure 58
1000
0010
1000
0000
0001
1000
0001
0000
0010
0001
0010
0001
0100
0010
0100
0010
,  // measure 59
1000
0000
0000
1000
0010
0000
0000
0010
0100
0000
0000
0101
0000
0000
1010
0000
,  // measure 60
1001
0000
0000
0001
0100
0000
0000
0100
0010
0000
0000
1010
0000
0000
0101
0000
,  // measure 61
1001
0000
0001
0000
0100
0010
0100
0001
1000
0000
0000
1001
0000
0000
0011
0000
,  // measure 62
0000
0011
0000
0000
1100
0000
0000
1100
0000
0000
1001
0000
0000
1001
0000
0000
,  // measure 63
0001
0000
0001
0000
0010
0000
0100
1000
0000
0001
1000
0000
0100
1000
0100
0000
,  // measure 64
0010
0000
0100
0000
1000
0000
0001
0100
0001
0000
0010
0000
0100
1000
0010
0100
,  // measure 65
0001
0100
0000
0001
1000
0000
0001
0100
0000
0001
1000
0000
0100
1000
0100
1000
,  // measure 66
0001
0000
0100
0000
1000
0000
0100
0000
0001
0000
0100
0010
1000
0100
1000
0100
,  // measure 67
1000
0000
0010
0100
0000
0001
0100
0000
0001
0000
0100
0000
1000
0000
0100
0000
,  // measure 68
1001
0000
1000
0010
0000
1000
0001
0000
0010
0000
0100
0000
1000
0010
0100
0010
,  // measure 69
1000
0000
0001
0010
0001
0000
0010
0100
0010
0000
0100
1000
0100
0000
1000
0010
,  // measure 70
0100
0000
0001
1000
0001
0000
0100
0010
1000
0000
0001
0010
0001
0010
0100
0000
,  // measure 71
2002
0000
0000
0000
,  // measure 72
0000
0000
0000
0000
,  // measure 73
0000
0000
0000
0000
,  // measure 74
0000
0000
0000
0000
,  // measure 75
0000
0000
0000
0000
,  // measure 76
0000
0000
0000
3003
,  // measure 77
0100
0000
0000
0100
0000
0000
0100
0000
,  // measure 78
0010
0100
1001
0000
,  // measure 79
1100
0000
0000
0110
0000
0000
0011
0000
0101
0000
0000
0110
0000
0000
1010
0000
,  // measure 80
1001
0000
0000
0011
0000
0000
1100
0000
2002
0000
0000
0000
0000
0000
0000
0000
,  // measure 81
0000
0000
0000
0000
,  // measure 82
0000
0000
0000
0000
,  // measure 83
0000
0000
0000
0000
,  // measure 84
0000
0000
3003
0000
;

//---------------dance-single - ----------------
#NOTES:
     dance-single:
     :
     Challenge:
     19:
     1.000,1.000,0.634,0.034,1.000:
1000
0001
0000
0100
0000
0001
0000
0100
,
0110
0010
0000
1000
0000
0010
0000
1000
,
1001
0000
0000
0011
0000
0000
1100
0000
,
0000
0000
0011
0000
0000
0110
0000
0000
1100
0000
0000
0011
0000
0000
1100
0000
,
1001
0000
0000
0001
1000
0100
0010
0001
,
0010
0100
1000
0001
0100
0001
1000
0000
,
0001
0000
0100
0010
0000
1000
0010
0000
0100
0000
0001
0010
0000
0010
0100
0000
,
1000
0000
0001
0100
0000
0001
1000
0000
0100
0000
0010
0001
0000
0001
0100
0000
,
1001
0000
1000
0100
0000
0010
0100
0000
1100
0000
0000
1001
0000
0000
0101
0000
,
0100
0000
0110
0000
0010
0000
1000
0000
0100
0010
0001
1000
0010
0100
0010
1000
,
0001
0000
0100
0000
0010
0000
0100
0000
1001
0000
1000
0000
0010
0000
1000
0001
,
0010
0000
0100
1000
0000
0010
0100
0000
0001
1000
0100
0000
0010
0001
1000
0001
,
0010
0000
0100
1000
0000
0001
1000
0000
0001
0000
0100
0000
0001
0000
1000
0000
,
1100
0000
0100
0000
0110
0000
0010
0000
0001
0010
0100
0010
0001
0000
0000
0000
,
1001
0000
1000
0100
0000
0010
0100
0000
1000
0000
0010
0100
0000
0100
0001
0000
,
0010
0000
0100
0010
0000
0001
0100
0000
0010
0000
1000
0100
0000
0100
0010
0000
,
0101
0000
0001
0000
1000
0100
0010
0000
0101
0000
0000
1010
0000
0000
1001
0000
,
0000
0011
0000
0000
1100
0000
0100
0010
0000
0001
1000
0000
0100
0010
0000
0001
,
0100
0000
0010
1000
0010
1000
0001
0010
0001
0000
1000
0000
0100
0010
0001
0010
,
0100
0000
1000
0000
0010
0100
0000
0001
0010
0000
0100
1000
0000
0001
0100
0000
,
0010
1000
0010
1000
0001
0010
0001
0010
0100
1000
0100
1000
0001
0100
0010
0100
,
0001
0010
0100
1000
0001
0010
0100
1000
0001
0010
0100
1000
0001
0010
0100
0000
,
1010
0000
1010
0000
1000
0001
0000
0010
0000
0100
0000
1000
0010
0000
1000
0001
,
0010
0000
0011
0000
0100
1000
0000
0010
0000
0100
0000
0001
1000
0000
0010
1000
,
0001
0000
1001
0000
1000
0010
0000
0100
0000
0001
0000
0100
0010
0000
0100
0001
,
1000
0000
1001
0000
0001
0010
0000
0100
0000
0010
0000
0001
0100
0000
0010
1000
,
0100
0000
1100
0000
0010
0001
0000
0100
0000
0010
0000
1000
0100
0000
0010
0100
,
1000
0000
1100
0000
0010
0001
0000
0100
0000
0010
0000
1000
0100
0000
0010
0001
,
0100
0000
0101
0000
0010
1000
0000
0001
0000
0001
0000
0100
0010
0000
0100
0010
,
0000
1000
0100
0010
0100
0010
0001
0100
0010
0100
0010
1000
0100
1000
0100
0000
,
0010
0100
1001
0010
0100
1001
0100
0010
,
1001
0000
0100
0000
0010
0000
1001
0000
0010
0100
0010
0000
1001
0000
1001
0000
,
0100
0010
0101
0010
0100
1010
0100
0010
,
0101
0000
0000
0010
0000
0000
0100
0000
0000
1010
0000
0000
0000
0000
1000
0000
1000
0000
0010
0000
0010
0000
0100
0000
,
0100
0000
0001
0000
1000
0100
0000
0001
0000
0100
0000
1000
0010
0000
0100
0001
,
1000
0000
0001
0000
1000
0010
0000
0001
0000
0010
0000
1000
0100
0000
0010
0100
,
1000
0000
0001
0000
1000
0100
0000
0001
0000
0100
0000
1000
0010
0000
0100
0001
,
1000
0100
1000
0100
0010
0001
0100
0010
0100
0001
0010
0100
1000
0001
0010
0100
,
1000
0000
0000
0000
0001
0010
0001
0010
,
0100
1000
0100
1000
0001
0100
0001
0100
,
0010
1000
0010
1000
0001
0010
0100
1000
,
0001
0100
0010
1000
0001
0010
0100
0000
,
1010
0000
1000
0001
0010
0000
0100
1000
0010
0000
0100
0001
0010
0000
0100
1000
,
0010
0000
0000
0000
1000
0001
0010
0001
1000
0000
0100
0010
0001
0000
1000
0100
,
0010
0000
0100
1000
0010
0000
0100
0001
0010
0000
0000
0000
0001
1000
0100
1000
,
0001
0000
0010
0100
1000
0000
0001
0100
0010
0000
0000
0000
1000
0001
0100
0001
,
1000
0100
1000
0010
0100
0000
0001
1000
0010
1000
0001
0010
0200
0000
0000
0300
,
1100
0000
0000
0011
0000
0000
1100
0000
0010
0001
1000
0001
0010
0000
0000
0000
,
1001
0000
1000
0010
1000
0000
0010
0100
0010
0000
0100
0001
0100
0000
0001
1000
,
0100
0000
0100
0000
0010
0000
0010
0000
0001
0100
0010
0000
0100
0010
1000
0000
,
1100
0000
0000
1100
0000
0000
0010
0001
0100
0000
0000
0101
0000
0000
1001
0000
,
1100
0000
0010
0000
0001
0000
1000
0010
0100
0001
0100
0010
1000
0001
1000
0000
,
0001
0000
0100
0001
0100
0000
0010
0100
0010
0000
1000
0010
1000
0000
0001
0010
,
0100
1000
0000
1000
0001
0000
0001
0100
0000
0100
0010
0000
0100
0000
0001
0000
,
0100
0010
0100
0000
0010
1000
0100
0010
0001
1000
0010
0100
0010
1000
0010
0000
,
1000
0100
0001
0100
1000
0010
0001
0010
1000
0001
1000
0000
0100
0000
0010
0000
,
0101
0001
1100
1000
1001
0001
1100
1000
,
0100
0010
0001
1000
0010
0100
0010
1000
0001
0010
1000
0010
0001
1000
0010
1000
,
0001
0000
0010
0001
0100
0000
0100
0010
1000
0000
1000
0100
0010
0000
0010
0001
,
1000
0000
1000
0001
0010
0000
0010
0100
1000
0000
1000
0001
0100
0000
0100
0010
,
1000
0000
1000
0000
0100
0010
0001
0010
0100
0000
1000
0010
0000
0010
0100
0000
,
0100
0001
0000
0001
1000
0000
1000
0100
0000
0100
0010
0000
0010
0001
0000
0001
,
0100
0000
0110
0000
1010
0000
0100
0001
1000
0100
0001
0100
1000
0001
0100
0000
,
1001
0000
0011
0000
0001
1000
0010
0001
0010
1000
0001
0010
0100
1000
0010
0000
,
0100
0001
0000
0001
1000
0000
1000
0100
0000
0100
0010
0000
0001
0100
0010
1000
,
0100
0010
0100
0010
0001
0100
0001
0100
0010
1000
0100
1000
0001
0010
0100
1000
,
0001
0000
0100
0001
1000
0001
0100
0000
1001
0000
1000
0100
0010
0100
1000
0000
,
0101
0000
0001
1000
0100
1000
0001
0000
1001
0000
1000
0100
1000
0001
0100
0010
,
1000
0100
0001
0100
1000
0010
0100
0010
1000
0010
0001
0010
1000
0100
0010
0100
,
1000
0000
1000
0010
0100
0000
0100
0001
0010
1000
0010
0001
1000
0010
0100
0001
,
0200
0000
0000
0000
,
0000
0000
0000
0000
,
0000
0010
0000
0010
,
0000
0010
0000
0010
,
0000
0010
0000
0010
,
0000
0010
0000
0310
,
1000
0001
0000
0100
0001
0000
1000
0100
,
0010
0001
0100
0000
1010
0000
0000
0000
,
1001
0000
0000
0011
0000
0000
1100
0000
1001
0000
0000
1010
0000
0000
0101
0000
,
0011
0000
0000
0110
0000
0000
1100
0000
2002
0000
0000
0000
0000
0000
0000
0000
,
0000
0000
0000
0000
,
0000
0000
0000
0000
,
0000
0000
0000
0000
,
0000
0000
3003
0000
;

//---------------dance-single - ----------------
#NOTES:
     dance-single:
     :
     Beginner:
     5:
     0.170,0.336,0.144,0.000,0.000:
1000
0000
0000
0000
,
1000
0000
0000
0000
,
1001
0000
0000
0000
,
1001
0000
0000
0000
,
0001
0000
0000
0000
,
0000
0000
0000
0000
,
1000
0000
0000
0000
,
0010
0000
0000
0000
,
1000
0000
1000
0000
,
0001
0000
0001
0000
,
0010
0000
0000
0000
,
0100
0000
0000
0000
,
0010
0000
0000
0000
,
0100
0000
1000
0000
,
0100
0000
0100
0000
,
1000
0000
1000
0000
,
0010
0000
0100
0000
,
0010
0000
0000
0000
,
1001
0000
0001
0000
,
1000
0000
1000
0000
,
0001
0000
0010
0000
,
0100
0000
0100
0000
,
1001
0000
1000
0000
,
1000
0000
0000
0000
,
0010
0000
0010
0000
,
0010
0000
0000
0000
,
0100
0000
0100
0000
,
0100
0000
0000
0000
,
0001
0000
0001
0000
,
0001
0000
0000
0000
,
1000
1001
0000
0000
,
1001
0000
0000
0000
,
0010
0110
0000
0000
,
0110
0000
0000
0000
,
0001
0000
1000
0000
,
0001
0000
1000
0000
,
0100
0000
1000
0000
,
0010
0010
0010
0000
,
1001
0000
0000
0000
,
0000
0000
0000
0000
,
0000
0000
0000
0000
,
0000
0000
0000
0000
,
1000
0000
0000
0000
,
0100
0000
0000
0000
,
0010
0000
0000
0000
,
0001
0000
0000
0000
,
1000
0000
0000
0000
,
1001
0000
0000
0000
,
0001
0000
0001
0000
,
0010
0000
0001
0000
,
0010
0000
0010
0000
,
0100
0000
0100
0000
,
1000
0000
0010
0000
,
1000
0000
1000
0000
,
0001
0000
1000
0000
,
0001
0000
0001
0000
,
0100
0000
0010
0000
,
0100
0000
0100
0000
,
1001
0000
1000
0000
,
0001
0000
1000
0000
,
1001
0000
1000
0000
,
0100
0000
0010
0000
,
0001
0100
0001
0000
,
1000
0001
1000
0000
,
0001
0100
0001
0000
,
1000
0001
1000
0000
,
0100
1000
0100
0000
,
1000
0001
1000
0000
,
0100
1000
0100
1000
,
0100
0010
0100
0010
,
1001
0000
0000
0000
,
0000
0000
0000
0000
,
0000
0000
0000
0000
,
0000
0000
0000
0000
,
0000
0000
0000
0000
,
0000
0000
0000
0000
,
0000
0000
0000
0000
,
0000
0000
0000
0000
,
1001
0000
1001
0000
,
1001
0000
0110
0000
;
