#TITLE:星屑ディスタンシア;
#SUBTITLE:;
#ARTIST:ARM feat.普透明度 + Brasscapsule;
#TITLETRANSLIT:HOSHIKUZU DISTANCIA;
#SUBTITLETRANSLIT:;
#ARTISTTRANSLIT:ARM feat.FUTOUMEIDO + Brasscapsule;
#CREDIT:DigiMindAxel;
#BANNER:HOSHIKUZU DISTANCIA.png;
#BACKGROUND:HOSHIKUZU DISTANCIA-bg.png;
#LYRICSPATH:HOSHIKUZU DISTANCIA.lrc;
#CDTITLE:beatmania IIDX.png;
#MUSIC:HOSHIKUZU DISTANCIA.ogg;
#METERTYPE:DDR X;
#OFFSET:-1.116;
#SAMPLESTART:86.665;
#SAMPLELENGTH:12.000;
#SELECTABLE:YES;
#BPMS:0.000=110.000;
#STOPS:;
#BGCHANGES:-1.000=HOSHIKUZU DISTANCIA.avi=1.000=1=1=0,
99999=-nosongbg-=1.000=0=0=0 // don't automatically add -songbackground-
;

//---------------dance-single - ----------------
#NOTES:
     dance-single:
     :
     Easy:
     3:
     0.172,0.215,0.180,0.205,0.000: // measure 1
0000
0000
0000
0000
,  // measure 2
0000
0000
0000
0000
,  // measure 3
2001
0000
0000
3000
,  // measure 4
0002
0000
0000
0003
,  // measure 5
1001
0000
1001
0000
,  // measure 6
1001
0000
0000
0000
,  // measure 7
0020
0000
0000
0000
,  // measure 8
0230
0000
0000
0000
,  // measure 9
0320
0000
0130
0000
,  // measure 10
1001
0000
0001
0000
,  // measure 11
1000
0000
1000
0000
,  // measure 12
0100
0000
0010
0000
,  // measure 13
0002
0000
0000
0000
,  // measure 14
1003
0000
0010
0100
,  // measure 15
0010
0000
1000
0000
,  // measure 16
0001
0010
0001
0000
,  // measure 17
0100
0010
0100
0010
,  // measure 18
1000
0000
0100
0000
,  // measure 19
0010
0001
0010
0000
,  // measure 20
0002
0000
0203
0000
,  // measure 21
0320
0000
0000
0030
,  // measure 22
2002
0000
3003
0000
,  // measure 23
0220
0000
0330
0000
,  // measure 24
0002
0000
2003
0000
,  // measure 25
3100
0010
0100
0010
,  // measure 26
0002
0000
0203
0000
,  // measure 27
0320
0000
0230
0000
,  // measure 28
0302
0000
2003
0000
,  // measure 29
3100
0000
0000
0000
,  // measure 30
0010
0000
0010
0000
,  // measure 31
0010
0000
0010
0000
,  // measure 32
0001
0000
0001
0000
,  // measure 33
0001
0000
0001
0000
,  // measure 34
1001
0000
0000
0110
,  // measure 35
0000
0000
0000
1001
,  // measure 36
0000
0000
1000
0100
,  // measure 37
0010
0000
0010
0000
,  // measure 38
0110
0000
0110
0000
,  // measure 39
0000
0000
0000
0000
,  // measure 40
2002
0000
0000
3003
,  // measure 41
0001
0100
0001
1000
,  // measure 42
0100
0000
0010
0000
,  // measure 43
0001
1000
0001
0010
,  // measure 44
0100
0000
1000
0000
,  // measure 45
0010
0100
0001
0000
,  // measure 46
0010
0100
1000
0000
,  // measure 47
1001
0000
0110
0000
,  // measure 48
1001
0000
0110
0000
,  // measure 49
1001
0000
0110
0000
,  // measure 50
0110
0000
0110
0000
,  // measure 51
1001
0000
1000
0000
,  // measure 52
0200
0000
0010
0000
,  // measure 53
0320
0000
0030
0000
;

//---------------dance-single - ----------------
#NOTES:
     dance-single:
     :
     Medium:
     7:
     0.339,0.344,0.074,0.237,0.094: // measure 1
0000
0000
0000
0000
,  // measure 2
0000
0000
0000
0000
,  // measure 3
1001
1000
1000
1000
,  // measure 4
0001
0001
0001
0001
,  // measure 5
0010
0000
0000
0000
0000
0100
0000
0000
0000
0000
0000
0000
0010
0000
0000
0000
0000
0100
0000
0000
0000
0000
0000
0000
,  // measure 6
2000
0000
0000
0000
,  // measure 7
3001
0001
0001
0001
,  // measure 8
0100
0100
0100
0100
,  // measure 9
0010
0000
0000
0000
0000
1000
0000
0000
0000
0000
0000
0000
0010
0000
0000
0000
0000
1000
0000
0000
0000
0000
0000
0000
,  // measure 10
0001
0001
0000
0000
1000
0000
0100
0000
,  // measure 11
0010
0010
0000
0000
0001
0000
0100
0000
,  // measure 12
0020
2030
3200
0320
,  // measure 13
0032
0000
0000
0000
,  // measure 14
1003
0000
0001
0100
0000
0010
0100
0001
,  // measure 15
1000
0100
0100
0000
0010
0100
0100
0000
,  // measure 16
2000
0000
3001
0010
0000
0100
0020
0000
,  // measure 17
0031
0100
0001
0100
0010
1000
0001
0000
,  // measure 18
1000
0001
0100
0001
0000
1000
0100
0000
,  // measure 19
0010
0001
1000
0000
0100
0100
0100
0000
,  // measure 20
0020
0000
0032
0000
,  // measure 21
1003
0000
0100
1000
0000
0100
0010
0000
0001
0100
0000
0001
,  // measure 22
2000
3200
0320
0130
,  // measure 23
2000
3020
0230
0310
,  // measure 24
1000
0000
0000
0000
0000
0001
0000
0000
0000
0010
0000
0000
0100
0000
0000
0000
0000
1000
0000
0000
0000
0100
0000
0000
,  // measure 25
0010
0001
0001
1000
2000
0000
3020
0000
,  // measure 26
0130
0001
0010
1000
0010
0000
0001
0000
,  // measure 27
1000
0001
0100
1000
0100
0000
0001
0000
,  // measure 28
1000
0001
0010
1000
0010
0001
1000
0100
,  // measure 29
0010
0000
0000
0000
,  // measure 30
0001
1000
0100
0000
1000
0100
0010
0000
,  // measure 31
0001
0001
0100
0100
0010
0010
0010
0000
,  // measure 32
1000
0001
0010
0000
0001
0010
0100
0000
,  // measure 33
1000
0001
0001
0100
0010
0100
0001
0000
,  // measure 34
1000
0000
0000
0001
0000
0000
0000
0000
0000
0010
0000
0000
0000
0000
0000
0100
0000
0000
0000
0000
1000
0000
0000
1001
,  // measure 35
0000
0000
0000
0001
0000
0000
0000
0000
0000
0100
0000
0000
0000
0000
0000
0010
0000
0000
0000
1000
0000
0000
1001
0000
,  // measure 36
0000
0001
0000
0010
0100
0010
0100
1000
,  // measure 37
0010
0000
0000
0000
2000
0000
3001
0000
0000
0000
0200
0000
,  // measure 38
0301
0000
0000
0000
2000
0000
3100
0000
0000
2002
0000
0000
,  // measure 39
0000
0000
0000
3003
,  // measure 40
2002
0000
0000
3003
,  // measure 41
0001
0000
1000
0100
0010
0001
0100
0010
,  // measure 42
0100
0000
0001
0000
1000
0000
0001
1000
,  // measure 43
0100
0000
1000
0100
0010
0001
0010
0100
,  // measure 44
1000
0000
0010
0000
0110
0000
0100
0100
,  // measure 45
1001
0000
1000
0100
0010
0100
1000
1000
,  // measure 46
0000
0000
0001
0010
0100
0010
0001
0001
,  // measure 47
2000
0000
0000
0000
0000
3010
0000
0000
0000
0000
0000
0000
0200
0000
0000
0000
0000
0301
0000
0000
0000
0000
0000
0000
,  // measure 48
1000
0000
0000
0000
1000
0000
0001
0000
0000
0000
1000
0000
0002
0000
0000
0000
0000
0100
0000
0000
0103
0000
0000
0000
,  // measure 49
0001
1000
0010
0001
0010
1000
0001
0000
,  // measure 50
1000
0001
0100
1000
0100
0001
1000
0000
,  // measure 51
0110
0100
1001
0001
,  // measure 52
0010
0100
1000
0001
0010
0100
1000
0001
,  // measure 53
0200
0000
0300
0000
;

//---------------dance-single - ----------------
#NOTES:
     dance-single:
     :
     Hard:
     11:
     0.500,0.537,0.254,0.311,0.442: // measure 1
0000
0000
0000
0000
,  // measure 2
0000
0000
0000
0000
,  // measure 3
1001
1000
1000
1000
,  // measure 4
0010
0010
0010
0010
,  // measure 5
0110
0000
0000
0000
0000
0202
0000
0000
0000
0303
0000
0000
0110
0000
0000
0000
0000
0202
0000
0000
0000
0303
0000
0000
,  // measure 6
0001
0001
0001
0001
,  // measure 7
0010
0000
0000
0100
0000
0000
0010
0000
0000
0100
0000
0000
0010
0000
0000
0100
0000
0000
0010
0000
0110
0000
0000
0000
,  // measure 8
1001
0000
0000
0001
0000
0000
1000
0000
0000
0001
0000
0000
1000
0000
0000
0001
0000
0000
1000
0000
1001
0000
0000
0000
,  // measure 9
0101
0000
0000
0000
0000
2002
0000
0000
0000
3003
0000
0000
1010
0000
0000
0000
0000
2002
0000
0000
0000
3003
0000
0000
,  // measure 10
1000
0000
0000
1000
0000
0000
0000
0000
0100
0000
0000
0000
0010
0000
0000
0000
0000
0001
0000
0000
0000
0100
0000
0000
,  // measure 11
0010
0000
0000
0010
0000
0000
0000
0000
0100
0000
0000
0000
0001
0000
0000
0000
0000
1000
0000
0000
0000
0100
0000
0000
,  // measure 12
0010
0000
0001
0000
0000
0001
0000
0000
0001
0000
0000
0001
0000
0000
0001
0000
0000
0001
0000
0000
0001
0000
0000
0002
,  // measure 13
0000
0000
0000
0003
,  // measure 14
1001
0000
0000
1000
0000
0000
0010
0000
0000
0110
0000
0000
0000
0000
0000
0100
0000
0000
0001
0000
0010
0000
0000
0100
,  // measure 15
0000
0000
0000
2000
0000
0000
3002
0000
0000
0103
0000
0001
0000
0000
0010
0000
0000
0100
2000
0000
0000
0000
0000
0000
,  // measure 16
3001
0000
0000
0100
0000
0000
0001
0000
0000
1001
0000
0000
0000
0000
0000
1000
0000
0000
0100
0000
2000
0000
0000
0000
,  // measure 17
0000
0000
0000
0001
3000
0000
0100
0000
0000
0010
0000
0000
1000
0000
0000
0001
0000
0000
0100
0000
0000
0010
0000
0000
,  // measure 18
1001
0000
0000
1000
0000
0000
0010
0000
0000
0110
0000
0000
0000
0000
0000
0100
0000
0000
0001
0000
0010
0000
0000
0100
,  // measure 19
0000
0000
0000
1000
0000
0000
0010
0000
0000
1000
0000
0001
0000
0000
0001
0000
0000
0001
0000
0000
0000
0000
0000
0000
,  // measure 20
0020
0230
2300
0000
0000
3200
0320
0032
,  // measure 21
1003
0100
1000
0001
0100
0001
1000
0010
0001
0010
1000
0100
,  // measure 22
0010
0001
0100
0110
0000
0010
1000
0001
,  // measure 23
0020
0100
0130
1000
0010
0200
0001
0301
,  // measure 24
1000
0000
0100
0010
0000
0100
0000
0000
1000
0010
0000
0000
1000
0000
0001
0010
0000
0001
0000
0000
0100
0010
0000
0000
,  // measure 25
0100
0000
0001
0010
0001
0000
1000
0100
1000
0000
0001
0000
0010
0000
0100
0000
,  // measure 26
1000
0000
0001
0100
0000
0000
0001
0000
0000
0100
0000
0010
0000
0000
1000
0000
0000
0000
0100
0000
0000
0000
0000
0000
,  // measure 27
0010
0000
0001
0010
0000
0000
0100
0000
0000
1000
0000
0010
0000
0000
1000
0000
0000
0000
0001
0000
0000
0000
0000
0000
,  // measure 28
0020
0001
0031
0100
2000
0010
3020
0100
,  // measure 29
0130
0000
0000
0000
0000
0000
0000
0000
0000
0000
0000
0000
0001
0000
1000
0000
0000
1000
0000
0000
1000
0001
0000
0000
,  // measure 30
0010
1000
0010
0001
0010
1000
0010
0001
,  // measure 31
0100
0100
0010
0010
1000
0001
0100
0000
,  // measure 32
0001
1000
0010
0001
0010
1000
0010
0001
,  // measure 33
0010
1000
1000
0100
0010
0001
0100
0000
,  // measure 34
1001
0000
0000
1000
0000
0000
0010
0000
0000
0100
0000
0000
0010
0000
0000
1000
0000
0001
0000
0000
0001
0000
0000
1001
,  // measure 35
0000
0000
0000
1000
0000
0000
0100
0000
0000
0010
0000
0000
0001
0000
0000
1000
0000
0000
0000
0001
0000
0000
1001
0000
,  // measure 36
0000
0000
0001
0000
0010
0000
0100
0000
0010
0001
0010
0001
0100
0010
0100
0010
,  // measure 37
2000
0000
0000
3100
0020
0000
0032
0000
0000
0103
0020
0000
,  // measure 38
2030
0000
0000
0000
3001
1000
0010
1000
0001
0000
0000
0000
2002
0000
0000
0000
,  // measure 39
0000
0000
0000
3003
,  // measure 40
0220
0000
0000
0330
,  // measure 41
1000
0000
0000
0001
0000
0100
0001
0000
0000
1000
0000
0100
1000
0000
0000
0010
0000
0100
0010
0000
0000
0100
0000
0001
,  // measure 42
0010
0100
1000
0001
0100
0001
1000
0100
,  // measure 43
0010
0000
0000
0001
0000
0100
0010
0000
0000
0100
0000
0001
0010
0000
0000
0100
0000
1000
0001
0000
0000
0100
0000
0010
,  // measure 44
0100
0000
0000
0001
0000
0000
1000
0000
0000
0100
0000
0000
1100
0000
0000
1000
0000
0000
1001
0000
0001
0010
0000
0001
,  // measure 45
0010
0000
0000
0100
0000
0000
2000
0000
0000
0000
0000
0010
0000
0000
3010
0000
0000
0100
0010
0000
0100
0010
0000
0000
,  // measure 46
1000
0000
0000
0001
0000
0000
0020
0000
0000
0000
0000
0001
0000
0000
0031
0000
0000
0100
0010
0000
0100
0010
0000
0000
,  // measure 47
1010
0000
0000
0000
0000
1010
0000
0000
0010
0000
0000
0000
0110
0000
0000
0000
0000
0110
0000
0000
0100
0000
0000
0000
,  // measure 48
0001
0000
0100
0000
0001
0000
1000
0000
0100
0000
0010
0000
0001
0000
0001
0000
0000
0100
0000
0000
0110
0000
0000
0000
,  // measure 49
0010
0000
1000
0000
0000
0100
0000
0000
0010
0000
0000
0001
0000
0000
0100
0000
0000
0001
1000
0000
0000
0000
0000
0000
,  // measure 50
0001
0000
0100
0000
0000
0010
0000
0000
1000
0000
0000
0100
0000
0000
0010
0000
0000
0100
1000
0000
0000
0000
0000
0000
,  // measure 51
1020
0000
0230
0000
,  // measure 52
0301
1000
0010
0001
0010
1000
0100
0010
,  // measure 53
0002
0000
0003
0000
;

//---------------dance-single - ----------------
#NOTES:
     dance-single:
     :
     Challenge:
     13:
     0.658,0.645,0.524,0.467,0.745: // measure 1
0000
0000
0000
0000
,  // measure 2
0000
0000
0000
0000
,  // measure 3
1001
0000
0000
1000
0000
0000
0001
0000
0000
0001
0000
0000
0100
0000
0010
0000
0000
1000
0000
0000
0000
0000
0000
0000
,  // measure 4
0001
0000
0000
0001
0000
0000
1000
0000
0000
1000
0000
0000
0100
0000
0010
0000
0000
0100
0000
0000
0000
0000
0000
0000
,  // measure 5
1000
0000
0010
0100
0000
0220
0000
0000
0000
0330
0000
0000
0001
0000
0010
0100
0000
0220
0000
0000
0000
0330
0000
0000
,  // measure 6
1000
0000
0000
1000
0000
0000
0100
0000
0010
0000
0000
0000
0001
0000
0000
0001
0000
0000
0100
0000
0010
0000
0000
0000
,  // measure 7
1100
0000
0000
0100
0000
0000
0010
0000
0000
0010
0000
0000
0001
0000
0100
0000
0000
0010
0000
0000
0100
0010
0000
0000
,  // measure 8
0110
0000
0000
0100
0000
0000
0001
0000
0000
0001
0000
0000
1000
0000
0100
0000
0000
0010
0000
0000
0100
0010
0000
0000
,  // measure 9
0110
0000
0000
0200
0000
2000
0000
0000
0000
3300
0000
0000
1001
0000
0000
0002
0000
0200
0000
0000
0000
0303
0000
0000
,  // measure 10
1001
0000
0000
1001
0000
0000
0000
0000
1000
0001
0000
1000
0200
0000
0000
0000
0000
0010
0000
0000
0000
0310
0000
0000
,  // measure 11
1001
0000
0000
1001
0000
0000
0000
0000
0001
0100
0000
0001
2000
0000
0000
0000
0000
0100
0000
0000
0000
3100
0000
0000
,  // measure 12
1001
0000
0002
0000
0000
0023
0000
0000
0230
0000
0000
2300
0000
0000
3200
0000
0000
0320
0000
0000
0032
0000
0000
0203
,  // measure 13
0020
0000
0000
0330
,  // measure 14
1001
0000
0000
0001
0000
0100
0010
0000
0000
1010
0000
0000
0000
0000
0000
1000
0000
0000
1000
0000
0001
0000
0000
0100
,  // measure 15
0001
0000
0000
1000
0000
1000
0100
0000
1000
0100
0000
0010
0000
0000
0001
0000
0000
0010
0200
0000
0000
1000
0000
0000
,  // measure 16
1300
0000
0000
0001
0000
0100
0010
0000
0000
0110
0000
0000
0000
0000
0000
0100
0000
0000
0002
0000
2000
0000
0000
0000
,  // measure 17
3003
0000
0000
1000
0000
0100
1000
0000
0000
0100
0000
0010
0100
0000
0000
0010
0000
0001
0010
0000
0001
1000
0000
0000
,  // measure 18
1001
0000
0000
1000
0000
0010
0100
0000
0000
0110
0000
0000
0000
0000
0000
0001
0000
0000
0001
0000
0100
0000
0000
0110
,  // measure 19
0000
0000
1000
0100
0000
1000
0100
0000
0010
0000
0000
0002
0000
0000
2003
0000
0000
3002
0000
0000
0103
0010
0000
0100
,  // measure 20
0020
0000
0000
2030
0000
0000
3002
0000
0000
0000
0000
0000
1003
0000
0000
0001
0100
0001
2000
0000
0000
3200
0000
0000
,  // measure 21
0310
0001
0001
0010
0100
0100
1000
0010
0010
0100
0001
0001
,  // measure 22
1000
0000
1000
0100
0000
0100
0010
0000
0010
0001
0000
0001
0100
0000
0100
0010
0000
0010
1000
0000
1000
0001
0000
0000
,  // measure 23
1000
0000
1000
0010
0000
0010
0100
0000
0100
0001
0000
0001
0010
0000
0010
0100
0000
0100
1000
0000
1000
0001
0000
0000
,  // measure 24
1000
0000
0001
0100
0000
0001
0000
0000
1000
0200
0000
0000
1300
0000
0010
0100
0000
0010
0000
0000
0100
0002
0000
0000
,  // measure 25
1003
0000
0000
0000
0000
0000
0001
0000
0000
0010
0000
0000
0001
0000
0000
0000
0000
0000
0010
0000
0000
0100
0000
0000
0010
0000
0000
0000
0100
0000
1000
0000
0100
0000
1000
0000
0100
0000
0000
0000
0000
0000
1001
0000
0000
0000
0000
0000
,  // measure 26
1000
0000
1000
0001
0000
0100
0001
0000
0000
1000
0000
0010
0100
0000
0010
0100
0000
0000
1001
0000
0000
0000
0000
0000
,  // measure 27
0001
0000
0001
1000
0000
0100
1000
0000
0000
0001
0000
0010
0100
0000
0010
0100
0000
0000
1001
0000
0000
0000
0000
0000
,  // measure 28
1000
0000
1000
0100
0000
0100
0010
0000
0010
0001
0000
0001
1000
0000
1000
0010
0000
0010
0100
0000
0100
0001
0000
0000
,  // measure 29
1001
0000
0000
0000
0000
0000
0000
0000
0000
0000
0000
0000
2000
0000
0001
0000
0000
0001
0000
0000
3001
1000
0000
0000
,  // measure 30
0100
1100
0000
0110
0000
1100
0000
0110
,  // measure 31
0100
0101
0000
1001
0000
0101
0000
1001
,  // measure 32
1000
1010
0000
0110
0000
1010
0000
0110
,  // measure 33
0100
1001
0000
0011
0000
1001
0000
0011
,  // measure 34
0001
0000
0100
0001
0000
0000
1000
0000
0100
1000
0000
0000
0001
0000
0100
0001
0000
1000
0000
0000
1001
0000
0000
1001
,  // measure 35
0000
0000
0000
0001
0000
0000
1000
0000
0010
1000
0000
0000
0001
0000
0010
0001
0000
0000
0000
1001
0000
0000
1001
0000
,  // measure 36
0000
0000
1000
0000
0100
0000
1000
0000
0001
0010
0001
0010
0100
0010
0100
1000
,  // measure 37
0020
0100
0000
0130
0202
0303
0002
1000
0000
1003
2200
3300
,  // measure 38
0200
0000
0000
0000
0010
0000
0000
0000
0000
0000
0000
0000
0310
0000
0000
0001
0000
0000
0100
0000
0000
0010
0000
0000
0100
0000
0000
0000
0101
0000
0000
0000
0000
0000
0000
0000
2002
0000
0000
0000
0000
0000
0000
0000
0000
0000
0000
0000
,  // measure 39
0000
0000
0000
3003
,  // measure 40
2002
0000
0000
0000
0000
0000
0000
0000
0000
0000
0000
0000
0000
0000
0000
3003
0000
0000
1000
0001
1000
0001
1000
0001
,  // measure 41
1000
0000
0000
0010
0000
0010
1000
0000
0000
0100
0000
0100
0020
0000
0000
0031
0000
0001
2000
0000
0000
3010
0000
0010
,  // measure 42
0200
0000
0000
0301
0000
0000
1000
0000
0000
0010
0000
0100
0010
0000
0000
0100
0000
0001
0010
0000
0000
0100
0000
0000
,  // measure 43
1000
0000
0000
0001
0000
0001
0020
0000
0000
0130
0000
0100
2000
0000
0000
3001
0000
0001
0200
0000
0000
0310
0000
0010
,  // measure 44
1000
0000
0000
0001
0000
0000
0010
0000
0000
0001
0000
0000
1000
0000
0010
1000
0000
0010
1000
0000
0001
0010
0000
0001
,  // measure 45
0010
0000
0000
0100
0000
0000
2000
0000
0000
0000
0000
0001
0000
0000
3001
0000
0000
1000
0010
0000
0010
0100
0000
0000
,  // measure 46
0001
0000
0000
1000
0000
0000
0200
0000
0000
0000
0000
1000
0000
0000
1300
0000
0000
0100
1000
0000
1000
0001
0000
0000
,  // measure 47
0011
0000
0000
0000
0000
0011
0000
0000
0010
0000
0000
0000
1001
0000
0000
0000
0000
1001
0000
0000
1000
0000
0000
0000
,  // measure 48
0010
0000
1000
0000
1000
0000
0001
0000
1000
0000
1000
0000
0100
0000
0010
0000
0000
0110
0000
0000
0110
0000
0000
0000
,  // measure 49
0001
0000
1000
0000
0000
1100
0000
0000
1100
0000
0000
0011
0000
0000
0011
0000
0000
0001
1000
0000
0000
0000
0000
0000
,  // measure 50
0001
0000
1000
0000
0000
1010
0000
0000
1010
0000
0000
0101
0000
0000
0101
0000
0000
0001
1000
0000
0000
0000
0000
0000
,  // measure 51
2200
0000
0000
3300
0022
0000
0000
0033
,  // measure 52
1001
0000
0000
1000
0000
0000
0010
0000
0000
0100
0000
0001
1000
0000
0000
0100
0000
0000
0001
0000
0000
0100
0000
0000
,  // measure 53
2000
0000
3000
0000
;

//---------------dance-single - ----------------
#NOTES:
     dance-single:
     :
     Beginner:
     1:
     0.076,0.128,0.057,0.000,0.000:
0000
0000
0000
0000
,
0000
0000
0000
0000
,
0000
0000
0000
0000
,
0000
0000
0000
0000
,
0000
0000
0000
0000
,
0000
0000
0000
0000
,
1000
0000
0000
0000
,
1000
0000
0000
0000
,
1000
0000
0000
0000
,
1001
0000
0000
0000
,
0001
0000
0000
0000
,
0001
0000
0000
0000
,
0100
0000
0000
0000
,
1001
0000
0000
0000
,
0001
0000
0000
0000
,
0100
0000
0000
0000
,
0001
0000
0000
0000
,
1000
0000
0000
0000
,
0100
0000
0000
0000
,
0010
0000
0000
0000
,
0100
0000
0000
0000
,
1000
0000
0000
0000
,
0001
0000
0000
0000
,
0100
0000
0000
0000
,
0001
0000
0000
0000
,
1000
0000
0000
0000
,
0100
0000
0000
0000
,
0010
0000
0000
0000
,
0001
0000
0000
0000
,
1000
0000
1000
0000
,
1000
0000
0000
0000
,
0001
0000
0001
0000
,
0001
0000
0000
0000
,
1001
0000
0000
0000
,
1000
0000
0000
0000
,
0001
0000
0000
0000
,
1000
0000
0000
0000
,
0010
0000
0000
0000
,
0000
0000
0000
0000
,
1001
0000
0000
0000
,
0001
0000
1000
0000
,
0001
0000
1000
0000
,
0001
0000
0010
0000
,
0001
0000
0010
0000
,
0100
0000
1000
0000
,
0100
0000
1000
0000
,
1001
0000
1001
0000
,
0001
0000
0000
0000
,
1000
0000
0010
0000
,
0100
0000
0001
0000
,
1000
0000
1000
0000
,
1001
0000
0000
0000
,
0001
0000
0000
0000
;
