#TITLE:ホーリィ☆嫉妬;
#SUBTITLE:;
#ARTIST:猫体質;
#TITLETRANSLIT:HOLY☆SHIT;
#SUBTITLETRANSLIT:;
#ARTISTTRANSLIT:NEKO_TAISITU;
#CREDIT:DigiMindAxel;
#BANNER:HOLY SHIT.png;
#BACKGROUND:HOLY SHIT-bg.png;
#LYRICSPATH:;
#CDTITLE:DigiMindAxel original simfile.png;
#MUSIC:HOLY SHIT.ogg;
#METERTYPE:DDR X;
#OFFSET:-0.166;
#SAMPLESTART:49.040;
#SAMPLELENGTH:12.000;
#SELECTABLE:YES;
#BPMS:0.000=200.000;
#STOPS:;
#BGCHANGES:0.000=HOLY SHIT.avi=1.000=1=1=0,
99999=-nosongbg-=1.000=0=0=0 // don't automatically add -songbackground-
;

//---------------dance-single - ----------------
#NOTES:
     dance-single:
     :
     Easy:
     6:
     0.326,0.362,0.023,0.149,0.000:
0000
0000
0000
0000
,
0000
0000
0000
0000
,
0000
0000
0000
0000
,
0000
0000
0000
0000
,
0000
0000
0000
0000
,
2000
0000
0000
0000
,
3200
0000
0000
0000
,
0320
0000
0000
0000
,
0031
0000
0000
0000
,
1000
0000
0001
0000
,
1000
1000
1000
0000
,
0001
0000
1000
0000
,
0001
0001
0001
0000
,
0010
0000
0100
0000
,
0010
0010
0010
0000
,
0100
0000
1000
0000
,
0001
1000
0001
1000
,
0100
0000
0100
0000
,
0010
0000
0010
0000
,
0001
0000
0001
0000
,
0100
0010
0100
0000
,
0001
0000
0001
0000
,
1000
0000
1000
0000
,
0020
0000
0000
0000
,
0130
0010
0100
0000
,
0001
0000
1000
0000
,
0100
0010
0100
0000
,
1000
0000
0010
0000
,
0100
0001
0100
0000
,
0001
0000
1000
0000
,
0100
1000
0100
0000
,
0020
0000
0000
0000
,
0031
1000
0001
0000
,
1000
0100
0010
0001
,
1000
0100
0010
0000
,
0001
0010
0100
1000
,
0001
0010
0100
0000
,
1000
0001
1000
0001
,
0100
0010
0100
0000
,
0001
0010
0100
1000
,
0001
0000
0000
0000
,
2001
0000
0100
0000
,
0001
0000
0100
0000
,
3001
0000
1000
0000
,
0010
1000
0010
0000
,
0100
0000
0001
0000
,
1000
0100
1000
0000
,
0001
1000
0001
1000
,
0001
0010
0100
0000
,
1000
0010
1000
0001
,
0010
0100
1000
0000
,
0020
0000
0230
0000
,
0302
0000
0003
0000
,
1000
0001
1000
0001
,
1000
0100
0010
0001
,
0200
0000
0000
0000
,
0310
0100
0010
0000
,
1002
0000
0000
0000
,
2003
0000
0000
0000
,
3001
0001
1000
1000
,
0001
0100
0001
0000
,
1000
0100
1000
0000
,
0001
1000
0001
0000
,
1000
0100
0010
0001
,
1000
0010
1000
0000
,
0001
0010
0001
0000
,
1000
0001
1000
0001
,
1000
0100
0010
0001
,
0100
0010
0100
0000
,
0001
0100
0001
0000
,
0100
0010
0100
0000
,
0001
0010
0100
0000
,
1000
0001
1000
0000
,
0100
1000
0100
0000
,
2000
0000
0000
0000
,
3001
1000
0001
1000
,
0100
0010
0100
0010
,
0001
0100
0010
0000
,
1000
0001
1000
0001
,
0100
0010
1000
0000
,
0100
1000
0100
1000
,
0001
0010
0100
0000
,
0010
0001
0010
0001
,
0200
0000
0000
0000
,
0320
0000
1000
0000
,
0100
0000
1000
0000
,
0130
1000
0001
1000
,
0001
1000
0100
0000
,
0010
0001
0010
0001
,
0100
0010
1000
0000
,
0001
1000
0001
1000
,
0010
0100
0001
0000
,
0100
0010
0100
0010
,
1000
0100
0010
0000
,
0001
0100
0001
0100
,
0001
0010
0100
0000
,
1000
0100
1000
0100
,
1000
0010
0100
0001
,
2000
0000
0100
0000
,
3001
0000
0000
0000
,
2000
0000
3200
0000
,
2300
0000
3000
0000
,
0001
0010
0100
1000
,
0110
0000
0000
0000
;

//---------------dance-single - ----------------
#NOTES:
     dance-single:
     :
     Medium:
     10:
     0.532,0.564,0.094,0.078,0.000:
0000
0000
0000
0000
,
0000
0000
0000
0000
,
0000
0000
0000
0000
,
0000
0000
0000
0000
,
0000
0000
0000
0000
,
1000
0100
1000
0000
,
0001
1000
0001
0000
,
0100
0001
0100
0000
,
0002
0000
0000
0000
,
1003
0000
0100
0000
0010
0000
0001
1000
,
0000
0001
1000
0000
0100
0000
0100
0000
,
1000
0000
0001
0000
0010
0000
0100
1000
,
0000
0100
1000
0000
0010
0100
0010
0100
,
0001
0000
1000
0000
0100
0000
0010
0100
,
0000
0010
0100
0000
1000
0000
1000
0000
,
0001
0000
0100
0000
0010
0000
0100
0001
,
0000
1000
0100
0000
1000
0001
1000
0001
,
1000
0100
1000
0100
,
0010
0001
0010
0001
,
0100
0010
0100
0001
,
1000
1000
1001
0000
,
0001
0100
0001
1000
,
0100
0000
1000
0000
0010
0100
0000
0001
,
0200
0000
0000
0000
,
0310
0100
0010
0100
0010
0000
0110
0000
,
1001
0001
1000
0100
,
1000
0001
0010
0100
,
1000
0010
0100
0001
,
0100
0100
0110
0000
,
0001
0010
0001
0100
,
0010
0000
1000
0000
0100
1000
0000
0010
,
0200
0000
0000
0000
,
0310
0000
0100
0000
0001
1000
0001
1000
,
0001
0010
0001
0000
0010
0100
0010
0000
,
0100
1000
0100
1000
0010
0000
0000
0000
,
1000
0100
1000
0000
0001
0100
0001
0000
,
0100
0010
0100
0000
1001
0000
0000
0000
,
0001
0000
0100
0001
1000
0000
0100
0000
,
0010
0100
1000
0000
0001
0010
0100
0000
,
1000
0001
1000
0000
0100
1000
0100
1000
,
0002
0000
0000
1003
,
1002
1000
1000
0000
,
0100
0100
0100
0000
,
1003
0000
0001
0100
0001
0100
0001
0000
,
0010
1000
0010
0001
,
0100
0000
0010
0100
0010
0100
0001
0000
,
1000
0000
0100
0010
0100
0010
0001
0000
,
0100
0001
0100
1000
,
0100
0000
0001
1000
0001
1000
0100
0000
,
1001
0100
1001
0100
,
0001
0000
0010
0100
0010
0100
1000
0000
,
0010
0000
1000
0010
0000
1000
0001
0000
,
0010
0100
0010
0000
,
0001
0000
0100
0001
0000
1000
0100
0000
,
1000
0100
1000
0000
0001
0100
0001
0000
,
0100
1000
0100
0001
,
0010
0000
0100
0000
0010
0000
0001
1000
,
0001
0000
0000
0100
0000
0000
0010
0000
,
2000
0000
3002
0000
,
1003
0100
0010
0000
0100
0010
0001
0000
,
1000
0010
1000
0000
0001
0000
0010
0001
,
0000
0010
0100
0000
1000
0000
1000
0000
,
0001
0010
0001
0000
1000
0000
0100
1000
,
0000
0010
0100
0000
0001
1000
0100
1000
,
0010
0100
0010
0000
1000
0000
0100
1000
,
0000
0010
0100
0000
0001
0000
0001
0000
,
0100
0001
0100
0001
1000
0000
0100
0010
,
0000
0001
0100
0010
0100
0010
0100
0000
,
0001
0010
0001
0000
0100
0000
0010
0000
,
1000
0100
1000
0000
0010
0000
0100
0000
,
0001
1000
0001
0000
0100
0000
0010
0000
,
1000
0001
1000
0000
1001
0000
0000
0000
,
1000
0100
1000
0000
0100
0000
0010
0000
,
0001
0100
0001
0000
0100
0010
0000
1000
,
0200
0000
0000
0000
,
1300
0010
0100
0000
0010
0100
0001
0000
,
1000
0100
1000
0000
0100
0010
0100
0000
,
0010
0001
0010
0001
0100
0000
0000
0000
,
0001
0010
0001
0000
1000
0010
1000
0000
,
0010
0100
0010
0000
1001
0000
0000
0000
,
0100
0000
1000
0100
0010
0000
0100
0000
,
1000
0010
1000
0000
0001
0010
0001
0000
,
0010
0000
0100
1000
0010
0000
0100
0000
,
0002
0000
0000
1003
,
1002
1000
1000
0000
,
0100
0100
0100
0000
,
1003
0000
0001
1000
0001
1000
0100
0000
,
0010
0000
0100
1000
0100
1000
0010
0000
,
0100
0000
0001
0100
0010
0100
0001
0000
,
0010
0000
0100
1000
0100
1000
0001
0000
,
1000
0000
0100
0010
0001
0010
0100
0000
,
1000
0000
0010
1000
0001
1000
0010
0000
,
1001
0000
0001
0000
1000
0010
1000
0010
,
0100
0000
0001
0010
0100
0010
0001
0000
,
0010
0000
0000
0100
0000
0000
1000
0000
,
0001
0010
0100
0000
,
1000
0010
1000
0010
0100
0000
0001
0000
,
0010
0100
0010
0100
1000
0000
0001
0000
,
1000
0010
0001
0010
,
1000
0001
1000
0000
,
0010
0000
0000
1000
0000
0000
0100
0000
,
0010
0000
0001
0000
,
0010
0001
0010
0001
0100
0010
1000
0100
,
0010
0000
0000
0000
;

//---------------dance-single - ----------------
#NOTES:
     dance-single:
     :
     Hard:
     14:
     0.752,0.845,0.109,0.070,0.141:
0000
0000
0000
0000
,
0000
0000
0000
0000
,
0000
0000
0000
0000
,
0000
0000
0000
0000
,
0000
0000
0000
0000
,
1000
0100
1000
0001
0100
0000
0100
0000
,
0010
1000
0100
0010
0100
0000
0100
0000
,
1000
0010
0100
0001
0010
0000
0010
0000
,
2002
0000
0000
3003
,
1000
0100
0010
0000
0010
0000
0001
0100
,
0000
0100
0010
0000
1000
0000
1100
0000
,
0010
0001
0100
0000
0100
0000
0001
1000
,
0000
0000
0001
0000
1000
0000
0010
0000
0100
0010
0100
0000
0001
0100
0001
0000
,
0010
0100
1000
0000
1000
0000
0010
0100
,
0000
0100
0001
0000
0100
0000
0110
0000
,
1000
0000
0010
0000
0001
0000
0010
0000
1000
0001
1000
0000
0001
0000
0010
0000
,
0000
0000
0100
0000
0010
0000
0001
0000
0100
0010
0100
0000
0001
0100
0001
0000
,
1000
0100
1000
0000
0010
0100
0010
0000
,
1000
0000
0010
0000
0001
0010
1000
0000
,
0001
0100
0001
0000
0100
0010
0100
0000
,
0001
0010
1000
0010
0001
0000
1000
0000
,
0100
0010
0100
0000
1000
0100
1000
0000
,
0001
0000
0100
0000
1000
0100
0001
1000
,
0001
0010
1000
0010
,
0001
0100
0001
0000
0100
0000
0010
0000
1000
0001
1000
0000
0001
0010
0001
0000
,
1000
0010
1000
0000
0010
0100
0010
0000
,
1000
0100
0001
0000
1000
0010
0001
0000
,
1000
0100
1000
0000
0010
0100
0010
0000
,
1000
0010
0001
0010
1000
0000
0001
0000
,
0010
0100
0010
0000
0001
0100
0001
0000
,
1000
0000
0001
0100
1000
0100
0001
1000
,
0001
0100
1000
0100
,
0001
1000
0001
0000
1000
0000
0100
0000
0010
0001
0010
0000
0001
1000
0001
0000
,
1000
0100
0010
0100
1000
0100
0010
0100
,
1000
0100
0001
0100
1000
0001
0100
0000
,
0001
0010
0100
0010
0001
0010
0100
0010
,
0001
0100
1000
0100
0001
1000
0100
0000
,
0010
0001
0010
0001
0100
0000
0110
0000
,
0010
1000
0100
0001
0100
1000
0010
0000
,
0100
0001
0000
0001
0000
0100
0000
0100
,
0020
0000
0000
0030
,
1001
0000
1000
0100
0010
0000
0001
1000
,
0000
1000
0001
0010
0100
0000
1000
0010
,
0100
0001
0010
1000
0010
0001
1000
0100
,
1000
0100
0010
0001
0010
0001
0100
0010
,
0000
0010
1000
0100
0010
0100
1000
0001
,
0000
0001
0010
0100
0010
0001
1000
0000
,
0001
0010
1000
0010
0001
0010
0100
1000
,
0001
0100
0001
0000
0100
0010
0100
0000
0001
1000
0001
0000
1000
0100
1000
0000
,
0100
0010
0001
0000
1000
0001
0000
0001
,
0000
0010
0100
1000
0010
1000
0100
1000
,
0020
0000
0100
0100
0000
1000
1030
0000
,
0001
0100
0001
0000
1000
0010
1000
0100
,
0010
0000
0001
0100
0000
0100
0010
0000
,
1000
0100
0001
0000
1000
0010
0001
0000
,
1000
0001
0100
0001
1000
0000
0010
1000
,
0000
1000
0001
0000
0010
0001
0100
0010
,
0200
0000
0001
0001
0000
0010
0310
0000
,
1000
0001
0000
0001
0000
0100
0000
0100
,
0001
0100
0001
0000
1000
0000
0100
0010
0100
0000
0010
0000
0001
0000
1000
0000
,
0001
0010
0100
0000
0100
0000
1000
0010
,
0000
0010
0100
0001
0010
0000
0011
0000
,
0010
1000
0001
0000
0001
0000
0010
0100
,
1000
0000
1000
0000
0010
0000
0010
0000
0100
0001
0100
0000
0001
1000
0001
0000
,
1000
0100
0010
0000
0010
0000
0001
0100
,
0000
0100
0010
1000
0100
0000
1100
0000
,
0010
0001
0010
0000
0001
1000
0001
0000
1000
0010
1000
0000
0001
0000
1000
0000
,
0000
0000
1000
0000
0100
0000
0010
0000
0001
1000
0001
0000
1000
0010
1000
0000
,
0001
0100
0010
0100
0001
1000
0000
1000
,
0100
0001
0100
1000
0010
0100
0000
0100
,
0001
0010
0100
0010
0001
1000
0000
1000
,
0100
0010
0100
1000
0010
0000
0100
0000
,
0001
0010
0100
0010
0001
1000
0100
0010
,
0000
0001
0010
1000
0010
0001
1000
0100
,
1000
0010
0001
0010
,
1000
0001
1000
0000
0001
0010
0001
0000
0100
0010
0100
0000
0001
0100
0001
0000
,
1000
0100
0010
0100
1000
0100
0010
0100
,
1000
0010
0001
0010
1000
0001
0010
0000
,
0001
0010
0100
0010
0001
0010
0100
0010
,
0001
0100
1000
0100
0001
1000
0010
0000
,
0100
0001
1000
0100
0010
0001
0100
0000
,
0001
0100
1000
0000
0001
0010
1000
0000
,
0001
0100
0000
0100
0000
0010
0000
0010
,
2002
0000
0000
3003
,
0001
0100
0010
1000
0100
0000
0010
0100
,
0000
0100
1000
0001
0100
0000
0101
0000
,
0001
1000
0010
0001
0010
0100
0001
1000
,
0000
1000
0001
0010
1000
0010
0001
1000
,
0000
1000
0100
0010
0100
1000
0001
0100
,
0000
0001
0100
1000
0100
0001
0010
0100
,
0000
0100
1000
0001
0010
0001
1000
0010
,
0100
0001
0100
0000
0010
0100
0010
0000
1000
0100
1000
0000
0001
1000
0001
0000
,
1000
0010
0001
0010
0100
0001
1000
0100
,
0000
1000
0010
0001
0010
1000
0001
0100
,
0002
0000
0100
0100
0000
1000
1003
0000
,
0010
0100
0001
0000
0100
0000
0110
0000
,
0010
0100
1000
0010
0001
0010
1000
0000
,
0100
0010
0001
0100
0001
1000
0100
0000
,
0010
0001
1000
0000
0010
0000
1010
0000
,
0100
0001
0010
0000
0100
0000
1100
0000
,
2001
0000
0100
0100
0000
0001
3001
0000
,
1000
0100
0000
0100
0000
0010
0000
0010
,
0001
0100
0001
0000
1000
0001
1000
0000
0100
1000
0100
0000
0010
0100
0010
0000
,
0101
0000
0000
0000
;

//---------------dance-double - ----------------
#NOTES:
     dance-double:
     :
     Easy:
     6:
     0.334,0.362,0.031,0.149,0.000:
00000000
00000000
00000000
00000000
,
00000000
00000000
00000000
00000000
,
00000000
00000000
00000000
00000000
,
00000000
00000000
00000000
00000000
,
00000000
00000000
00000000
00000000
,
20000000
00000000
30010000
00000000
,
20000000
00000000
30010000
00000000
,
02000000
00000000
03100000
00000000
,
01100000
00000000
00000000
00000000
,
01000000
00000000
10000000
00000000
,
01000000
10000000
00100000
00000000
,
01000000
00000000
00010000
00000000
,
01000000
00010000
00100000
00000000
,
00001000
00000000
00010000
00000000
,
00001000
00010000
00000100
00000000
,
00000010
00000000
00000001
00000000
,
00000010
00000001
00000010
00000001
,
00001000
00000000
00001000
00000000
,
00000010
00000000
00000010
00000000
,
00010000
00000000
00010000
00000000
,
00001000
01000000
00100000
00000000
,
10000000
00000000
10000000
00000000
,
01000000
00000000
01000000
00000000
,
20000000
00000000
00000000
00000000
,
30010000
10000000
00010000
10000000
,
00001000
00000000
00001000
00000000
,
00010000
00001000
00010000
00000000
,
00000010
00000000
00000010
00000000
,
00000100
00000010
00000100
00000000
,
00000001
00000000
00000001
00000000
,
00000010
00000100
00000010
00000000
,
00000002
00000000
00000000
00000000
,
00001003
00000100
00001000
00000100
,
00010000
00001000
00100000
01000000
,
10000000
00001000
10000000
00000000
,
00001000
00100000
01000000
10000000
,
00001000
10000000
00001000
00000000
,
00010000
00000100
00000010
00000001
,
00000100
00000010
00000100
00000000
,
00000001
00000100
00000010
00000100
,
00000001
00000000
00000000
00000000
,
00021000
00000000
00001000
00000000
,
00001000
00000000
00031000
00000000
,
00100000
00000000
01000000
00000000
,
10000000
01000000
10000000
00000000
,
00010000
00000000
00100000
00000000
,
00001000
00010000
00001000
00000000
,
00010000
00000010
00010000
00000010
,
00000100
00000001
00000010
00000000
,
00000001
00001000
00000001
00000010
,
00000100
00010000
00001000
00000000
,
02000000
00000000
03020000
00000000
,
00230000
00000000
00300000
00000000
,
00001000
00010000
00001000
00010000
,
00000100
00000010
00000001
00000010
,
00000200
00000000
00000000
00000000
,
00010300
00001000
00010000
00000000
,
00012000
00000000
00000000
00000000
,
02003000
00000000
00000000
00000000
,
03100000
01000000
00100000
01000000
,
00010000
00100000
01000000
00000000
,
10000000
00010000
10000000
00000000
,
00100000
01000000
00001000
00000000
,
00010000
00001000
00010000
00000100
,
00000010
00000001
00000010
00000000
,
00000001
00000100
00000010
00000000
,
00010000
00001000
00010000
00001000
,
01000000
00100000
10000000
01000000
,
00100000
00010000
10000000
00000000
,
00100000
01000000
00100000
00000000
,
10000000
01000000
00100000
00000000
,
00001000
00010000
00000010
00000000
,
00000100
00000001
00000010
00000000
,
00000001
00000010
00000100
00010000
,
00002000
00000000
00000000
00000000
,
00103000
01000000
00100000
01000000
,
10000000
01000000
00100000
00010000
,
00100000
01000000
10000000
00000000
,
00001000
00010000
00000100
00000010
,
00000001
00000010
00000100
00000000
,
00010000
00001000
00010000
00001000
,
00100000
01000000
10000000
00000000
,
00100000
01000000
00100000
01000000
,
00002000
00000000
00000000
00000000
,
00023000
00000000
00000010
00000000
,
00000010
00000000
00000010
00000000
,
00030010
00000100
00000001
00000100
,
00000001
00000010
00000100
00000000
,
00010000
00001000
00010000
00001000
,
00100000
01000000
10000000
00000000
,
00100000
01000000
00100000
01000000
,
00001000
00010000
00000010
00000000
,
00000100
00000001
00000100
00000001
,
00000010
00000100
00001000
00000000
,
00010000
00100000
00010000
00100000
,
01000000
10000000
00010000
00000000
,
01000000
00010000
01000000
00010000
,
00100000
00001000
00010000
00000010
,
00000200
00000000
00000001
00000000
,
00000301
00000000
00000000
00000000
,
00002000
00000000
00003200
00000000
,
00020300
00000000
00030000
00000000
,
00001000
00100000
01000000
10000000
,
01100000
00000000
00000000
00000000
;

//---------------dance-double - ----------------
#NOTES:
     dance-double:
     :
     Medium:
     10:
     0.539,0.564,0.055,0.094,0.000:
00000000
00000000
00000000
00000000
,
00000000
00000000
00000000
00000000
,
00000000
00000000
00000000
00000000
,
00000000
00000000
00000000
00000000
,
00000000
00000000
00000000
00000000
,
10000000
00010000
10000000
00010000
,
00100000
01000000
00100000
01000000
,
10000000
00100000
10000000
00100000
,
02000000
00000000
00000000
00000000
,
03001000
00000000
00010000
00000000
00000100
00000000
00000010
00000001
,
00000000
00000010
00000001
00000000
00000100
00000000
00000100
00000000
,
00000001
00000000
00000010
00000000
00000100
00000000
00010000
00001000
,
00000000
00010000
00001000
00000000
01000000
00100000
01000000
00100000
,
10000000
00000000
01000000
00000000
00100000
00000000
00001000
00010000
,
00000000
00001000
00010000
00000000
00000100
00000000
00000100
00000000
,
00000010
00000000
00000001
00000000
00000100
00000000
00000010
00010000
,
00000000
00001000
00010000
00000000
00001000
00100000
00001000
00100000
,
01000000
10000000
01000000
00100000
,
01000000
10000000
00010000
01000000
,
00100000
01000000
00001000
00010000
,
00000100
00000000
00000010
00000001
00000100
00000000
00000000
00000000
,
00000001
00000010
00000100
00000010
,
00000001
00000000
00001000
00000000
00000010
00010000
00000000
00001000
,
00020000
00000000
00000000
00000000
,
00031000
00010000
00001000
00010000
00001000
00000000
01001000
00000000
,
01100000
00100000
01000000
00010000
,
01000000
00100000
10000000
01000000
,
00100000
00001000
00010000
00000100
,
00000010
00000000
00000001
00001000
00000010
00000000
00000000
00000000
,
00000100
00000001
00000010
00000100
,
00010000
00000000
00001000
00000000
00100000
01000000
00000000
10000000
,
00020000
00000000
00000000
00000000
,
10030000
00000000
00010000
00000000
00100000
01000000
00100000
01000000
,
00100000
00010000
00100000
00000000
00001000
00010000
00001000
00000000
,
00010000
00000010
00010000
00000010
00000100
00000000
00000000
00000000
,
00000001
00001000
00000001
00000000
00010000
00000100
00010000
00000000
,
00001000
00100000
00001000
00100000
01000000
00000000
00000000
00000000
,
00100000
00000000
00010000
00100000
01000000
00000000
10000000
00000000
,
01000000
10000000
00100000
00000000
01000000
00001000
00010000
00000000
,
00000100
00000010
00000100
00000000
00001000
00000100
00001000
00000100
,
00000020
00000000
00000000
00000031
,
00002001
00000001
00000001
00000000
,
00000100
00000100
00000100
00000000
,
00003001
00000000
00010000
00001000
00010000
00001000
00100000
00000000
,
01000000
10000000
00100000
01000000
,
00010000
00000000
10000000
00010000
10000000
00010000
00100000
00000000
,
00001000
00000000
00010000
00000100
00010000
00000100
00000010
00000000
,
00000001
00000100
00000010
00000100
,
00000001
00000000
00000010
00000100
00000010
00000100
00010000
00000000
,
01100000
10000000
01100000
00010000
,
10000000
00000000
00100000
10000000
00100000
01000000
00001000
00000000
,
00010000
00000000
00000100
00000010
00000000
00000001
00000100
00000000
,
00000001
00001000
00000001
00000000
,
00000100
00000000
00000001
00000100
00000000
00000001
00001000
00000000
,
00000100
00010000
00000100
00000000
00010000
00001000
00010000
00000000
,
00001000
01000000
00100000
01000000
,
00001000
00000000
00100000
00000000
01000000
00000000
10000000
00010000
,
10000000
00000000
00000000
01000000
00000000
00000000
00100000
00000000
,
00002000
00000000
00023000
00000000
,
00030100
00000010
00000001
00000000
00001000
00000100
00000010
00000000
,
00000001
00000100
00000001
00000000
00000100
00000000
00000001
00010000
,
00000000
00000100
00010000
00000000
00001000
00010000
00001000
00000000
,
00100000
01000000
10000000
00000000
00100000
00000000
10000000
00100000
,
00000000
10000000
00010000
00000000
00100000
00001000
00100000
00001000
,
00010000
00000100
00000010
00000000
00000001
00000000
00000100
00000001
,
00000000
00010000
00000100
00000000
00010000
00001000
00010000
00000000
,
00001000
01000000
00100000
01000000
00001000
00000000
00100000
01000000
,
00000000
10000000
00100000
10000000
00010000
10000000
00010000
00000000
,
00100000
00001000
00100000
00000000
00010000
00000000
00001000
00000000
,
00000010
00000100
00000010
00000000
00000100
00000000
00000001
00000000
,
00000010
00000100
00000010
00000000
00000001
00000000
00001000
00000000
,
00000010
00000100
00000010
00000100
00000001
00000000
00000000
00000000
,
00010000
00001000
00010000
00000000
00001000
00000000
01000000
00000000
,
00100000
01000000
00100000
00000000
10000000
01000000
00000000
10000000
,
00020000
00000000
00000000
00000000
,
00130000
01000000
10000000
00000000
00010000
00100000
01000000
00000000
,
10000000
00010000
01000000
00000000
00001000
00010000
00000100
00000000
,
00000010
00000001
00000010
00000001
00000100
00000000
00000000
00000000
,
00000001
00000010
00000100
00000000
00000010
00000100
00010000
00000000
,
00001000
00100000
00001000
00100000
01000000
00000000
00000000
00000000
,
10000000
00000000
01000000
00100000
00010000
00000000
10000000
00000000
,
01000000
10000000
00010000
00000000
00100000
00001000
00100000
00000000
,
00001000
00000000
00010000
00000100
00000010
00000000
00000001
00000000
,
00000200
00000000
00000000
00000310
,
00001002
00001000
00001000
00000000
,
00000010
00000010
00000010
00000000
,
00001003
00000000
00000001
00000010
00000001
00000010
00000100
00000000
,
00010000
00000000
00001000
01000000
00001000
01000000
00100000
00000000
,
10000000
00000000
01000000
00100000
00010000
00100000
01000000
00000000
,
00100000
00000000
00001000
00010000
00001000
00010000
00000100
00000000
,
00000010
00000000
00000001
00000100
00000010
00000100
00000001
00000000
,
00000010
00000000
00000100
00000010
00000001
00000010
00000100
00000000
,
00011000
00000000
00001000
00000000
01000000
00100000
01000000
00100000
,
10000000
00000000
00100000
10000000
00010000
10000000
00100000
00000000
,
10000000
00000000
00000000
01000000
00000000
00000000
00100000
00000000
,
00001000
00010000
00001000
00000000
,
00010000
00000010
00010000
00000010
00000100
00000000
00000001
00000000
,
00000010
00000100
00000010
00000100
00001000
00000000
00010000
00000000
,
01000000
00100000
01000000
00010000
,
10000000
01000000
10000000
00000000
,
00100000
00000000
00000000
01000000
00000000
00000000
00001000
00000000
,
00020000
00000000
00030200
00000000
,
00000310
00000001
00000010
00000001
00000100
00000010
00001000
00010000
,
01000000
00000000
00000000
00000000
;

//---------------dance-double - ----------------
#NOTES:
     dance-double:
     :
     Hard:
     14:
     0.745,0.886,0.133,0.203,0.141:
00000000
00000000
00000000
00000000
,
00000000
00000000
00000000
00000000
,
00000000
00000000
00000000
00000000
,
00000000
00000000
00000000
00000000
,
00000000
00000000
00000000
00000000
,
10000000
01000000
00100000
00010000
02000000
00000000
03100000
00000000
,
10000000
01000000
00100000
00010000
02000000
00000000
03100000
00000000
,
10000000
00100000
01000000
00001000
00020000
00000000
00031000
00000000
,
00020002
00000000
00000000
00030003
,
00000001
00000010
00000100
00000000
00001100
00000000
00100000
00010000
,
00000000
00010000
00100000
00000000
01000000
00000000
11000000
00000000
,
10000000
00100000
01000000
00000000
01010000
00000000
00100000
01000000
,
00000000
00000000
00100000
00000000
01000000
00000000
00001000
00000000
00010000
00001000
00010000
00000000
00000010
00001000
00000010
00000000
,
00001000
00000100
00000010
00000000
00000011
00000000
00000100
00000010
,
00000000
00000010
00010000
00000000
00001000
00000000
00011000
00000000
,
00100000
00000000
01000000
00000000
10000000
00000000
00100000
00000000
01000000
00100000
01000000
00000000
00100000
00000000
10000000
00000000
,
00000000
00000000
01000000
00000000
00100000
00000000
00001000
00000000
00010000
00001000
00010000
00000000
00000001
00000100
00000001
00000000
,
00000100
00000010
00000100
00000000
00000001
00000100
00000001
00000000
,
00000010
00000100
00001000
00010000
,
00100000
01000000
00100000
00000000
00010000
10000000
00010000
00000000
,
00100000
01000000
01100000
00000000
,
10000000
00100000
10000000
00000000
01000000
00100000
01000000
00000000
,
10000000
00000000
00100000
00000000
01000000
00001000
00000000
00020000
,
00000000
00000100
00000010
00030100
,
00000010
00000100
00000010
00000000
00000100
00000000
00000001
00000000
00000100
00000001
00000100
00000000
00000001
00001000
00000001
00000000
,
00010000
00000100
00010000
00000000
00001000
00010000
00001000
00000000
,
01000000
00000000
00100000
00000000
01000000
00010000
10000000
00000000
,
01000000
10000000
01000000
00000000
00100000
01000000
00100000
00000000
,
00001000
00010000
00011000
00000000
,
00000001
00000100
00000001
00000000
00000100
00000010
00000100
00000000
,
00000001
00000000
00000100
00000000
00000010
00010000
00000000
00002000
,
00000000
00100000
01000000
00103000
,
01000000
10000000
01000000
00000000
10000000
00000000
00100000
00000000
01000000
00100000
01000000
00000000
00010000
10000000
00010000
00000000
,
10000000
01000000
00100000
00010000
00001000
00000100
00000010
00000001
,
00000010
00000100
00010000
00001000
01000000
00100000
01000000
00000000
,
00100000
10000000
00010000
10000000
00100000
10000000
00010000
10000000
,
01000000
00100000
00001000
00010000
00000100
00000010
00000001
00000000
,
00000100
00000001
00000100
00000001
00010000
00000000
00001000
00000000
,
00100000
01000000
10000000
00100000
00010000
00100000
10000000
00000000
,
01000000
00100000
00000000
00001000
00000000
00010000
00000000
00000010
,
00000200
00000000
00000000
00000300
,
00001001
00000000
00001000
00000100
00000010
00000000
00000001
00000100
,
00000000
00000100
00000001
00000010
00000100
00000000
00010000
00001000
,
00100000
10000000
01000000
10000000
00100000
00001000
01000000
00010000
,
01000000
00010000
10000000
00100000
10000000
00100000
01000000
00002000
,
00000000
00013000
00000100
00000010
00000100
00010000
00000001
00000100
,
00000000
00000001
00001000
00000100
00000010
00000001
00010000
00000000
,
00001000
01000000
00100000
10000000
01000000
10000000
00100000
01000000
,
00001000
01000000
00001000
00000000
00010000
00001000
00010000
00000000
00000010
00001000
00000010
00000000
00000100
00000010
00000100
00000000
,
00000001
00000010
00000100
00000000
00010000
00001000
00000000
00001000
,
00000000
10000000
00010000
01000000
10000000
01000000
00010000
00100000
,
02000000
00000000
00000000
23000000
00000000
00000000
30200000
00000000
,
01000000
00000000
01000000
00000000
10000000
00000000
10300000
00010000
,
01000000
00000000
00001000
00010000
00000000
00010000
00000010
00000000
,
00000100
00000001
00000010
00000000
00000001
00000010
00000100
00000000
,
00001000
00000010
00000100
00000010
00001000
00000000
00000010
00001000
,
00000000
00001000
00010000
00000000
01000000
00100000
01000000
00010000
,
20000000
00000000
00000000
30200000
00000000
00000000
01300000
00000000
,
00010000
00100000
00000000
00001000
00000000
00010000
00000000
00000010
,
00000100
00000010
00000100
00000000
00000010
00000000
00010000
00001000
00010000
00000000
00001000
00000000
00100000
00000000
01000000
00000000
,
00100000
00001000
00010000
00000000
00011000
00000000
00000010
00000100
,
00000000
00000100
00000001
00000010
00000100
00000000
00010100
00000000
,
00001000
01000000
00100000
00000000
01100000
00000000
10000000
00100000
,
01000000
00000000
01000000
00000000
00001000
00000000
00001000
00000000
00010000
00001000
00010000
00000000
00000010
00001000
00000010
00000000
,
00000100
00000001
00000010
00000000
00000011
00000000
00000100
00000010
,
00000000
00000010
00010000
00001000
00100000
00000000
01100000
00000000
,
10000000
00100000
10000000
00000000
00100000
01000000
00100000
00000000
01000000
00010000
01000000
00000000
00001000
00000000
00020000
00000000
,
00000000
00000000
00030100
00000000
00000010
00000000
00000001
00000000
00000100
00000001
00000100
00000000
00000010
00000100
00000010
00000000
,
00001000
00000100
00000010
00000100
00010000
00002000
00000000
01003000
,
00010000
00100000
00010000
01000000
00100000
20000000
00000000
31000000
,
00100000
00001000
00010000
00000010
00000100
00000020
00000000
00000130
,
00000001
00000010
00000100
00000010
00000001
00000000
00001000
00000000
,
00000100
00010000
00001000
01000000
00100000
01000000
00010000
10000000
,
00000000
00100000
01000000
00010000
00000000
00100000
00000000
00002000
,
00000000
01000000
00100000
01003000
,
00100000
01000000
00100000
00000000
10000000
00100000
10000000
00000000
00001000
00100000
00001000
00000000
00010000
00000100
00010000
00000000
,
00000001
00000010
00000100
00001000
00010000
00100000
01000000
10000000
,
01000000
00100000
00001000
00010000
00000100
00000010
00000100
00000000
,
00001000
00000001
00000100
00000001
00001000
00000001
00000100
00000001
,
00010000
00001000
01000000
00100000
10000000
01000000
00100000
00000000
,
00001000
00010000
00001000
00010000
00000010
00000100
00000001
00000000
,
00000100
00000001
00000010
00000000
00000001
00000010
00000100
00000000
,
00010000
00001000
00000000
00100000
00000000
01000000
00000000
10000000
,
00200000
00000000
00000000
00300000
,
10000000
01000000
00010000
01000000
10000000
00000000
00100000
01000000
,
00000000
01000000
00001000
00010000
00000010
00000100
00000010
00000000
,
00001000
00000010
00000001
00000100
00000001
00000010
00001000
00000100
,
00000000
00001000
00010000
01000000
00100000
01000000
00010000
10000000
,
00000000
01000000
00100000
00010000
00100000
01000000
00010000
00001000
,
00000000
00000010
00000100
00000001
00000100
00000010
00010000
00001000
,
00000000
00100000
01000000
10000000
01000000
00100000
01000000
10000000
,
00001000
00100000
00001000
00000000
00010000
00001000
00010000
00000000
00000010
00010000
00000010
00000000
00000100
00000010
00000100
00000000
,
00000001
00000010
00000100
00000010
00000001
00001000
00000010
00020000
,
00000000
00031000
10000000
00100000
10000000
01000000
00100000
00010000
,
00002000
00000000
00000000
00003020
00000000
00000000
00000230
00000000
,
00000001
00000001
00000010
00000310
,
00001000
00000100
00000001
00000010
00000001
00000100
00001000
00000000
,
00000100
00001000
00010000
00000000
01000000
00100000
10000000
01000000
,
10000000
00100000
01000000
00000000
00100000
00000000
01100000
00000000
,
01000000
00001000
00010000
00000000
00001000
00000000
00011000
00000000
,
00010020
00000000
00000000
00000230
00000000
00000000
00000301
00000000
,
00000010
00000100
00000000
00010000
00000000
00001000
00000000
01000000
,
00100000
01000000
00100000
00000000
10000000
00100000
10000000
00000000
00001000
00100000
00001000
00000000
00010000
00001000
00010000
00000000
,
00000010
00000000
00000000
00000000
;

//---------------dance-single - ----------------
#NOTES:
     dance-single:
     :
     Beginner:
     3:
     0.140,0.201,0.047,0.000,0.000: // measure 1
0000
0000
0000
0000
,  // measure 2
0000
0000
0000
0000
,  // measure 3
0000
0000
0000
0000
,  // measure 4
0000
0000
0000
0000
,  // measure 5
0000
0000
0000
0000
,  // measure 6
1000
0000
0000
0000
,  // measure 7
0001
0000
0000
0000
,  // measure 8
1000
0000
0000
0000
,  // measure 9
0001
0000
0000
0000
,  // measure 10
0100
0000
0100
0000
,  // measure 11
0100
0000
0000
0000
,  // measure 12
0010
0000
0010
0000
,  // measure 13
0010
0000
0000
0000
,  // measure 14
0100
0000
0100
0000
,  // measure 15
0100
0000
0000
0000
,  // measure 16
0010
0000
0010
0000
,  // measure 17
0010
0000
0000
0000
,  // measure 18
1000
0000
0000
0000
,  // measure 19
0100
0000
0000
0000
,  // measure 20
1000
0000
0000
0000
,  // measure 21
0100
0000
0000
0000
,  // measure 22
0010
0000
0000
0000
,  // measure 23
0001
0000
0000
0000
,  // measure 24
0010
0000
0000
0000
,  // measure 25
0000
0000
0000
0000
,  // measure 26
0001
0000
0000
0000
,  // measure 27
1000
0000
0000
0000
,  // measure 28
0001
0000
0000
0000
,  // measure 29
1000
0000
0000
0000
,  // measure 30
0100
0000
0000
0000
,  // measure 31
1000
0000
0000
0000
,  // measure 32
0100
0000
0000
0000
,  // measure 33
0000
0000
0000
0000
,  // measure 34
1000
0000
0100
0000
,  // measure 35
0010
0000
0000
0000
,  // measure 36
0100
0000
0010
0000
,  // measure 37
0001
0000
0000
0000
,  // measure 38
1000
0000
0010
0000
,  // measure 39
0100
0000
0000
0000
,  // measure 40
0010
0000
0100
0000
,  // measure 41
0001
0000
0000
0000
,  // measure 42
1001
0000
0000
0000
,  // measure 43
0000
0000
0000
0000
,  // measure 44
0100
0000
0010
0000
,  // measure 45
0100
0000
0010
0000
,  // measure 46
0100
0000
0000
0000
,  // measure 47
1000
0000
0000
0000
,  // measure 48
0001
0000
1000
0000
,  // measure 49
0001
0000
0000
0000
,  // measure 50
0010
0000
0100
0000
,  // measure 51
0010
0000
0000
0000
,  // measure 52
0001
0000
0000
0000
,  // measure 53
0100
0000
0000
0000
,  // measure 54
0010
0000
0000
0000
,  // measure 55
1000
0000
0000
0000
,  // measure 56
0001
0000
0000
0000
,  // measure 57
1000
0000
0000
0000
,  // measure 58
1001
0000
0000
0000
,  // measure 59
0001
0000
0000
0000
,  // measure 60
0100
0000
0000
0000
,  // measure 61
0110
0000
0000
0000
,  // measure 62
0010
0000
0000
0000
,  // measure 63
0100
0000
0000
0000
,  // measure 64
0010
0000
0000
0000
,  // measure 65
1000
0000
0001
0000
,  // measure 66
1000
0000
0000
0000
,  // measure 67
0001
0000
1000
0000
,  // measure 68
0001
0000
0000
0000
,  // measure 69
0010
0000
0000
0000
,  // measure 70
0100
0000
0000
0000
,  // measure 71
0010
0000
0000
0000
,  // measure 72
0100
0000
0000
0000
,  // measure 73
1000
0000
0000
0000
,  // measure 74
0010
0000
0000
0000
,  // measure 75
1000
0000
0000
0000
,  // measure 76
0000
0000
0000
0000
,  // measure 77
0001
0000
0010
0000
,  // measure 78
0100
0000
0000
0000
,  // measure 79
0010
0000
0100
0000
,  // measure 80
1000
0000
0000
0000
,  // measure 81
0001
0000
0100
0000
,  // measure 82
0010
0000
0000
0000
,  // measure 83
0100
0000
0010
0000
,  // measure 84
1000
0000
0000
0000
,  // measure 85
1001
0000
0000
0000
,  // measure 86
0000
0000
0000
0000
,  // measure 87
0100
0000
0010
0000
,  // measure 88
0100
0000
0010
0000
,  // measure 89
0100
0000
0000
0000
,  // measure 90
1000
0000
0000
0000
,  // measure 91
0001
0000
0100
0000
,  // measure 92
0001
0000
0000
0000
,  // measure 93
1001
0000
0100
0000
,  // measure 94
0010
0000
0000
0000
,  // measure 95
0001
0000
1000
0000
,  // measure 96
0001
0000
0000
0000
,  // measure 97
0100
0000
0001
0000
,  // measure 98
0100
0000
0000
0000
,  // measure 99
0010
0000
1000
0000
,  // measure 100
0010
0000
0000
0000
,  // measure 101
1000
0000
0000
0000
,  // measure 102
0100
0000
0000
0000
,  // measure 103
0010
0000
0000
0000
,  // measure 104
1001
0000
0000
0000
;
