#TITLE:卑弥呼;
#SUBTITLE:;
#ARTIST:朱雀 VS 玄武;
#TITLETRANSLIT:HIMIKO;
#SUBTITLETRANSLIT:;
#ARTISTTRANSLIT:SUZAKU VS GENBU;
#CREDIT:DigiMindAxel;
#BANNER:HIMIKO.png;
#BACKGROUND:HIMIKO-bg.png;
#LYRICSPATH:;
#CDTITLE:beatmania IIDX.png;
#MUSIC:HIMIKO.ogg;
#METERTYPE:DDR X;
#OFFSET:-8.184;
#SAMPLESTART:91.192;
#SAMPLELENGTH:12.000;
#SELECTABLE:YES;
#BPMS:0.000=185.000,117.000=92.500,149.000=185.000,291.000=176.000,307.000=170.000,315.000=166.000;
#STOPS:;
#BGCHANGES:;

//---------------dance-single - ----------------
#NOTES:
     dance-single:
     :
     Hard:
     17:
     0.826,0.948,0.204,0.174,0.577:
1000
0000
0010
0000
1000
0000
0001
1000
0001
0000
0010
0000
0100
0000
1000
0000
,
0010
0000
0100
0000
0010
0000
1000
0001
1000
0000
0100
0000
0010
0000
0001
0000
,
0100
0000
0010
0000
0100
0000
0001
1000
0001
0000
0010
0000
0001
0000
1000
0000
,
0010
0000
1000
0000
1000
0000
0010
0100
0020
0000
0100
0000
0130
0000
0001
0000
,
0010
0000
0100
0000
1000
0000
0010
1000
0010
0000
1000
0000
0001
0000
0010
0000
,
0100
0000
1000
0000
0001
0000
0100
0001
0100
0000
0001
0000
1000
0000
0100
0000
,
0010
0000
0001
0000
1000
0000
0100
1000
0100
0000
0010
0000
0001
0000
1000
0000
,
1100
1100
0000
0000
0001
0000
0101
0000
,
1000
0000
1000
0000
0010
0000
0100
0010
0100
0000
0001
0000
0010
0000
0001
0000
,
1000
0000
1000
0000
0010
0000
0100
0010
0100
0000
0001
1000
0001
0000
1000
0000
,
0001
0000
0001
0000
0100
0000
0010
0100
0010
0000
1000
0000
0100
0000
1000
0000
,
0001
0000
0001
0000
0100
0000
0010
0100
0020
0000
0100
0000
0130
0000
0001
0000
,
1000
0000
1000
0000
0010
0000
0100
0010
0100
0000
0001
0000
0010
0000
0001
0000
,
1000
0000
1000
0000
0010
0000
0100
0010
0100
0000
0001
1000
0001
0000
1000
0000
,
0001
0000
0001
0000
0100
0000
0010
0100
0010
0000
1000
0000
0100
0000
1000
0000
,
1001
0000
1001
0000
0000
0000
0000
0000
1000
0000
0100
1000
0100
1000
0100
0000
,
2001
0001
0001
3001
,
0102
0100
0100
0103
,
2100
0100
0100
3100
,
1002
1000
2003
3001
,
1000
0000
0001
0000
1000
0000
0100
0010
0000
0100
0010
0000
0001
1000
0001
0000
,
0010
0000
0100
0000
1000
0000
0010
0000
0100
0001
0100
0000
0001
0000
1000
0001
,
0000
1000
0001
0000
0010
0000
0100
0000
0010
0000
0001
0000
1000
0000
0010
0000
,
0200
0000
0000
0000
0001
0001
0001
0001
,
0301
1000
0001
1000
0001
0000
0000
0000
1000
0000
0100
0000
1000
0000
0010
0100
,
0000
0010
0100
0000
0001
1000
0001
0000
1000
0000
0100
0000
0010
0000
0001
1000
,
0000
0001
1000
0000
0010
0000
0100
0010
0000
0100
0010
0000
1000
0001
1000
0000
,
0010
0000
0100
0001
0000
0100
0001
0000
2000
0000
0000
0000
0001
0000
0000
0000
,
0001
0000
0000
0000
3001
0000
1000
0000
0100
0000
0010
0000
0001
1000
0000
0001
,
1000
0001
1002
0000
0203
0000
2300
0000
,
3200
0000
0320
0000
1030
0100
0010
0000
,
1001
2000
3200
0302
,
0103
0010
0001
0000
1000
0001
1000
0100
,
0010
0000
0000
0000
0001
1000
0010
1000
0001
0010
0100
0000
1000
0001
0100
0001
,
1000
0100
0010
0000
0001
1000
0100
1000
0010
0100
0001
0000
1000
0001
0010
0001
,
1000
0010
0100
0000
0001
0010
0100
1000
0010
0100
0010
1000
0001
0010
0100
1000
,
0010
0100
0010
0100
0002
0000
0000
0000
1003
0000
0100
0000
0010
0000
0000
0000
,
0001
0001
0001
0000
1001
0000
1000
0000
0010
0000
0001
0000
0010
0000
0100
0000
,
0001
0100
1000
0100
0010
1000
0100
0010
,
0001
0100
1000
0100
0010
1000
0001
0010
,
1000
0010
0100
1000
0001
0100
0010
1000
,
0001
0100
1000
0100
0010
1000
0001
1000
,
0010
0001
0010
0100
0001
1000
0001
0010
,
0100
1000
0001
0100
1000
0100
0010
1000
,
0100
0001
0100
0010
0001
1000
0010
0100
,
0001
0010
1000
0010
0100
1000
0001
0100
,
1000
0100
0010
1000
0001
0100
0010
1000
,
0100
0001
0100
0010
0001
1000
0010
0100
,
0001
1000
0001
1000
0001
0000
0100
0000
0001
0000
0010
0000
0100
0000
0010
0000
,
0001
0001
1001
0000
1000
0100
0001
0100
,
1000
1000
1001
0000
0001
0010
0100
1000
,
0001
0000
0100
0000
0001
1000
0001
1000
0001
0000
0100
0000
0010
0000
0100
0000
,
0001
1000
0001
1000
0001
0000
0010
0000
0100
0000
1000
0000
0010
0000
0100
0000
,
0010
1000
0010
0000
1001
0000
0100
0000
0010
0000
0001
0000
0100
0000
0010
0000
,
0100
0001
0100
0000
1001
0000
0010
0000
0100
0000
1000
0000
0010
0000
0100
0000
,
0001
1000
0001
0000
1000
0001
1000
0001
1000
0001
1000
0100
0010
0001
0100
0010
,
0200
0000
0000
0000
0000
0000
0000
0000
0300
0000
0000
0000
0001
1000
0001
0000
,
1000
0010
1000
0000
0001
0000
0010
0000
0100
0010
0100
0000
1000
0001
1000
0000
,
0001
0100
0001
0000
1000
0000
0100
0000
0010
0100
0010
0000
0001
0100
0001
0000
,
1000
0100
1000
0000
0001
0000
0010
0000
0100
1000
0100
0000
1000
0100
1000
0000
,
0010
0100
0010
0000
1000
0001
1000
0001
1000
0001
1000
0000
0001
0100
0010
0000
,
0100
0010
0100
0000
0001
0000
1000
0000
0100
0010
0100
0000
1000
0001
1000
0000
,
0001
0100
0010
0000
1000
0010
1000
0000
0100
0010
0100
0000
1000
0001
0010
0000
,
0100
0010
0100
0000
1000
0010
1000
0000
0001
1000
0001
0000
1001
0000
2002
0000
,
0000
0000
0000
0000
3003
0000
0000
0000
1001
0000
0000
0000
0001
0100
0001
0100
,
0001
0000
1000
0000
0100
0010
0001
0000
1000
0001
1000
0000
0001
0010
0001
0010
,
0001
0000
0100
0000
0010
1000
0100
0000
1000
0001
1000
0000
0010
0100
0010
0100
,
0010
0000
1000
0000
0001
0010
0001
0000
1000
0010
0100
0000
0001
1000
0100
0000
,
0010
0001
1000
0000
0100
0010
0100
0010
0100
0010
0100
0000
1001
0000
1001
0000
,
0000
0000
0000
0000
1001
0000
0001
0100
0001
0000
1000
0100
1000
0000
1001
0000
,
0000
0000
0000
0000
1001
0000
1000
0010
1000
0000
0001
0010
0001
0000
0000
0000
,
0000
1001
0000
0110
,
1001
0000
0000
0000
1000
0001
1000
0001
1000
0000
0100
0000
0010
0000
0001
0100
,
0001
0000
1000
0100
0010
0000
0100
0000
0000
0000
1000
0000
0001
0000
0100
0001
,
0100
0000
0001
0010
0100
0000
1000
0000
0000
0000
0000
0000
0001
1000
0001
1000
,
0001
0000
1000
0100
0010
0001
1000
0000
0000
0000
0000
0000
0010
1000
0010
1000
,
0100
0010
0100
0010
0001
0100
0001
0100
0001
1000
0001
1000
0100
0000
0000
0000
,
0010
0001
0010
0001
1000
0000
0000
0000
0010
1000
0010
1000
0001
0000
0000
0000
,
1000
0100
0010
0001
1000
0000
0000
0000
0001
0100
0010
1000
0001
0010
0001
0000
,
0000
0000
0010
0100
0010
0100
1000
0000
0100
0010
0100
0010
0001
0000
0000
0000
,
0010
0001
0100
0010
1000
0000
0010
0000
0001
0000
0010
0000
2000
0000
0000
0000
,
0000
0002
0000
0000
,
0000
0000
0000
0000
,
0000
0000
0000
3003
;

//---------------dance-single - ----------------
#NOTES:
     dance-single:
     :
     Medium:
     14:
     0.623,0.790,0.204,0.166,0.121:
0001
0100
0010
1000
0100
0010
0100
1000
,
0001
0100
0010
1000
0100
0010
0100
1000
,
0001
0100
1000
0100
0001
0010
0100
0010
,
0001
1000
1000
0010
0110
0000
0001
0001
,
1000
0010
0100
0001
0010
0100
0010
0001
,
1000
0010
0100
0001
0010
0100
0010
0001
,
1000
0100
0001
0100
1000
0001
0100
0100
,
1001
1001
0000
0000
0001
0000
1001
0000
,
0002
1000
1003
0001
0010
0100
1000
0000
,
0002
1000
1003
0001
0100
0010
1000
0000
,
0200
0010
0310
0001
1000
0100
0010
0000
,
0200
1000
1300
0001
0100
0010
1000
0000
,
0020
0100
0130
0001
0010
0100
1000
0000
,
0002
0100
0103
0001
1000
0100
0010
0000
,
0200
1000
1300
0001
0100
0010
1000
0000
,
0110
0110
0000
0000
0010
0000
0110
0000
,
1002
1000
1000
1000
,
2003
0100
0100
0100
,
3200
0010
0010
0010
,
0320
0001
0031
1001
,
1000
0100
0010
0001
0100
0010
0100
0001
,
0001
1000
1000
0100
0010
0100
1000
0001
,
0001
0100
0100
0010
1000
0100
0010
0001
,
0002
0000
0000
0000
1000
1003
0001
0001
,
0010
0000
0100
0000
0000
0000
0000
0000
1000
0000
0001
0000
1000
0000
0100
0010
,
0000
0100
0010
0000
0001
0000
0001
0000
1000
0000
0010
0100
0000
0010
0100
0000
,
0001
0000
0001
0000
1000
0000
0100
0010
0000
0100
0010
0000
0001
0000
0010
0000
,
0100
0000
0010
0001
0000
0010
0001
0000
1000
0000
0000
0000
1000
0000
0000
0000
,
1000
0000
0000
0000
1000
0000
0100
0000
0010
0000
0001
0000
1000
0100
1000
0000
,
0001
0100
0001
0000
1000
0000
0000
0000
0100
0000
0000
0000
0010
0000
0000
0000
,
0001
0000
0100
0000
0001
0100
1000
0000
,
0100
0010
1000
0100
,
0001
0100
0010
0000
0001
0010
0100
1000
,
0010
0000
0000
0000
1000
0100
0010
0001
0100
0000
0100
0000
0001
0010
0100
1000
,
0010
0000
0010
0000
1000
0010
0100
0001
1000
0000
1000
0000
0001
0100
0010
1000
,
0001
0000
0001
0000
1000
0001
1000
0100
0010
0000
0010
0000
0001
1000
0001
0010
,
0100
0100
1000
0000
0100
0001
0100
0000
,
1000
1000
1000
0000
2002
0000
0000
0000
0000
0000
0000
0000
0000
0000
0000
0000
,
0000
0000
0000
0000
,
3003
0220
0000
0000
,
0000
0000
0000
0000
,
0330
0001
0100
0010
,
1000
0100
0010
0001
,
1000
0000
0010
1000
0010
0000
0100
0001
,
0100
0000
0001
1000
0001
0000
1000
0001
,
1000
0000
0100
1000
0100
0000
0010
0001
,
0010
0000
0100
1000
0100
1000
0100
1000
,
0001
0100
0001
0100
0001
1000
0001
1000
,
0001
1000
0001
1000
0001
0000
0010
0000
0100
0000
1000
0000
0010
0000
0010
0000
,
0100
0001
1000
0100
0010
0001
0100
0100
,
0010
1000
0001
0010
0100
1000
0010
0010
,
0100
0001
1000
0100
0010
0100
1000
1000
,
0001
0001
0010
0100
0010
0001
0100
0100
,
0010
0010
1000
0100
0010
0100
1000
1000
,
0001
0001
0100
0001
0010
0100
1000
0001
,
0100
0010
0100
0000
0002
0000
0000
0000
1000
0000
0000
0000
1003
0000
0000
0000
,
2002
0000
0000
0000
3003
0000
1000
0001
,
1000
0100
0001
1000
0010
0001
1000
0100
,
1000
0001
0100
1000
0001
0010
1000
0001
,
1000
0010
1000
0100
0001
1000
0010
0001
,
1000
0100
0020
0001
0001
0031
1001
1000
,
0100
0010
0001
0001
1000
0001
0100
1000
,
0100
0001
0010
0010
0100
1000
1001
0001
,
0100
0010
1000
1000
0100
0010
0110
0110
,
0000
0000
0000
0000
0000
0000
0000
0000
1001
0000
0000
0000
1000
0001
1000
0000
,
0010
1000
0100
0001
1000
0010
0001
1000
,
0001
1000
0001
0000
0010
0000
1000
0000
0010
0000
0001
0000
0100
0001
0100
0000
,
0010
0100
0010
0000
1000
0000
0100
0000
0010
0000
0100
0000
1000
0010
1000
0000
,
0010
0100
0010
0000
1000
0000
0100
0000
0001
0000
0100
0000
1001
0000
1001
0000
,
0000
0000
1100
0000
1100
0000
1001
1001
,
0000
0011
0011
1001
,
0000
0000
1001
0000
0000
0000
0001
1000
,
0001
0100
1000
0100
0001
1000
0100
0010
,
0000
0100
1000
0000
0001
0100
0010
0010
,
0000
1000
0001
0000
0100
0010
1000
1000
,
0000
0010
0100
0000
0001
1000
0100
0010
,
0000
0001
0001
0000
0100
0001
0010
0100
,
0000
1000
0010
0000
0100
0001
0010
0100
,
0000
1000
1000
0000
0010
1000
0100
0010
,
0000
0001
0001
0000
0010
0001
2000
0000
,
0000
0000
0000
0002
,
0000
0000
0000
0000
,
0000
0000
0000
0000
,
0000
0000
0000
0000
0000
0000
0000
0000
0000
0000
0000
0000
0000
0000
0000
0000
0000
0000
0000
0000
0000
0000
0000
0000
0000
0000
0000
0000
0000
0000
0000
0000
0000
0000
0000
0000
0000
0000
0000
0000
0000
0000
0000
0000
0000
0000
0000
0000
0000
0000
0000
0000
0000
0000
0000
0000
0000
0000
0000
0000
0000
0000
0000
0000
0000
0000
0000
0000
0000
0000
0000
0000
0000
0000
0000
0000
0000
0000
0000
0000
0000
0000
0000
0000
0000
0000
0000
0000
0000
0000
0000
0000
0000
0000
0000
0000
0000
0000
0000
0000
0000
0000
0000
0000
0000
0000
0000
0000
0000
0000
0000
0000
0000
0000
0000
0000
0000
0000
0000
0000
0000
0000
0000
0000
0000
0000
0000
0000
0000
0000
0000
0000
0000
0000
0000
0000
0000
0000
0000
0000
0000
0000
0000
0000
3000
0003
0000
0000
0000
0000
0000
0000
0000
0000
0000
0000
0000
0000
0000
0000
0000
0000
0000
0000
0000
0000
0000
0000
0000
0000
0000
0000
0000
0000
0000
0000
0000
0000
0000
0000
0000
0000
0000
0000
0000
0000
0000
0000
0000
0000
0000
0000
;

//---------------dance-single - ----------------
#NOTES:
     dance-single:
     :
     Easy:
     9:
     0.458,0.506,0.264,0.181,0.000: // measure 1
1001
0001
1001
1000
,  // measure 2
0110
0010
0110
0100
,  // measure 3
1001
1000
1001
0001
,  // measure 4
1000
0001
1000
0000
0001
1000
0001
0000
,  // measure 5
1001
1000
1001
0001
,  // measure 6
0110
0100
0110
1000
,  // measure 7
1001
0001
1001
1000
,  // measure 8
0010
0100
0000
0000
0001
0000
1001
0000
,  // measure 9
1000
0100
1000
0000
0001
0000
1000
0000
,  // measure 10
0001
0010
0001
0000
1000
0000
0001
0000
,  // measure 11
1000
0010
1000
0000
0001
0000
1000
0000
,  // measure 12
0001
0100
0001
0000
1000
0000
0001
0000
,  // measure 13
1000
0100
1000
0000
0001
0000
1000
0000
,  // measure 14
0001
0010
0001
0000
1000
0000
0001
0000
,  // measure 15
1000
0010
1000
0000
0001
0000
1000
0000
,  // measure 16
0010
0100
0000
0000
0001
0000
0001
0000
,  // measure 17
1001
1000
1000
1000
,  // measure 18
0001
0001
0001
0001
,  // measure 19
1000
1000
1000
1000
,  // measure 20
0001
0001
0001
0001
,  // measure 21
1001
0000
1000
0100
1000
0000
0002
0000
,  // measure 22
1000
0000
1000
0000
1003
0000
0001
0100
,  // measure 23
0001
2000
0001
0001
,  // measure 24
3002
0100
0100
0100
,  // measure 25
0103
0001
1001
1000
,  // measure 26
0020
0000
1000
0000
1030
0000
0001
1000
,  // measure 27
0001
0020
0001
0031
,  // measure 28
1000
0001
1000
0000
0200
0000
1000
0000
,  // measure 29
1000
1000
1000
1000
,  // measure 30
1300
1001
0100
0010
,  // measure 31
0100
0000
1000
0000
0001
1000
0001
0000
,  // measure 32
0001
1000
0100
0010
,  // measure 33
0100
1000
0100
0000
0010
0001
0010
0100
,  // measure 34
1000
0110
0010
0100
,  // measure 35
0001
0000
1000
0000
0100
0010
0001
0000
,  // measure 36
0001
1000
0010
0100
,  // measure 37
0001
0010
0100
0000
1000
0001
1000
0000
,  // measure 38
1001
1002
0023
0230
,  // measure 39
2300
3001
0010
0100
,  // measure 40
2000
3020
0230
0302
,  // measure 41
1003
0010
0100
0001
,  // measure 42
2000
3200
0320
0032
,  // measure 43
1003
0100
0010
0001
,  // measure 44
1000
0100
1000
0001
,  // measure 45
1000
0010
0100
0001
,  // measure 46
1000
0100
1000
0001
,  // measure 47
0010
0100
1000
0001
,  // measure 48
0100
0001
0010
0100
,  // measure 49
1000
0001
1000
0000
0010
0000
0010
0100
,  // measure 50
0010
0100
0010
0000
1000
0000
1000
0001
,  // measure 51
1000
0001
1000
0000
0100
0000
0100
1000
,  // measure 52
0100
1000
0200
0000
2300
0000
3002
0000
,  // measure 53
1003
0000
0001
0000
0001
0000
1000
0010
,  // measure 54
1000
0010
1000
0000
0001
0000
0001
0010
,  // measure 55
0001
0010
0001
0000
0010
0000
0010
0100
,  // measure 56
0010
0100
0010
0000
0001
0000
1000
0000
,  // measure 57
2002
0000
3003
1001
,  // measure 58
0001
1000
0001
0000
1000
0100
1000
0000
,  // measure 59
0001
0100
0001
0000
1000
0000
1001
0000
,  // measure 60
1000
0010
1000
0000
0001
1000
0001
0000
,  // measure 61
0010
0001
0010
0000
0100
0000
1001
0000
,  // measure 62
0001
0100
0001
0000
1000
0001
1000
0000
,  // measure 63
0100
1000
0100
0000
0010
0000
1001
0000
,  // measure 64
0001
0100
0001
0000
1000
0000
0100
0010
,  // measure 65
0000
0000
0000
0000
1001
0000
1000
0010
,  // measure 66
1000
0000
0001
1000
0001
0000
0010
0001
,  // measure 67
0010
0000
0100
0000
1001
0000
1000
0100
,  // measure 68
1000
0000
0001
1000
0001
0000
0100
0001
,  // measure 69
0100
0000
0010
0000
1000
0000
0001
1000
,  // measure 70
0000
0000
0001
0000
1001
0000
1000
0001
,  // measure 71
0000
1000
1001
0110
,  // measure 72
0000
0110
0000
0110
,  // measure 73
0110
0000
0110
0000
1001
0000
0001
0010
,  // measure 74
0100
0000
0100
0000
0000
0000
1000
0100
,  // measure 75
0010
0000
0010
0000
0000
0000
0001
0010
,  // measure 76
0100
0100
0000
1000
,  // measure 77
0010
0000
0100
0000
0001
0000
1000
0010
,  // measure 78
0100
0000
0100
0000
0000
0000
0001
0100
,  // measure 79
0010
0000
0010
0000
0000
0000
1000
0010
,  // measure 80
0100
0001
0001
0001
,  // measure 81
0000
0000
0000
0200
,  // measure 82
0000
0000
0000
0000
,  // measure 83
0000
0000
0000
0000
,  // measure 84
0000
0000
0000
0300
;

//---------------dance-single - ----------------
#NOTES:
     dance-single:
     :
     Beginner:
     6:
     0.251,0.305,0.113,0.000,0.000: // measure 1
1000
0100
1000
0000
,  // measure 2
0001
0010
0001
0000
,  // measure 3
1000
0100
1000
0000
,  // measure 4
0001
0010
0001
0000
,  // measure 5
1000
0010
1000
0000
,  // measure 6
0001
0100
0001
0000
,  // measure 7
1000
0010
1000
0000
,  // measure 8
1001
0000
0000
1001
,  // measure 9
0001
0010
0100
1000
,  // measure 10
0010
0100
0010
1000
,  // measure 11
0100
0010
0001
1000
,  // measure 12
0010
0100
0010
0000
,  // measure 13
1000
0010
1000
0001
,  // measure 14
1000
0100
1000
0001
,  // measure 15
0100
0001
1000
0001
,  // measure 16
1001
0000
0000
1001
,  // measure 17
0001
0000
0000
0000
,  // measure 18
0001
0000
0000
0000
,  // measure 19
0001
0000
0000
0000
,  // measure 20
1000
0000
1000
0000
,  // measure 21
1001
0001
0010
0100
,  // measure 22
1000
0001
1000
0001
,  // measure 23
0100
0010
0100
0010
,  // measure 24
1000
0000
0000
0000
,  // measure 25
0000
0000
1001
1000
,  // measure 26
0100
0010
0001
1000
,  // measure 27
0001
1000
0100
0010
,  // measure 28
0100
0010
0001
0000
,  // measure 29
0000
0000
0000
0000
,  // measure 30
0000
1001
0001
0010
,  // measure 31
0100
1000
0000
1000
,  // measure 32
0000
0001
0010
0100
,  // measure 33
1000
0001
0000
0001
,  // measure 34
0000
1001
1000
0010
,  // measure 35
0100
0001
0000
0001
,  // measure 36
0000
1000
0010
0100
,  // measure 37
0001
1000
0000
0000
,  // measure 38
1000
1001
0000
0000
,  // measure 39
0000
0000
0000
0000
,  // measure 40
0000
0000
0000
0000
,  // measure 41
0000
0001
0000
0000
,  // measure 42
0000
0000
0000
0000
,  // measure 43
0000
1000
0000
0000
,  // measure 44
0000
0000
0000
0000
,  // measure 45
0000
0001
0000
0000
,  // measure 46
0000
0000
0000
0000
,  // measure 47
0000
1000
0000
0000
,  // measure 48
0000
0000
0000
0000
,  // measure 49
0000
0001
0100
0001
,  // measure 50
0100
0010
1000
0010
,  // measure 51
1000
0001
1000
0001
,  // measure 52
1000
0010
0100
0010
,  // measure 53
0100
0001
0010
0100
,  // measure 54
1000
0001
0010
0001
,  // measure 55
1000
0100
0010
0001
,  // measure 56
1000
0010
0100
0010
,  // measure 57
0110
0000
0000
0001
,  // measure 58
0010
0100
1000
0010
,  // measure 59
0100
0010
1000
0100
,  // measure 60
0010
0001
0100
0010
,  // measure 61
0100
0001
0100
0010
,  // measure 62
0100
0001
0010
0100
,  // measure 63
1000
0010
0100
0010
,  // measure 64
1000
0001
0100
0110
,  // measure 65
0000
0000
1001
0001
,  // measure 66
0010
0100
1000
0010
,  // measure 67
0100
0010
1000
0100
,  // measure 68
0010
0001
0100
0010
,  // measure 69
0100
0001
1000
1001
,  // measure 70
0000
0100
0100
1001
,  // measure 71
0000
0010
0010
1001
,  // measure 72
0000
1000
0000
1000
,  // measure 73
0010
0100
0001
1000
,  // measure 74
0000
1000
0000
0100
,  // measure 75
0000
0100
0000
0010
,  // measure 76
0000
0010
0000
0001
,  // measure 77
0000
0001
0000
1000
,  // measure 78
0000
0010
0000
0100
,  // measure 79
0000
0001
0000
0010
,  // measure 80
0000
0100
0000
1000
,  // measure 81
0000
0000
0000
0001
;

//---------------dance-single - ----------------
#NOTES:
     dance-single:
     :
     Challenge:
     19:
     1.000,1.000,0.415,0.075,1.000:
1001
0000
1000
0000
0001
0000
0010
0100
1000
0000
0001
0000
0001
0000
0100
0000
,
0010
0000
1000
0000
0100
0000
0010
0100
1000
0000
0001
0000
0001
0000
0100
0000
,
0010
0000
1000
0000
0001
0000
0010
0001
0100
0000
0010
0000
0010
0000
1000
0000
,
0001
0000
1000
0000
1000
0000
0010
0100
0001
0000
0010
0000
0010
0000
0100
0000
,
1000
0001
0100
0001
1000
0000
0100
0010
0001
0000
1000
0000
1000
0000
0001
0000
,
0100
0001
0010
0001
0100
0000
0001
1000
0100
0000
0010
0000
0010
0000
0001
0000
,
1000
0100
0010
0100
1000
0000
0001
1000
0010
0000
0100
0000
0100
0000
0001
0000
,
1001
0000
1001
0000
0000
0000
0000
0000
0010
0100
0010
0000
1001
0000
0000
0000
,
1010
0000
0110
0000
0010
0000
0100
0001
0010
0000
0100
0000
1000
0000
0010
0000
,
0110
0000
0101
0000
0001
0000
0010
0100
1000
0000
0010
0000
0010
0000
1000
0000
,
1001
0000
0011
0000
0010
0000
0100
1000
0001
0000
0100
0000
0100
0000
0010
0000
,
1010
0000
1001
0000
0001
0000
1000
0100
0010
0000
0001
0000
0001
0000
0100
0000
,
0110
0000
1010
0000
1000
0000
0010
0100
0001
0000
1000
0000
1000
0000
0010
0000
,
0110
0000
0101
0000
0001
0000
1000
0100
0010
0000
0001
0000
0001
0000
1000
0000
,
1100
0000
0110
0000
0010
0000
0001
1000
0010
0000
0100
0000
0100
0000
0001
0000
,
1001
0000
1001
0000
0000
0000
0000
0000
1000
0001
0010
0100
1000
0100
0010
0001
,
1000
0010
1000
0000
0010
0000
1000
0010
0000
1000
0010
0000
1000
0010
1000
0000
,
0001
1000
0001
0000
1000
0000
0001
1000
0000
0001
1000
0000
0001
1000
0001
0000
,
0010
0001
0010
0000
0001
0000
0010
0001
0000
0010
0001
0000
0010
0001
0010
0000
,
0100
0010
0100
0000
0010
0000
0100
0010
0000
0100
0010
0000
0100
0010
0001
1000
,
0010
0100
0010
0000
0100
0000
0001
1000
0000
1000
0100
0000
0010
0001
0100
0000
,
0001
1000
0001
0000
0100
0000
0010
1000
0000
1000
0001
0000
0010
0100
0010
0000
,
0001
0100
0010
0000
1000
0010
1000
0000
0001
0000
0010
0100
0000
0100
1000
0000
,
0001
1000
0002
0000
0000
0000
0000
0000
1003
0000
0100
0000
0010
0000
0001
0000
,
1000
0100
0001
0100
1000
0000
0000
0000
0001
1000
0100
0000
0010
0000
0001
0100
,
0000
0100
0010
0000
1000
0100
0010
0100
1000
0001
0100
0000
0001
0000
0010
0100
,
0000
0100
1000
0000
0001
0100
0010
0000
0100
0001
1000
0000
0100
0010
0100
1000
,
0010
0000
0100
0001
0000
0001
1000
0000
0100
0000
0010
0000
0001
0000
0010
0000
,
0100
0000
1000
0000
0001
0100
0001
0100
0001
0010
0100
1000
0001
0100
0010
0100
,
0001
0100
0010
0100
0001
0000
0000
0000
1001
0000
0000
0000
1100
0000
0000
0000
,
0110
0000
0011
0000
1001
0100
1001
0000
,
0110
1010
0110
0101
,
1001
0010
1001
0000
1100
0100
0110
0010
,
0011
0000
0000
0000
1001
1000
0010
0001
0010
1000
0100
0001
0100
1000
0001
0100
,
1000
0100
0001
0010
1000
0010
0001
1000
0100
0001
0100
1000
0001
0010
1000
0010
,
0001
1000
0100
0001
0100
1000
0001
0100
1000
0001
0010
1000
0001
1000
0100
0001
,
1000
0010
0001
1000
0010
0000
0000
0000
0010
0000
0100
0000
0010
0000
0000
0000
,
1000
1000
1001
0000
1001
0000
0001
0100
0001
0000
1000
0000
0100
0010
0001
0000
,
1000
0000
0100
1000
0010
0100
0001
0010
0100
0010
0001
0000
1000
0000
0100
1000
,
0100
0000
0010
0000
0001
0100
0010
0000
0100
0000
0001
0010
0100
1000
0010
0100
,
0001
1000
0100
0010
0100
0000
1000
0001
0100
0000
0010
0000
1000
0100
0010
0000
,
0100
0000
1000
0001
0010
0001
1000
0010
0100
0001
0010
0100
0010
0000
0001
1000
,
0010
0000
1000
0000
0100
0010
0001
0000
1000
0000
0010
1000
0100
0010
0001
1000
,
0001
0100
0001
1000
0100
0000
0010
0001
0010
0000
0100
0000
1000
0001
0100
0000
,
0001
0000
0010
0100
1000
0001
0100
0001
1000
0100
0010
0100
1000
0000
0001
1000
,
0010
0000
1000
0000
0100
0010
0001
0000
1000
0000
0010
1000
0100
0010
0100
1000
,
0001
0100
0010
0100
0001
0000
1000
0010
0100
0000
0001
0000
1000
0100
0010
0000
,
0001
0000
0010
0001
0100
0010
1000
0100
0010
0100
1000
0010
0100
0000
0001
0000
,
0100
0010
0100
0010
0100
0001
1000
0000
0100
0000
0001
0000
0100
0000
1000
0001
,
0010
0100
1000
0000
1001
0000
0001
0000
0010
0000
1000
0000
0010
0000
0001
0010
,
0100
1000
0001
0000
1001
0000
1000
0000
0010
0000
0001
0000
0010
0000
1000
0100
,
0010
0100
1000
0001
1000
0100
0001
0100
1000
0001
0100
0001
1000
0100
0010
0001
,
0100
0010
0100
0010
0100
0000
0001
0000
0010
0000
1000
0000
0010
0000
0001
0010
,
0100
1000
0001
0000
1001
0000
1000
0000
0100
0000
0001
0000
0100
0000
1000
0001
,
0010
0100
0010
0000
1001
0000
0001
0000
0100
0000
1000
0000
0100
0000
0001
1000
,
0100
1000
0001
1000
0001
0100
1000
0100
0001
0010
0100
1000
0001
0100
0001
1000
,
0002
0000
0000
0000
0000
0000
0000
0000
0003
0000
0000
0000
1000
0001
0100
0000
,
0001
1000
0100
0000
0010
0001
0100
0010
1000
0100
0001
0100
1000
0001
0010
0000
,
0010
0100
1000
0000
1000
0001
0100
0000
0100
0010
1000
0000
0001
1000
0100
1000
,
0001
0100
1000
0100
0001
0010
0100
0010
0001
0100
0001
0000
0100
0010
1000
0000
,
1000
0001
0010
0000
0010
0100
1000
0100
1000
0100
1000
0000
0100
0010
0001
0000
,
0010
0001
1000
0000
0010
0100
0010
1000
0100
0001
0100
1000
0001
0010
0100
0000
,
0010
0001
1000
0000
0100
0010
0100
1000
0010
0001
0010
1000
0001
0100
0010
0000
,
0100
0010
1000
0000
0100
0010
0001
1000
0010
0001
0010
1000
0001
0000
2002
0000
,
0000
0000
0000
0000
0000
0000
3003
0000
1100
0000
0000
0000
1000
0001
0100
0001
,
1000
0010
0100
0001
0100
1000
0100
0001
0010
0100
1000
0000
0001
1000
0010
1000
,
0001
0100
1000
0100
0001
0010
0100
0010
0001
1000
0010
0000
1000
0010
0100
0010
,
1000
0100
0001
0100
1000
0001
0010
0000
0010
0100
1000
0000
1000
0001
0100
0000
,
0100
0010
1000
0001
0100
1000
0100
0001
1000
0010
0100
0001
1000
0000
2002
0000
,
0000
0000
3003
0000
0001
1000
0010
0001
0010
1000
0100
0010
0100
0000
0220
0000
,
0000
0000
0330
0000
0100
1000
0010
0001
0010
1000
0100
0010
0100
1000
0100
0000
,
0010
0100
0010
0000
0001
0100
0001
0000
1000
0001
1000
0000
0001
0010
0100
1000
,
0001
0100
1000
0100
0001
0010
0001
0010
0100
1000
0001
0100
0001
0000
1000
0100
,
0001
0000
1000
0010
0001
0000
1000
0000
1010
0000
0110
0000
0101
0000
0001
0100
,
1000
0000
0001
0010
1000
0000
0001
0000
0011
0000
0110
0000
0100
1000
0010
0001
,
0010
0000
1000
0100
0001
0100
1000
0000
0001
0000
1001
0000
1100
0000
0100
1000
,
0001
0010
1000
0010
0001
0100
1000
0100
0001
0010
0100
1000
0001
0000
0101
0000
,
0100
0010
1000
0100
0010
0000
0000
0000
0001
0010
0100
0010
0001
0000
1001
0000
,
1000
0010
0001
0010
1000
0000
0000
0000
0001
1000
0001
0010
1000
0010
0001
0000
,
0000
0000
1000
0010
0001
0010
1000
0100
0010
0001
1000
0010
0100
0000
0000
0000
,
0001
0100
1000
0001
0010
0000
1000
0000
0001
0000
1000
0000
0200
0000
0000
0000
,
0000
0020
0000
0000
,
0000
0000
0000
0000
,
0000
0000
0000
0330
;
