#TITLE:HELL SCAPER;
#SUBTITLE:-Last Escape Remix-;
#ARTIST:Remixed by DJ TECHNORCH fw. GUHROOVY;
#TITLETRANSLIT:;
#SUBTITLETRANSLIT:;
#ARTISTTRANSLIT:;
#CREDIT:DigiMindAxel;
#BANNER:HELL SCAPER -Last Escape Remix-.png;
#BACKGROUND:HELL SCAPER -Last Escape Remix--bg.png;
#LYRICSPATH:;
#CDTITLE:beatmania IIDX.png;
#MUSIC:HELL SCAPER -Last Escape Remix-.ogg;
#METERTYPE:DDR X;
#OFFSET:-1.059;
#SAMPLESTART:94.373;
#SAMPLELENGTH:12.000;
#SELECTABLE:YES;
#BPMS:0.000=180.000,192.000=90.000,200.000=180.000,385.000=45.000,389.000=180.000;
#STOPS:200.000=2.333
;
#BGCHANGES:;

//---------------dance-single - ----------------
#NOTES:
     dance-single:
     :
     Easy:
     7:
     0.322,0.331,0.121,0.168,0.000:
0000
0000
0000
0000
,
0000
0000
0000
0000
,
0000
0000
0000
0000
,
0000
0000
0000
0000
,
0000
0000
0000
0000
,
0000
0000
0000
0000
,
0000
0000
0000
0000
,
0000
0000
0000
0000
,
1000
0001
1000
0001
,
1000
0100
0010
0001
,
1000
0001
1000
0001
,
1000
0100
0010
0001
,
1000
0001
1000
0001
,
1000
0010
0100
0001
,
1000
0001
1000
0001
,
2000
0000
0000
0000
,
3001
0010
0100
0010
,
0002
0000
0000
0000
,
0103
0010
1000
0010
,
0200
0000
0000
0000
,
0301
0010
0100
0010
,
0002
0000
0000
0000
,
1003
0010
0100
0010
,
2000
0000
0000
0000
,
3001
0100
0001
0100
,
0001
1000
0001
1000
,
0100
1000
0100
1000
,
0010
0100
0010
0100
,
0001
1000
0001
1000
,
0001
1000
1001
0000
,
0001
0100
0001
0100
,
0020
0000
0000
0000
,
1030
0001
1000
0001
,
0010
0100
1000
0001
,
1000
0001
1000
0001
,
1000
0100
0010
0001
,
1000
0100
1000
0100
,
1000
0010
0200
0000
,
0301
0100
0001
1000
,
0200
0000
0000
0000
,
1300
1000
1000
1000
,
0001
0001
0001
0001
,
1000
1000
1000
1000
,
0001
0001
0001
0001
,
1000
0001
1000
0001
,
1000
0001
1000
0001
,
1000
0100
0010
0001
,
1000
0100
0010
0001
,
1001
0000
0000
0000
,
0000
0000
0000
0000
,
0000
1001
0001
0002
,
0000
0203
0000
0320
,
0000
1030
1000
2000
,
0000
3200
0000
0320
,
0000
0031
0001
0002
,
0000
0203
0000
0320
,
0000
0130
0100
0200
,
0000
0302
0000
2003
,
0000
3100
1000
0100
,
1000
0010
0100
0010
,
0100
0001
0010
0001
,
0010
0001
1000
0001
,
1000
0010
1000
0010
,
1000
0100
0010
0100
,
0010
0001
0100
0001
,
0100
0002
0000
0000
,
0000
1003
0100
0010
,
0100
1000
1000
0001
,
0001
1000
0010
0100
,
0001
1000
1000
0001
,
0001
0010
0100
1000
,
0100
0010
0010
0001
,
0001
0100
0010
1000
,
0001
2000
0000
0000
,
0000
3001
0010
0100
,
0010
0001
0001
0100
,
0100
0010
1000
0100
,
0010
0001
0001
0100
,
0100
0010
1000
0100
,
1000
0001
0100
0001
,
0100
0010
1000
0100
,
0010
0002
0000
0000
,
0003
1001
1001
1001
,
0000
0010
0000
0100
0000
0110
0000
0000
,
0000
1001
1001
1001
,
0000
0010
0000
0100
0000
0110
0000
0000
,
0000
1001
0000
0110
,
0000
1001
0000
0000
,
0000
1000
0001
0100
,
0001
1000
1000
0100
,
0100
1000
0010
0100
,
0001
0010
0010
0100
,
0100
1000
0001
0100
,
0001
1000
1000
0010
,
0010
0100
0001
0010
,
0100
1001
0000
1001
,
0000
0110
0000
0000
,
0000
2002
0000
0000
,
0000
3003
0000
0000
;

//---------------dance-single - ----------------
#NOTES:
     dance-single:
     :
     Medium:
     10:
     0.483,0.496,0.236,0.141,0.000: // measure 1
0000
0000
0000
0000
,  // measure 2
0000
0000
0000
0000
,  // measure 3
0000
0000
0000
0000
,  // measure 4
0000
0000
0000
0000
,  // measure 5
0000
0000
0000
0000
,  // measure 6
0000
0000
0000
0000
,  // measure 7
0000
0000
0000
0000
,  // measure 8
0000
0000
0000
0000
,  // measure 9
1001
1000
0001
0010
,  // measure 10
0100
1000
0100
1000
0010
0100
0010
0000
,  // measure 11
0100
0001
0100
0001
,  // measure 12
0010
0100
0010
0100
1000
0010
1000
0000
,  // measure 13
0001
0100
0010
1000
,  // measure 14
0010
0100
0010
0100
0001
0010
0100
0000
,  // measure 15
0010
0001
0100
0010
,  // measure 16
1000
0100
1000
0010
0100
0000
0100
0000
,  // measure 17
1001
1000
0010
0100
,  // measure 18
0102
0000
0100
0103
,  // measure 19
1001
1000
0100
0010
,  // measure 20
0012
0000
0010
0013
,  // measure 21
1001
0001
0010
0100
,  // measure 22
2100
0000
0100
3100
,  // measure 23
1001
0001
0100
0010
,  // measure 24
2020
0000
0000
3030
,  // measure 25
1000
0001
0000
1000
0000
0010
0100
0010
,  // measure 26
0000
1000
0000
0100
1000
0000
0100
0000
,  // measure 27
0010
0001
0000
0100
0000
0010
0100
0010
,  // measure 28
0000
1000
0000
1000
0000
0001
0100
0001
,  // measure 29
0000
1000
0000
0100
0000
0010
0000
0001
,  // measure 30
0000
0100
0000
0001
2000
0000
0000
0000
,  // measure 31
3010
0100
0001
1000
,  // measure 32
0100
1000
0100
0000
0010
0100
0010
0000
,  // measure 33
1001
0001
0100
0010
,  // measure 34
1000
0100
0010
0000
0001
1000
0001
0000
,  // measure 35
1001
1000
0001
0010
,  // measure 36
0100
0010
0001
0000
1000
0010
0100
0000
,  // measure 37
1001
0001
0100
0010
,  // measure 38
1000
0001
0010
0001
2000
0000
0000
0000
,  // measure 39
3010
0100
0001
0010
,  // measure 40
2002
0000
0000
3003
,  // measure 41
1000
0100
1000
0100
1000
0100
1000
0000
,  // measure 42
0001
0010
0001
0010
0001
0010
0001
0000
,  // measure 43
0100
0010
0100
0010
0100
0010
0100
0000
,  // measure 44
0010
0100
0010
0100
0010
0100
0010
0000
,  // measure 45
1000
0001
1000
0000
0001
0010
0001
0000
,  // measure 46
1000
0001
1000
0000
0100
1000
0100
0000
,  // measure 47
0010
0100
0010
0000
0001
0100
0001
0000
,  // measure 48
1000
0010
1000
0000
0001
0010
0100
1000
,  // measure 49
2002
0000
3003
0000
,  // measure 50
0000
0000
0000
0000
,  // measure 51
0000
0000
1000
0001
1000
0001
0010
0000
,  // measure 52
0010
0000
0100
1000
0010
0000
0100
0000
,  // measure 53
0001
0000
1000
0100
1000
0100
0010
0000
,  // measure 54
0010
0000
0001
0100
0010
0000
1000
0000
,  // measure 55
0100
0000
0010
0001
0010
0001
0100
0000
,  // measure 56
0100
0000
0010
1000
0100
0000
0010
0000
,  // measure 57
0001
0000
0100
0001
0100
0001
1000
0000
,  // measure 58
1000
0100
0010
0001
,  // measure 59
1000
1001
0001
0101
,  // measure 60
0101
0000
0100
0010
1000
0100
1000
0000
,  // measure 61
0001
1001
1000
1100
,  // measure 62
1100
0000
0010
0001
0100
0010
0100
0000
,  // measure 63
0001
1001
1000
1010
,  // measure 64
1010
0000
1000
0001
1000
0001
0010
0000
,  // measure 65
0100
1001
0001
0011
,  // measure 66
0011
0220
0000
0000
,  // measure 67
0330
0000
0100
1000
0010
0100
0010
0000
,  // measure 68
0010
0000
1000
0100
0010
0001
1000
0000
,  // measure 69
1000
0000
0010
0100
0001
0010
0001
0000
,  // measure 70
0001
0000
1000
0010
0100
0001
0010
0000
,  // measure 71
0010
0000
0100
1000
0001
0100
0001
0000
,  // measure 72
0001
0000
0010
0100
1000
0001
0010
0000
,  // measure 73
0010
0000
0001
1000
0100
1000
0001
0000
,  // measure 74
0001
2002
0000
0000
,  // measure 75
3003
0000
1000
0001
1000
0001
0100
0001
,  // measure 76
0100
0000
0010
1000
0010
1000
0100
0010
,  // measure 77
0001
0000
0100
0010
0100
0010
1000
0100
,  // measure 78
0010
0000
0100
1000
0100
1000
0001
0100
,  // measure 79
0010
0000
0100
0001
0100
0001
1000
0100
,  // measure 80
0010
0000
0001
0100
0001
0100
0010
1000
,  // measure 81
0100
0000
0010
0001
0010
0001
0100
0010
,  // measure 82
1000
2002
0000
0000
,  // measure 83
3003
0000
0001
0100
0001
0100
0001
0100
,  // measure 84
0000
0010
0000
0010
0000
0010
1000
0010
,  // measure 85
1000
0100
0010
0100
0010
0100
0010
0000
,  // measure 86
0001
1000
0000
1000
0000
1000
0100
1000
,  // measure 87
0100
1000
0010
0000
0000
0000
0110
0000
,  // measure 88
0000
2002
0000
0000
,  // measure 89
3003
0000
0001
0100
0010
0100
0001
0100
,  // measure 90
0010
0000
0100
0001
0010
0100
1000
0000
,  // measure 91
1000
0000
0001
0010
0100
0010
0001
0010
,  // measure 92
0100
0000
0010
0001
0100
0010
1000
0000
,  // measure 93
1000
0000
0100
1000
0010
1000
0100
1000
,  // measure 94
0010
0000
1000
0100
0010
0001
0100
0000
,  // measure 95
0100
0000
0001
0010
0100
0010
0001
0010
,  // measure 96
0100
0000
1100
0000
0000
1000
0000
0000
,  // measure 97
1010
1001
0000
0000
,  // measure 98
0000
0220
0000
0000
,  // measure 99
0000
0330
0000
0000
;

//---------------dance-single - ----------------
#NOTES:
     dance-single:
     :
     Hard:
     15:
     0.671,0.826,0.330,0.141,0.363:
0000
0000
0000
0000
,
0000
0000
0000
0000
,
0000
0000
0000
0000
,
0000
0000
0000
0000
,
0000
0000
0000
0000
,
0000
0000
0000
0000
,
0000
0000
0000
0000
,
0000
0000
0000
0000
,
1001
1000
1010
0010
,
0100
0000
0001
0100
0001
0000
1000
0001
1000
0000
0100
0000
0010
0000
0000
0000
,
0101
0100
0110
0010
,
1000
0000
0001
0100
0001
0100
0001
0000
1000
0001
1000
0001
1000
0000
0000
0000
,
1100
0100
0110
0010
,
0001
0000
1000
0010
1000
0000
0010
1000
0010
0000
0100
0000
0001
0000
0000
0000
,
1001
1000
1100
0100
,
0010
0001
0100
0010
1000
0100
0010
0000
,
0101
0100
0110
0010
,
1000
0000
0001
1000
0001
1000
0001
1000
0001
0000
0000
0000
0001
0000
0000
0000
,
1001
0000
1100
0000
0100
0010
0001
0000
,
0200
0000
0000
0010
0000
0000
0310
0000
1000
0000
0000
0000
1000
0000
0000
0000
,
1001
0000
0011
0000
0010
0100
1000
0000
,
0001
1000
0001
1000
0001
0000
1000
0000
1000
0000
0000
0000
1000
0000
0000
0000
,
1001
0000
1100
0000
1000
0100
0010
0000
,
2002
0000
0000
0000
0003
0000
0001
3001
,
0100
0010
0100
0001
0000
0001
0010
0100
,
0000
0100
1000
0010
0100
0010
1000
0100
,
0000
0010
0001
1000
0000
1000
0100
0010
,
0000
0001
0100
0010
0100
0001
0010
0100
,
0000
0100
1000
0100
1000
0001
0100
0001
,
0100
0000
0010
0000
1000
0000
0100
0000
0011
0000
0000
0011
0000
0000
1001
0000
,
0000
1000
0010
1000
0100
1000
0010
0100
,
0001
0000
0001
0000
1000
0000
1000
0000
0001
0000
1000
0100
1000
0000
0000
0000
,
1001
0000
0001
0100
0001
1000
0100
0010
,
0001
0000
0001
0000
1000
0000
1000
0000
0010
0000
0100
0010
0100
0000
0000
0000
,
0001
0100
0001
1000
0100
1000
0010
0100
,
0001
0000
0001
0000
0010
0000
0010
0000
0001
0000
1000
0001
1000
0000
0000
0000
,
0100
1000
0010
0100
0010
1000
0100
0010
,
0001
0000
0001
0000
0100
0000
0010
0000
0110
0000
0000
0110
0000
0000
1001
0000
,
0000
0001
0010
0001
0010
0100
1000
0001
,
2000
0000
0010
0010
3010
0000
1001
0000
,
1000
0100
1000
0100
0001
0100
0001
0100
,
1000
0010
1000
0010
0001
0010
0001
0010
,
1000
0100
1000
0100
0001
0100
0001
0100
,
1000
0010
1000
0010
0001
0010
0001
0010
,
1000
0000
0000
1000
0001
0000
0000
0001
0100
0000
0000
0100
0010
0000
0000
0010
,
1000
0000
0000
1000
0001
0000
0000
0001
0010
0000
0000
0010
0100
0000
0000
0100
,
1000
0010
0100
0001
1000
0010
0100
0001
,
1000
0100
1000
0000
0001
1000
0001
0000
0010
0001
0010
0000
0001
1000
0001
0000
,
2002
0000
0000
0000
,
0000
0000
0000
0000
,
3003
0000
0000
0000
0001
0000
0001
0000
0100
0000
0100
0000
0010
1000
0000
0010
,
1000
0000
0000
0000
0100
0000
0010
0000
0001
0000
1000
0000
0000
1000
0000
0000
,
1000
0000
0000
0000
0100
0000
0100
0000
0010
0000
0010
0000
0001
0100
0000
0001
,
0100
0000
0000
0000
0001
0000
0010
0000
0100
0000
1000
0000
0000
1000
0000
0000
,
1000
0000
0000
0000
0001
0000
0001
0000
0100
0000
0100
0000
0001
1000
0000
0001
,
1000
0000
0000
0000
0100
0000
0010
0000
0001
0000
1000
0000
0000
1000
0000
0000
,
1000
0000
0000
0000
0010
0000
0010
0000
0100
0000
0100
0000
0001
1000
0000
0001
,
1000
0000
0000
0000
0010
0000
0100
0000
0001
0000
0100
0000
0010
1000
0010
1000
,
0010
0000
0000
0000
1000
0000
0100
0000
0010
0000
0100
0000
1000
0001
0000
1000
,
0001
0000
0000
0000
0010
0000
0100
0000
1000
0000
0010
0000
0000
0010
0000
0000
,
0010
0000
0000
0000
0100
0000
0001
0000
0010
0000
0001
0000
0100
0010
0000
0100
,
0010
0000
0000
0000
1000
0000
0010
0000
0100
0000
0001
0000
0000
0001
0000
0000
,
0001
0000
0000
0000
0010
0000
0100
0000
1000
0000
0001
0000
0100
0010
0000
0100
,
0010
0000
0000
0000
1000
0000
0010
0000
0100
0000
0010
0000
0000
0010
0000
0000
,
0010
0000
0000
0000
1000
0000
0001
0000
0010
0000
0100
0000
0010
0001
0000
0010
,
0001
2002
0000
0000
,
3003
0000
0000
0000
0001
0000
0100
0000
0010
0000
0100
0000
0001
1000
0000
0100
,
1000
0000
0001
0000
1000
0000
0010
0000
0001
0000
0010
0000
0000
1010
0000
0000
,
1001
0000
0000
0000
0100
0000
1000
0000
0010
0000
0100
0000
0001
0100
0000
0010
,
0100
0000
0001
0000
1000
0000
0100
0000
0001
0000
0100
0000
0000
1100
0000
0000
,
1001
0000
0000
0000
0001
0000
0100
0000
0010
0000
0100
0000
0001
0100
0000
0001
,
1000
0000
0100
0000
1000
0000
0010
0000
0001
0000
0010
0000
0000
1010
0000
0000
,
1001
0000
0000
0000
0001
0000
0100
0000
0010
0000
0100
0000
0001
1000
0000
0100
,
1000
0000
0010
0000
0220
0000
0000
0000
0000
0000
0000
0000
0330
0000
0001
1000
,
0001
0000
0000
0000
0100
0000
0001
0000
0100
0000
0010
0000
1000
0001
1000
0001
,
1000
0001
1000
0000
0100
1000
0100
0000
0010
0100
0010
0000
0001
0010
0001
0010
,
0001
0010
0001
0000
1000
0000
0100
0000
0010
0000
0100
0000
1000
0001
1000
0001
,
1000
0001
1000
0000
0001
0100
0001
0000
0100
0010
0100
0000
0010
1000
0010
1000
,
0010
1000
0010
0000
1000
0000
0001
0000
0010
0000
0100
0000
1000
0001
1000
0001
,
1000
0001
1000
0000
0001
0000
1000
0000
0010
0000
0001
0000
0010
0000
1000
0000
,
0100
0000
0010
0000
0001
0000
1000
0000
0010
0000
1000
0000
0001
0010
0001
0010
,
0001
0010
0001
0000
2002
0000
0000
0000
0000
0000
0000
0000
0000
0000
0000
0000
,
3003
0000
0010
0010
0010
0010
0110
0000
,
0000
0110
0000
1001
0000
1000
1000
1000
,
1000
1000
0010
0010
0010
0010
0110
0000
,
0100
0101
0000
1001
0000
1010
0010
1000
,
1000
0001
0022
0000
0033
0000
0220
0000
,
0330
2002
0000
0000
,
3003
0000
0000
0000
0001
0000
0100
0000
0010
0000
0100
0000
0001
1000
0000
0100
,
1000
0000
0001
0000
0010
0000
0010
0000
0100
0000
1000
0010
0000
1000
0001
0000
,
0010
0000
0000
0000
0100
0000
1000
0000
0010
0000
0100
0000
0010
1000
0000
0001
,
0010
0000
0100
0000
1000
0000
0001
0000
0010
0000
0001
1000
0000
0010
1000
0000
,
0001
0000
0000
0000
0010
0000
0100
0000
1000
0000
0001
0000
0100
0010
0000
1000
,
0010
0000
1000
0000
0100
0000
0010
0000
0001
0000
1000
0010
0000
1000
0001
0000
,
0010
0000
0000
0000
0100
0000
1000
0000
0010
0000
0100
0000
0001
1000
0001
1000
,
0001
0010
0001
0010
0100
0000
1100
0000
0100
0000
0110
0000
0000
0101
0000
0000
,
0100
0010
1000
0100
0020
0000
0000
0000
0000
0000
0000
0000
0000
0000
0000
0000
,
0030
2002
0000
0000
,
0000
3003
0000
0000
;

//---------------dance-single - ----------------
#NOTES:
     dance-single:
     :
     Beginner:
     4:
     0.113,0.164,0.108,0.000,0.000:
0000
0000
0000
0000
,
0000
0000
0000
0000
,
0000
0000
0000
0000
,
0000
0000
0000
0000
,
0000
0000
0000
0000
,
0000
0000
0000
0000
,
0000
0000
0000
0000
,
0000
0000
0000
0000
,
1000
0000
0000
0000
,
0100
0000
0000
0000
,
1000
0000
0000
0000
,
0001
0000
0000
0000
,
0100
0000
0000
0000
,
0001
0000
0000
0000
,
0010
0000
0000
0000
,
0100
0000
0000
0000
,
1001
0000
0000
0000
,
0001
0000
0000
0000
,
1001
0000
0000
0000
,
1000
0000
0000
0000
,
1001
0000
0000
0000
,
0010
0000
0000
0000
,
1001
0000
0000
0000
,
0100
0000
0000
0000
,
1001
0000
0000
0000
,
0001
0000
0000
0000
,
0100
0000
0000
0000
,
0010
0000
0000
0000
,
0100
0000
0000
0000
,
0001
0000
1001
0000
,
1000
0000
0000
0000
,
0100
0000
0000
0000
,
1000
0000
0000
0000
,
0001
0000
0000
0000
,
0100
0000
0000
0000
,
0010
0000
0000
0000
,
1000
0000
0000
0000
,
0001
0000
1001
0000
,
1000
0000
0000
0000
,
0001
0000
0000
0000
,
0010
0000
0000
0000
,
0010
0000
0000
0000
,
0010
0000
0000
0000
,
0010
0000
0000
0000
,
0100
0000
0000
0000
,
0100
0000
0000
0000
,
0100
0000
0000
0000
,
0000
0000
0000
0000
,
1001
0000
0000
0000
,
0000
0000
0000
0000
,
0000
1000
0000
0000
,
0000
0000
0000
0000
,
0000
0100
0000
0000
,
0000
0000
0000
0000
,
0000
0010
0000
0000
,
0000
0000
0000
0000
,
0000
0001
0000
0000
,
0000
0000
0000
0000
,
0000
1000
0000
0000
,
0000
0010
0000
0000
,
0000
1000
0000
0000
,
0000
0010
0000
0000
,
0000
0100
0000
0000
,
0000
0001
0000
0000
,
0000
0100
0000
0000
,
0000
1001
0000
0000
,
0000
0001
0000
0000
,
0000
0010
0000
0001
,
0000
0010
0000
0000
,
0000
0100
0000
0010
,
0000
0100
0000
0000
,
0000
1000
0000
0100
,
0000
1000
0000
0000
,
0000
0001
0000
0000
,
0000
1000
0000
0010
,
0000
1000
0000
0010
,
0000
0100
0000
0001
,
0000
0100
0000
0001
,
0000
1000
0000
0001
,
0000
1000
0000
0001
,
0000
1000
0000
0100
,
0000
1000
0000
0000
,
0000
1001
0000
0000
,
0000
0000
0000
0000
,
0000
1001
0000
0000
,
0000
0000
0000
0000
,
0000
0110
0000
0010
,
0000
0110
0000
0000
,
0000
1001
0000
0001
,
0000
0100
0000
0001
,
0000
1000
0000
0001
,
0000
1000
0000
0001
,
0000
1000
0000
0100
,
0000
1000
0000
0100
,
0000
0010
0000
0001
,
0000
0010
0000
0000
,
0000
1001
0000
0000
,
0000
1001
0000
0000
;
