#TITLE:初音ミクの消失;
#SUBTITLE:-DEAD END-;
#ARTIST:cosMo@暴走P feat. 初音ミク;
#TITLETRANSLIT:HATSUNE MIKU NO SHOUSHITSU;
#SUBTITLETRANSLIT:;
#ARTISTTRANSLIT:cosMo@BousouP feat. MIKU HATSUNE;
#CREDIT:DigiMindAxel;
#BANNER:HATSUNE MIKU NO SHOUSHITSU -DEAD END-.png;
#BACKGROUND:HATSUNE MIKU NO SHOUSHITSU -DEAD END--bg.png;
#LYRICSPATH:;
#CDTITLE:EXIT TUNES.png;
#MUSIC:HATSUNE MIKU NO SHOUSHITSU -DEAD END-.ogg;
#METERTYPE:DDR X;
#OFFSET:-0.507;
#SAMPLESTART:64.460;
#SAMPLELENGTH:12.000;
#SELECTABLE:YES;
#BPMS:0.000=240.000;
#STOPS:191.000=0.250
;
#BGCHANGES:-2.500=HATSUNE MIKU NO SHOUSHITSU -DEAD END-.avi=1.000=1=1=0,
99999=-nosongbg-=1.000=0=0=0 // don't automatically add -songbackground-
;

//---------------dance-single - ----------------
#NOTES:
     dance-single:
     :
     Easy:
     7:
     0.370,0.488,0.037,0.125,0.000:
0000
0000
0000
0000
,
0000
0000
0000
0000
,
0000
0000
0000
0000
,
0000
0000
0000
0000
,
1001
0000
0000
0000
,
0110
0000
0000
0000
,
0002
0000
0000
0000
,
1003
0000
0000
0000
,
1001
0000
0100
0000
,
0010
0000
0001
0000
,
1000
0000
0001
0000
,
1000
0000
0001
0000
,
0010
0000
0100
0000
,
1000
0000
0010
0000
,
0100
0000
0001
0000
,
1000
0001
1000
0001
,
1000
0000
0000
0000
,
1000
0000
0000
0000
,
1000
0000
0000
0000
,
0001
0000
0000
0000
,
0001
0000
0000
0000
,
0001
0000
0000
0000
,
0100
0000
0000
0000
,
0010
0000
0000
0000
,
1000
0000
0000
0000
,
0001
0000
0000
0000
,
1000
0000
0000
0000
,
1000
0000
0000
0000
,
0001
0000
0000
0000
,
0001
0000
0000
0000
,
0100
0000
0010
0000
,
0100
0000
0000
0000
,
0002
0000
0000
0000
,
1003
0000
0100
0000
,
1000
0000
0010
0000
,
0100
0000
0001
0000
,
2000
0000
0000
0000
,
3001
0000
0010
0000
,
0001
0000
0100
0000
,
0010
0000
0000
0000
,
2000
0000
0000
0000
,
3001
0000
0000
0000
,
0010
0000
0100
0000
,
1000
0000
0010
0000
,
0100
0000
0000
0000
,
0002
0000
0000
0000
,
1003
0000
0100
0000
,
0010
0000
0001
0000
,
1000
0001
1000
0001
,
1000
0001
0000
1000
,
0010
0100
0010
0100
,
0001
1000
0000
0001
,
0100
0010
0100
0010
,
1000
0001
0000
2000
,
0000
0001
0000
3002
,
0000
1000
0000
1003
,
0000
0100
0000
0010
,
0000
0001
0000
1000
,
0001
1000
0001
1000
,
0100
0010
0001
1000
,
0000
0100
0000
1000
,
0000
0001
1000
0001
,
1000
0001
0010
0100
,
0000
0000
0000
2000
,
0000
3001
0100
0001
,
0000
0100
0000
1000
,
0000
0100
0000
0001
,
1000
0001
1000
0002
,
0000
1003
0100
1000
,
0000
0001
0000
0100
,
0010
0100
0010
0100
,
0001
1000
0000
0002
,
0000
1003
0100
1000
,
0000
0100
0000
0001
,
0000
0100
0000
1000
,
0001
1000
0001
2000
,
0000
3001
0010
0001
,
0000
0100
0000
1000
,
0100
0001
0100
0010
,
0100
0010
0100
0001
,
0010
0100
1000
0001
,
0010
0100
1000
0001
,
0100
0010
1000
0001
,
0100
0010
1000
0001
,
0010
0100
1000
0001
,
0010
0100
1000
0001
,
0100
0010
1000
0001
,
0100
0010
1000
0001
,
0010
0100
0010
0001
,
1000
0010
0100
0010
,
1000
0001
0010
0100
,
0010
0001
1000
0010
,
0100
0010
1000
0001
,
0010
0100
0010
0001
,
0001
0001
0001
1000
,
1000
1000
1000
1001
,
0010
0100
1000
0001
,
0100
0010
1000
0001
,
0010
0100
1000
0100
,
0001
0100
1000
0010
,
0100
0001
0010
0100
,
1000
0001
1000
0100
,
0010
0001
1000
0001
,
0100
1000
0100
0001
,
1000
0001
0010
0100
,
1000
0100
0010
0001
,
0100
0010
1000
0100
,
0010
0001
0010
0100
,
1000
0100
1000
0010
,
0100
0001
0100
0001
,
0100
1000
0100
0001
,
0010
0100
1000
0002
,
0000
0000
0000
2003
,
0000
0000
0000
3002
,
0000
0000
0000
2003
,
0000
0000
0000
3001
,
0000
0100
0000
0001
,
0000
1000
0000
0100
,
0000
1000
0000
0001
,
0000
1000
0000
0100
,
0010
0100
0010
0001
,
0100
0001
0100
0010
,
1000
0010
1000
0100
,
0010
0100
0010
0001
,
1000
0001
1000
0100
,
1000
0100
1000
0010
,
0100
0010
0100
0001
,
0010
0100
0000
2002
,
0000
0000
0000
0000
,
0000
0000
0000
0000
,
0000
0000
0000
0000
,
0000
0000
0000
0000
,
0000
3003
0000
0000
;

//---------------dance-single - ----------------
#NOTES:
     dance-single:
     :
     Medium:
     12:
     0.619,0.878,0.472,0.177,0.000:
0000
0000
0000
0000
,
0000
0000
0000
0000
,
0000
0000
0000
0000
,
0000
0000
0000
0000
,
0002
0000
0000
0000
,
0203
0000
0000
0000
,
0310
1000
0010
1000
,
0001
1000
0001
1000
,
1001
0010
0100
1000
,
0001
0001
1000
1000
,
0001
0010
0100
1000
,
0001
0001
1000
1000
,
0001
0100
0010
0100
,
0001
1000
0100
0010
,
0100
1100
1000
0100
,
0010
0001
1000
0010
,
0110
0000
0000
0101
0000
0000
0100
0000
,
0001
0100
0001
0010
,
0200
0000
1000
0000
,
1300
0100
0010
0001
,
0200
0000
0000
0001
0000
0000
0301
0000
,
1000
0000
0000
0100
0000
0010
0000
0000
,
0011
0000
1001
0000
,
0100
0000
0000
1000
0000
0010
0000
0000
,
1001
0010
0100
1000
,
1001
0000
0010
0100
,
0010
0000
0110
0000
,
1001
0000
1100
0000
,
0010
0001
1000
0200
,
0000
0310
0001
0010
,
1100
0000
0011
0000
,
1001
0000
0000
0001
0000
0100
0010
0000
,
1000
0100
0010
0100
,
1000
0000
0010
1000
,
0100
0000
0000
0100
0000
0000
0100
0000
,
0010
0000
0001
1000
,
1010
0000
0100
0001
,
1001
0000
1010
0000
,
0100
0000
0000
0100
0000
0000
0100
0000
,
0002
0000
0000
1003
,
0001
0010
0200
0000
,
0310
0000
0001
0100
,
0010
1000
0010
0001
,
0010
1000
0010
0100
,
0010
0000
1000
0100
,
0020
0000
0032
0000
,
1003
0010
1000
0001
,
0010
0100
0010
0000
,
1001
1000
0001
1000
,
0100
0010
0001
0010
,
0100
1000
0010
0100
,
0010
1000
0000
0010
,
0100
0001
1000
0100
,
1000
0001
0010
0200
,
0000
0320
0000
0032
,
0000
2003
0000
3010
,
0000
0100
0000
0000
0002
0000
0000
1000
,
0000
1003
0010
0100
,
0001
1000
0001
1000
0001
0000
1000
0001
,
1000
0001
1000
0000
0000
0000
1001
0000
,
1000
0100
0010
0001
,
1000
0001
0100
0110
,
0000
1001
0000
0000
1000
0000
0002
0000
,
0000
0000
0000
1003
,
0010
0000
1000
0000
0001
1000
0001
0000
,
0010
0100
1000
0001
,
0100
1000
0100
0001
,
0010
0100
1000
0002
,
0000
1003
0010
0200
,
0000
0001
0000
0000
0301
0000
0010
0000
,
0100
1000
0100
0001
,
0100
1000
0100
0010
,
0001
0000
1000
0000
0001
1000
0001
0000
,
0010
0100
1000
0100
,
0001
0100
1000
0010
,
0100
0001
1000
0002
,
0000
1003
0100
0010
,
0000
0001
0000
0000
0100
0000
0010
0000
,
1000
0100
0010
0001
,
0010
0000
0100
0000
0010
0000
0001
1000
,
0001
1000
0001
1000
0010
0000
0100
0000
,
0001
0000
1000
0000
0100
0000
0010
0100
,
0010
0100
0010
0001
1000
0000
0100
0000
,
0001
0000
0100
0000
1000
0000
0001
0100
,
0001
0100
0001
1000
0100
0000
0010
0000
,
0100
0000
1000
0000
0001
0000
0100
0001
,
0100
0001
1000
0100
0010
0000
0001
0000
,
0010
0000
0100
0000
1000
0000
0001
0100
,
0001
0100
0001
1000
0100
0000
0010
0001
,
0010
0001
0010
0001
1000
0000
0010
1000
,
0010
1000
0010
1000
0001
0000
0010
0100
,
0010
0100
0010
0100
1000
0000
0100
1000
,
0100
1000
0010
0100
0001
0000
0100
0001
,
0100
0001
1000
0100
0010
0000
1001
0000
,
0100
0000
0010
0000
0001
0000
1000
0100
,
1000
0100
0010
0001
1000
0000
1001
0000
,
0100
0010
0001
1100
,
0010
0001
0100
1010
,
0100
0010
0001
0110
,
1000
0001
0010
1100
,
0001
0010
0100
0011
,
0100
1000
0001
0101
,
0010
0100
1000
0110
,
0001
1000
0001
0110
,
1010
0110
1010
0110
,
0101
0110
0101
0110
,
1001
1100
1001
1100
,
1001
0011
1001
0011
,
1001
1100
0110
1100
,
0110
0011
0110
0011
,
0110
1001
1010
1001
,
0101
0110
1001
0120
,
0000
0000
0000
2030
,
0000
0000
0000
3002
,
0000
0000
0000
0023
,
0000
0000
0000
0031
,
1000
0100
0010
0001
,
1000
0100
1000
0001
,
0100
0001
1000
0100
,
0010
0000
0001
0000
0000
0000
1000
0100
,
1000
0100
1000
0100
1000
0100
1000
0001
,
1000
0001
1000
0001
1000
0001
1000
0010
,
1000
0010
1000
0010
1000
0010
1000
0001
,
1000
0001
1000
0001
1000
0000
0001
0100
,
0001
0100
0001
0100
0001
0100
0001
1000
,
0001
1000
0001
1000
0001
0010
0001
0010
,
0001
0010
0001
0010
0100
1000
0100
1000
,
0100
1000
0010
0100
0001
0000
2002
0000
,
0000
0000
0000
0000
,
0000
0000
0000
0000
,
0000
0000
0000
0000
,
0000
0000
0000
0000
,
0000
3003
0000
0000
;

//---------------dance-single - ----------------
#NOTES:
     dance-single:
     :
     Hard:
     14:
     0.805,0.830,0.465,0.177,0.000: // measure 1
0000
0000
0000
0000
,  // measure 2
0000
0000
0000
0000
,  // measure 3
0000
0000
0000
0000
,  // measure 4
0000
0000
0000
0000
,  // measure 5
2002
0000
0000
3003
,  // measure 6
0220
0000
0000
0330
,  // measure 7
0001
1000
0001
0000
1000
0001
1000
0000
,  // measure 8
0010
0100
0010
0100
0010
0100
0010
0000
,  // measure 9
1000
0100
0010
0001
0100
0010
0100
0000
,  // measure 10
0001
0010
0100
1000
0010
0100
0010
0000
,  // measure 11
1000
0100
0010
0100
1000
0001
0100
0001
,  // measure 12
1000
0100
1000
0100
1000
0100
1000
0000
,  // measure 13
0001
0010
0100
1000
0010
0100
0010
0000
,  // measure 14
1000
0100
0010
0001
0100
0010
0100
0000
,  // measure 15
0001
0000
0101
0000
0100
0010
1000
0000
,  // measure 16
0001
0010
0001
0010
0100
1000
0100
0000
,  // measure 17
1001
0000
0100
0000
0010
0000
0001
1000
,  // measure 18
0001
0000
1001
0000
1000
0000
0010
1000
,  // measure 19
0001
0000
0100
0001
0000
1000
0100
0000
,  // measure 20
1001
0010
0100
1000
,  // measure 21
0002
0000
0000
1000
0000
0000
1003
0000
,  // measure 22
0001
0100
0000
0010
0000
0100
0001
0000
,  // measure 23
0202
0303
0220
0330
,  // measure 24
1000
0001
0000
0100
0000
0001
1000
0000
,  // measure 25
1001
0000
0100
0000
0010
0000
0001
1000
,  // measure 26
0001
0100
1000
0100
,  // measure 27
1001
0000
1100
0000
,  // measure 28
0011
0000
1001
0000
,  // measure 29
1000
0100
0001
0200
,  // measure 30
0000
1300
0001
0010
,  // measure 31
1100
0000
1000
0100
1000
0000
0001
1000
,  // measure 32
0001
0100
0000
0010
0000
0100
0001
0000
,  // measure 33
0020
0000
0130
0010
0100
0000
1000
0000
,  // measure 34
0001
0010
0100
0000
1000
0000
0001
0000
,  // measure 35
0100
0000
0010
1000
0000
0100
0010
0000
,  // measure 36
1001
0001
1000
0010
,  // measure 37
0100
0010
0100
0000
0001
0000
0100
0010
,  // measure 38
0100
0001
2000
0100
,  // measure 39
3100
0000
0010
0001
0000
0010
0001
0000
,  // measure 40
0100
0000
0010
0000
0100
0000
0001
1000
,  // measure 41
0100
0000
0010
0100
0010
0000
0001
0000
,  // measure 42
1000
0100
0010
0000
0001
0000
1000
0000
,  // measure 43
0100
0000
0010
0100
0000
0010
0100
0000
,  // measure 44
1001
0010
0100
1000
,  // measure 45
0110
0000
0001
0000
0100
0000
0001
1000
,  // measure 46
0001
0000
0100
0000
0010
1000
0010
0000
,  // measure 47
1001
0100
0001
0100
,  // measure 48
1000
0000
0010
0100
0010
0000
0010
0000
,  // measure 49
1001
0000
0001
0000
1000
0010
0000
0100
,  // measure 50
0000
0001
0000
1000
0000
0000
0100
0000
,  // measure 51
0010
0001
0010
0000
0100
1000
0000
0001
,  // measure 52
0000
0100
0000
0001
0000
0000
1000
0000
,  // measure 53
0100
0000
0001
0000
0100
0000
1000
0001
,  // measure 54
1000
0000
0010
0100
0010
0000
2000
0000
,  // measure 55
0001
0000
3002
0000
1000
0000
1003
0100
,  // measure 56
1000
0000
0001
0010
0001
0000
2000
0000
,  // measure 57
0000
3020
0000
0000
0230
0000
0000
0302
,  // measure 58
0000
1003
0010
1001
,  // measure 59
1000
0001
1000
0001
1000
0100
1000
0100
,  // measure 60
1000
0100
1000
0000
0001
0000
1001
0000
,  // measure 61
1000
0001
0000
0010
0000
0100
0000
1000
,  // measure 62
0000
0001
0000
0000
1000
0000
0100
1000
,  // measure 63
0100
1000
0001
0100
0001
1000
0100
2000
,  // measure 64
0000
0000
0000
3001
,  // measure 65
1000
0000
0100
0000
0010
0100
0010
0000
,  // measure 66
0001
0000
0100
0000
0001
1000
0001
0000
,  // measure 67
0100
0001
1000
0000
0100
1000
0001
0000
,  // measure 68
0010
0100
0010
0100
0010
0000
1001
0000
,  // measure 69
0001
0000
1000
0100
1000
0000
0001
0000
,  // measure 70
0100
0001
0000
1000
0100
0000
1000
0100
,  // measure 71
1000
0000
0100
0010
0100
0000
0010
0001
,  // measure 72
0010
0100
1000
0001
1000
0000
0010
1000
,  // measure 73
0010
1000
0001
0010
0001
0010
0100
0000
,  // measure 74
1000
0100
1000
0001
1000
0100
1000
0000
,  // measure 75
0010
0100
0000
0001
0200
0000
0000
0000
,  // measure 76
0310
1000
0001
0010
0001
1000
0010
0000
,  // measure 77
1000
0000
0100
0010
0100
0000
1000
0100
,  // measure 78
0000
0010
0100
0000
1000
0000
0100
1000
,  // measure 79
0100
1000
0001
0100
0001
0100
0010
1000
,  // measure 80
0100
0001
0100
1000
0001
0000
1000
0010
,  // measure 81
1000
0010
1000
0001
1000
0001
1000
0100
,  // measure 82
0010
0001
0100
0010
0100
0000
0001
0010
,  // measure 83
0001
0010
0001
1000
0001
1000
0001
0010
,  // measure 84
1000
0010
0001
0100
0010
0000
1000
0010
,  // measure 85
1000
0010
1000
0100
0010
0001
1000
0010
,  // measure 86
0001
0010
1000
0001
1000
0000
0001
0100
,  // measure 87
0001
0100
0001
0010
0100
1000
0010
0100
,  // measure 88
0001
0010
0100
1000
0001
0000
0011
0000
,  // measure 89
0011
0000
1001
0000
1001
0000
1000
0100
,  // measure 90
0001
0100
1000
0010
1000
0000
1010
0000
,  // measure 91
1010
0000
1001
0000
1001
0000
0001
0010
,  // measure 92
1000
0010
0001
0100
0010
1000
0001
0010
,  // measure 93
0001
0010
0001
1000
0001
1000
0001
0100
,  // measure 94
1000
0100
0001
0010
0100
0000
1100
0000
,  // measure 95
1100
0000
1001
0000
1001
0000
1000
0010
,  // measure 96
0001
0010
1000
0100
0010
0000
0011
0000
,  // measure 97
0011
0000
1001
0000
1001
0000
0001
0010
,  // measure 98
0100
1000
0100
0010
0100
0000
1001
0000
,  // measure 99
1010
0000
1001
0000
1010
0000
0100
0001
,  // measure 100
0100
0010
1000
0100
0010
0000
1001
0000
,  // measure 101
0101
0000
1001
0000
0101
0000
0010
1000
,  // measure 102
0010
0100
0001
0010
0100
0000
1010
0000
,  // measure 103
1001
0000
1010
0000
1001
0000
1000
0001
,  // measure 104
1000
0100
0010
0001
0010
0000
0011
0000
,  // measure 105
1001
0000
0011
0000
1001
0000
0001
1000
,  // measure 106
0001
0010
0100
1000
0001
0000
1001
0000
,  // measure 107
1100
0000
1001
0000
1100
0000
1000
0010
,  // measure 108
0100
0001
0010
0100
1000
0000
1001
0000
,  // measure 109
0110
0000
1001
0000
0110
0000
0001
0010
,  // measure 110
0100
1000
0010
0100
0001
0000
0010
0100
,  // measure 111
0010
0001
1000
0010
0001
0010
1000
0100
,  // measure 112
1000
0010
0100
0001
0010
0100
2000
0000
,  // measure 113
0000
0001
0000
0001
,  // measure 114
0000
0001
0000
3002
,  // measure 115
0000
0010
0000
0010
,  // measure 116
0000
0010
0000
0013
,  // measure 117
0100
1000
0001
0000
0100
0001
1000
0000
,  // measure 118
0100
0000
0001
0000
0100
0000
1000
0100
,  // measure 119
0010
0000
0100
1000
0001
0000
0100
0001
,  // measure 120
0100
0010
1000
0001
0010
0000
0100
1000
,  // measure 121
0001
1000
0100
1000
0001
1000
0100
1000
,  // measure 122
0001
0010
1000
0010
0001
1000
0001
0100
,  // measure 123
0001
1000
0001
0100
0001
1000
0100
0010
,  // measure 124
0001
1000
0010
1000
0001
0000
0010
0001
,  // measure 125
1000
0001
0010
0001
1000
0100
0001
0100
,  // measure 126
1000
0010
0100
0010
1000
0001
0010
0001
,  // measure 127
1000
0001
0100
0010
1000
0001
0010
0100
,  // measure 128
0010
0001
1000
0010
1000
0000
2002
0000
,  // measure 129
0000
0000
0000
0000
,  // measure 130
0000
0000
0000
0000
,  // measure 131
0000
0000
0000
0000
,  // measure 132
0000
0000
0000
0000
,  // measure 133
0000
3003
0000
0000
;

//---------------dance-single - ----------------
#NOTES:
     dance-single:
     :
     Challenge:
     17:
     1.000,1.000,0.266,0.214,0.889:
0000
0000
0000
0000
,
0000
0000
0000
0000
,
0000
0000
0000
0000
,
0000
0000
0000
0000
,
1100
1000
1000
1000
,
0011
0001
0001
0001
,
0100
0001
0100
0001
1000
0100
1000
0100
,
1000
0001
0010
0100
1000
0001
0010
0001
,
1000
0000
0000
0100
0000
0000
1000
0000
0001
0000
0100
0000
0010
0000
0000
1000
0000
0000
0100
0000
0010
0000
0100
0000
,
0010
0001
0100
0001
1000
0100
0010
0001
,
0100
0000
0010
0000
0100
0000
0010
0000
0000
1000
0000
0000
0010
0000
0000
0100
0000
0000
0010
0000
0000
1000
0000
0000
,
0001
0000
0010
0000
0001
0000
1000
0000
0000
0010
0000
0000
1000
0000
0000
0001
0000
0000
1000
0000
0000
0010
0000
0000
,
1000
0000
0100
0000
0010
0000
0100
0000
0000
1000
0000
0000
0001
0000
0000
0100
0000
0000
0001
0000
0000
1000
0000
0000
,
0100
0000
0010
0000
0100
0000
0010
0000
0000
0001
0000
0000
1000
0000
0000
0100
0000
0000
0010
0000
0001
0000
1000
0000
,
0020
0000
0130
0000
0001
0100
0001
1000
,
0001
0000
0100
0000
0001
0000
1000
0000
0000
0100
0000
0000
0010
0000
0100
0000
1000
0000
0010
0000
0100
0000
0010
0000
,
2000
0000
0001
3002
0000
0000
1003
0001
,
0011
0000
0110
0000
1100
0000
1001
1000
,
0020
0000
0130
0002
0000
0103
0020
0000
,
0130
0001
1000
0100
0001
0100
1000
0001
,
0010
0000
0100
0010
0000
0001
0100
0010
,
1000
0010
0000
0100
0000
0010
1000
0000
,
0001
0010
0001
1000
0010
1000
0001
0010
,
0001
1000
0000
0010
0000
1000
0001
0000
,
1001
1100
0110
0011
,
1001
0000
0001
1000
0100
0010
0100
1000
,
0010
0000
0101
0001
1000
0000
1100
1000
,
0001
0000
0101
0100
0010
0000
1000
0001
,
0010
0100
1000
0100
0010
0000
0012
0000
,
0000
1003
0110
1001
,
1010
0010
0100
0000
1001
0001
0010
0000
,
0001
1000
0000
0010
0000
1000
0001
0010
,
0001
0100
1000
0100
0002
0000
1000
0000
,
1003
0000
0001
0000
0010
0100
0010
0001
,
2000
0000
0010
3020
0000
0000
0130
0000
,
0001
0010
0001
0010
0100
1000
0001
0000
,
1001
0000
1000
0000
0001
0000
0010
0100
,
0010
0001
1000
0000
0100
0010
0100
0000
,
2000
0000
0100
3200
0000
0000
0310
0000
,
0001
0100
0001
0100
0010
1000
0001
0000
,
0010
0100
0010
0001
2000
0000
0001
0000
,
3001
0100
0010
0000
1000
0001
1000
0100
,
0020
0000
0001
0032
0000
0000
0103
0000
,
0010
1000
0001
0000
1000
0100
0010
0001
,
0200
0000
0010
0000
0310
0000
1000
0010
,
0100
0000
0001
1000
0001
0000
0010
0100
,
0010
0001
0100
1000
0100
0001
1000
0000
,
0001
1000
0001
0010
0100
1000
0010
0000
,
0101
0000
0101
0000
0001
0100
1000
0100
,
0001
0100
0010
0100
0001
0000
0010
0000
,
0100
1000
0010
0001
0010
1000
0100
1000
,
0001
0010
1000
0010
0001
0000
1000
0000
,
1100
0000
1100
0000
0010
0001
0100
0010
,
0100
0000
0001
0100
1000
0100
0001
1000
,
0100
0000
0010
0001
1000
0000
0001
0010
,
1000
0010
0001
0010
0100
0000
2000
0000
,
0010
3020
0000
0000
0230
0000
0301
1000
,
0001
0000
0010
0100
0010
0001
1000
0100
,
1000
0100
0010
0001
0010
0001
0100
0010
,
1000
0100
0010
0001
1000
0000
1001
0000
,
0001
0100
0001
0010
0001
1000
0100
1000
,
0001
0100
0001
0000
1000
0010
0100
0001
,
0000
1001
1000
0000
1100
0000
1001
0002
,
0000
0000
0000
0000
0000
0000
1003
0010
,
0100
0001
0010
0000
0001
1000
1100
0000
,
0110
0000
0011
0000
0001
1000
0010
0100
,
0001
1000
0100
0010
0100
0000
1000
0100
,
0010
0000
0100
0010
0001
1000
0010
0000
,
1000
1100
0110
0012
,
0000
1003
0000
0001
0100
0001
1000
0010
,
0001
0010
1000
0010
0100
0001
0010
0100
,
0010
0001
1000
0010
1000
0010
2000
0000
,
0001
3001
0000
1000
0100
0010
0001
0000
,
0010
0001
0100
0010
1000
0100
1000
0010
,
0001
0010
0000
1000
0001
0000
0010
0100
,
0010
0001
1000
0010
1000
0001
0010
0000
,
0100
0000
1000
0001
0100
0000
0010
1000
,
0100
0010
0100
0010
0001
0000
1000
0010
,
0001
0010
1000
0100
0010
0100
1000
0010
,
0100
0000
0000
0010
0000
0000
1000
0000
0000
0100
0000
0000
0010
0000
0000
0000
0000
0000
0001
0000
0100
0000
0001
0000
,
0100
0000
0000
0010
1000
0010
1000
0000
0000
0001
0010
0001
,
0010
0001
0010
0001
1000
0001
1000
0000
0000
0100
0010
0100
,
0010
0000
0000
0001
0100
0001
0100
0000
0000
0001
1000
0001
,
1000
0100
1000
0100
1000
0100
1000
0000
0000
0001
0100
0001
,
0100
0000
0000
0001
1000
0001
1000
0000
0000
0100
0010
0100
,
0010
0100
0010
0001
0010
0001
0010
0000
0000
0100
1000
0100
,
1000
0000
0000
0001
0100
0001
0100
0000
0000
0001
1000
0001
,
1000
0010
1000
0010
0100
0001
0100
0000
0000
0001
0100
0001
,
0100
0010
0100
0010
1000
0001
1000
0000
0000
0010
1000
0010
,
1000
0100
0010
0100
1000
0010
1000
0000
0000
0100
0010
0100
,
0010
0001
0100
0001
0010
0100
0010
0000
0000
0001
0010
0001
,
1000
0010
1000
0010
1000
0100
0010
0000
0000
0100
1000
0100
,
1000
0001
0100
0001
1000
0100
1000
0000
0000
0001
0010
0001
,
0010
0100
1000
0010
1000
0100
0010
0000
0000
1001
0000
0000
,
1000
0001
1000
0001
1000
0001
1000
0000
,
0010
0100
0010
0100
0010
0100
0010
0100
0010
1000
0100
0010
,
0100
1000
0001
0100
0001
1000
0100
0010
0001
1000
0100
1000
,
0001
0100
0010
0100
0001
1000
0100
0000
0000
1000
0010
0100
,
0010
1000
0001
0010
0100
0010
0001
1000
0010
1000
0001
0010
,
0001
0100
0010
0100
0001
1000
0100
0000
0000
0010
0001
0100
,
0001
0010
0100
1000
0001
0100
0001
1000
0100
0010
0001
0010
,
0001
0100
0010
0100
0001
1000
0100
0000
0000
0010
0001
1000
,
0001
0010
0001
1000
0100
0010
0100
1000
0001
0100
0001
1000
,
0100
0010
0100
1000
0010
1000
0001
0000
0000
1000
0100
1000
,
0001
0100
0001
1000
0100
0010
0001
1000
0100
0010
0001
0010
,
0100
1000
0010
1000
0100
1000
0001
0100
0010
1000
0010
0100
,
0001
1000
0001
1000
0100
1000
0100
0010
0001
1000
0010
0100
,
0010
1000
0001
0010
0001
1000
0100
0010
0100
0010
0001
1000
,
0010
1000
0001
0010
0100
0010
0001
1000
0001
1000
0010
1000
,
0010
0100
0010
1000
0001
0010
0001
1000
0100
1000
0001
0010
,
0100
1000
0001
0100
0001
1000
0100
1000
0001
0010
0001
1000
,
0010
0100
0001
1000
0010
0100
0001
1000
0100
1000
0000
0000
,
0001
1000
0020
0000
1030
0100
0010
0001
,
0100
1000
0100
0001
1000
0000
0002
0000
,
0013
0100
1000
0000
0001
0100
1000
0100
,
0001
0010
0100
1000
0001
0000
1001
0000
,
1000
0001
0100
1000
0100
0010
1000
0001
,
0010
1000
0010
0001
1000
0000
0020
0000
,
0130
0002
0000
1003
0200
0000
1300
0010
,
0100
0000
0001
0000
1000
0001
1000
0001
1000
0000
0000
0000
0001
0000
0100
0000
,
1000
0000
0100
0000
0010
0000
1000
0000
0001
0000
0100
0000
0001
1000
0001
0000
,
1000
0010
1000
0000
0001
0100
0001
0000
1000
0001
1000
0000
0001
0000
1000
0000
,
0001
0000
0010
0000
1000
0000
0010
0000
0100
0000
1000
0000
0001
0010
0001
0000
,
1000
0010
1000
0000
0001
1000
0001
0000
0100
0010
0100
0000
0001
0000
0100
0000
,
0001
0000
1000
0000
0010
0000
0001
0000
0010
0000
1000
0000
0001
0010
0001
0000
,
1000
0100
1000
0000
0001
1000
0001
0000
0100
0010
0100
0000
0010
0000
0100
0000
,
0001
0000
1000
0000
0010
0000
0001
0000
1000
0000
0100
0000
0001
1000
0001
0000
,
1000
0010
1000
0000
0001
0010
0001
0000
0100
0010
0100
0010
2000
0000
0000
0000
,
0000
0000
0000
0000
,
0000
0000
0000
0000
,
0200
0000
0000
0000
,
0000
0000
0000
0000
,
0000
3300
0000
0000
;

//---------------dance-single - ----------------
#NOTES:
     dance-single:
     :
     Beginner:
     5:
     0.178,0.330,0.059,0.000,0.000:
0000
0000
0000
0000
,
0000
0000
0000
0000
,
0000
0000
0000
0000
,
0000
0000
0000
0000
,
1000
0000
0000
0000
,
0001
0000
0000
0000
,
1000
0000
0000
0000
,
0000
0000
0000
0000
,
1001
0000
0000
0000
,
0001
0000
0000
0000
,
1000
0000
0000
0000
,
0001
0000
0000
0000
,
0010
0000
0000
0000
,
0100
0000
0000
0000
,
0010
0000
0000
0000
,
0100
0000
0000
0000
,
1000
0000
0000
0000
,
1000
0000
0000
0000
,
1000
0000
0000
0000
,
0000
0000
0000
0000
,
0001
0000
0000
0000
,
0001
0000
0000
0000
,
0001
0000
0000
0000
,
0000
0000
0000
0000
,
0100
0000
0000
0000
,
0010
0000
0000
0000
,
0100
0000
0000
0000
,
0000
0000
0000
0000
,
0010
0000
0000
0000
,
0100
0000
0000
0000
,
0010
0000
0000
0000
,
0000
0000
0000
0000
,
1001
0000
0000
0000
,
0000
0000
0000
0000
,
0100
0000
0000
0000
,
0000
0000
0000
0000
,
0010
0000
0000
0000
,
0000
0000
0000
0000
,
0001
0000
0000
0000
,
0000
0000
0000
0000
,
1000
0000
0000
0000
,
0000
0000
0000
0000
,
0001
0000
0000
0000
,
0000
0000
0000
0000
,
1000
0000
0000
0000
,
0000
0000
0000
0000
,
0001
0000
0000
0000
,
0000
0000
0000
0000
,
1001
0000
0000
0001
,
0000
0000
0000
1000
,
0000
0000
0000
0100
,
0000
0000
0000
0010
,
0000
0000
0000
0001
,
0000
0000
0000
1000
,
0000
0000
0000
1000
,
0000
0000
0000
0001
,
0000
0000
0000
0001
,
0000
0000
0000
0100
,
0000
0000
0000
0100
,
0000
0000
0000
0010
,
0000
0000
0000
0010
,
0000
0000
0000
1000
,
0000
0000
0000
1001
,
0000
0000
0000
1001
,
0000
0000
0000
0001
,
0000
0000
0000
1000
,
0000
0001
0000
1000
,
0000
0000
0000
0010
,
0000
0000
0000
0010
,
0000
0000
0000
0010
,
0000
0100
0000
0010
,
0000
0000
0000
1001
,
0000
0000
0000
0001
,
0000
0000
0000
0001
,
0000
1000
0000
0001
,
0000
0000
0000
1001
,
0000
0000
0000
1000
,
0000
0000
0000
1000
,
0000
0001
0000
1000
,
0000
0000
0000
0010
,
0000
0000
0000
0100
,
0000
0000
0000
0001
,
0000
0000
0000
0010
,
0000
0000
0000
0100
,
0000
0000
0000
1000
,
0000
0000
0000
0010
,
0000
0000
0000
0100
,
0000
0000
0000
0001
,
0000
1000
0000
0001
,
0000
1000
0000
0001
,
0000
1000
0000
0010
,
0000
0100
0000
0010
,
0000
0100
0000
0010
,
0000
1000
0000
0010
,
0000
1000
0000
0010
,
0000
1000
0000
0001
,
0000
0100
0000
0001
,
0000
0100
0000
0001
,
0000
1000
0000
0001
,
0000
1000
0000
0001
,
0000
0100
0000
0010
,
0000
0100
0000
0010
,
0000
0100
0000
0010
,
0000
0100
0000
0001
,
0000
1000
0000
0001
,
0000
1000
0000
0001
,
0000
1000
0000
0001
,
0000
1000
0000
0100
,
0000
0010
0000
0001
,
0000
1000
0000
0100
,
0000
0010
0000
0001
,
0000
1000
0000
0001
,
0000
0100
0000
0010
,
0000
0000
0000
1000
,
0000
0010
0000
0100
,
0000
0000
0000
0001
,
0000
1000
0000
0001
,
0000
1000
0000
0100
,
0000
1000
0000
0100
,
0000
0000
0000
1000
,
0001
1000
0000
0001
,
1000
0001
0000
1000
,
0100
1000
0000
0001
,
0010
0001
0000
1000
,
0010
1000
0000
0001
,
0100
0001
0000
1000
,
0001
1000
0000
0001
,
1000
0001
0000
1001
;
