#TITLE:白鳥SAMBA;
#SUBTITLE:~サン=サーンス・動物の謝肉祭より;
#ARTIST:Q-Mex;
#TITLETRANSLIT:HAKUCHOU SAMBA;
#SUBTITLETRANSLIT:~SAINT-SAENS DOUBUTSU NO SHANIKUSAI YORI;
#ARTISTTRANSLIT:;
#CREDIT:DigiMindAxel;
#BANNER:HAKUCHOU SAMBA ~SAINT-SAENS DOUBUTSU NO SHANIKUSAI YORI.png;
#BACKGROUND:HAKUCHOU SAMBA ~SAINT-SAENS DOUBUTSU NO SHANIKUSAI YORI-bg.png;
#LYRICSPATH:;
#CDTITLE:pop'n music.png;
#MUSIC:HAKUCHOU SAMBA ~SAINT-SAENS DOUBUTSU NO SHANIKUSAI YORI.ogg;
#METERTYPE:DDR X;
#OFFSET:-10.017;
#SAMPLESTART:2.332;
#SAMPLELENGTH:12.000;
#SELECTABLE:YES;
#BPMS:0.000=125.000;
#STOPS:;
#BGCHANGES:;

//---------------dance-single - ----------------
#NOTES:
     dance-single:
     :
     Easy:
     3:
     0.171,0.201,0.048,0.087,0.000:
2000
0000
3001
0010
,
0200
0000
0320
0000
,
0032
0000
0000
0003
,
0200
0000
0000
0300
,
0010
1000
0010
0000
,
1000
0000
0001
0000
,
0010
0001
0010
0000
,
0001
0000
1000
0000
,
0020
0000
0000
0000
,
0230
0000
0000
0000
,
0302
0000
0000
0000
,
2003
0000
3000
0000
,
0001
0000
0010
0000
,
0100
0010
0100
0010
,
0100
0000
1000
0000
,
0010
0100
0010
0100
,
0001
0000
0010
0000
,
0100
0010
0100
0010
,
0100
0000
1000
0000
,
0010
0100
0001
0000
,
1000
0000
0001
0000
,
0010
0100
1000
0000
,
0001
0000
1000
0000
,
0100
0010
0001
0000
,
0100
0000
0010
0000
,
1000
0001
0010
0000
,
0100
0000
1000
0000
,
0010
0100
0001
0100
,
0110
0000
0000
0000
,
0110
0000
0000
0000
,
1001
0000
1000
0000
,
0001
0010
0100
1000
,
0001
0000
0100
0000
,
0010
0000
0100
0000
,
0001
0000
1000
0000
,
0100
1000
0010
0100
,
0001
0000
1000
0000
,
0100
0000
1000
0000
,
0001
0000
0010
0000
,
0100
0000
0010
0000
,
0001
0100
0010
0000
,
0100
0010
1000
0000
,
0010
0100
0001
0000
,
0100
0010
1000
0010
,
0100
0000
0100
0000
,
0001
0000
0001
0000
,
1001
0000
0000
1001
0000
0000
0000
0000
;

//---------------dance-single - ----------------
#NOTES:
     dance-single:
     :
     Medium:
     8:
     0.389,0.380,0.164,0.058,0.063:
2000
0000
0000
0000
0000
0000
0000
0000
0000
0000
3001
0000
0000
1000
0000
0000
,
0100
0000
0000
0010
0000
0000
0001
0000
0000
1000
0000
0000
0010
0000
0100
0000
,
0020
0000
0000
0000
,
0130
0001
1000
0000
0100
1000
0001
0000
,
1001
0000
0001
0001
0100
0010
0000
0000
,
0000
1000
1000
0000
0001
0001
0000
0000
,
0010
0100
1000
1000
0100
0010
0000
0000
,
0002
0100
0100
0103
,
0020
0000
0000
0000
0000
0000
1000
0000
0000
0000
1030
0000
0000
0001
0000
0000
,
0010
0000
0000
0100
0000
0000
1000
0000
0000
0010
0000
0000
0100
0000
0010
0000
,
0200
0000
0000
0000
,
0301
0000
0000
0001
0000
0000
1001
0000
1000
0000
0000
0000
0000
0000
0000
0000
,
1010
0000
0010
0100
0001
0001
0001
0000
,
0010
0001
0100
0100
0100
0000
0000
0000
,
0001
0010
0100
1000
0001
0010
0100
0000
,
1000
0010
0100
0001
1000
0000
0000
0000
,
1100
0000
0010
0001
0100
0100
0100
0000
,
0010
1000
0001
0001
0001
0000
0000
0000
,
1000
0100
0010
0001
1000
0100
0010
0000
,
0001
0100
0010
1000
0001
0000
0000
0000
,
0101
0000
0100
0010
0100
0001
1000
0000
,
0100
0010
0010
0001
1000
0100
0010
0000
,
0001
0100
0001
1000
0100
0010
0100
1000
,
0010
0100
0100
0001
0100
0010
0010
0000
,
1000
0100
0010
0001
0100
0001
1000
0000
,
0100
0010
0010
0001
1000
0010
1000
0000
,
0100
0010
0010
0001
1000
0001
0001
0100
,
0001
0010
0100
1000
0010
0100
0010
0000
,
1001
1001
0000
0000
0000
0000
0100
0000
,
1010
1010
0000
0000
0000
0000
0010
0000
,
0101
0000
0001
0010
0100
0100
0100
0000
,
0010
0001
1000
1000
1000
0010
0100
0000
,
1002
0000
0000
0000
0000
0000
0000
0000
0000
0000
0013
0000
0000
0100
0000
0000
,
1000
0000
0000
0001
0000
0000
0100
0000
0000
0010
0000
0000
1000
0000
0001
0000
,
1000
0010
0010
0000
0100
0001
0010
0000
,
0100
1000
0010
0000
0100
0001
1000
0000
,
1001
0001
0010
0100
1000
0010
0000
0000
,
0100
0001
0001
0010
0100
1000
1000
0000
,
0100
0010
0001
1000
0010
1000
0000
0000
,
0010
1000
0100
0010
0001
1000
0001
0000
,
0010
0100
1000
0001
0100
0001
1000
0000
,
0001
1000
1000
0010
0100
0100
0010
0000
,
1000
0001
0001
0100
0010
1000
0100
0000
,
0010
0001
0001
1000
0100
0010
0001
0000
,
1001
0000
0000
0000
1010
0000
0000
0000
0010
0000
0000
0010
0000
0000
0010
0000
,
1001
0000
0000
0000
0011
0000
0000
0000
0010
0000
0000
0010
0000
0000
0010
0000
,
0100
0000
0000
0100
0000
0000
0110
0000
0000
0000
0000
0000
0000
0000
0000
0000
;

//---------------dance-single - ----------------
#NOTES:
     dance-single:
     :
     Hard:
     13:
     0.610,0.653,0.116,0.337,0.814: // measure 1
2000
0000
0000
0000
0010
0000
0000
0000
0000
0000
3002
0000
0000
0203
0000
0000
,  // measure 2
0320
0000
0000
2030
0000
0000
3002
0000
0000
0023
0000
0000
0130
0000
0010
0000
,  // measure 3
0002
0000
0000
0000
0103
0010
0000
1000
0000
1000
0000
0100
0010
0100
0010
0000
,  // measure 4
0001
0010
0100
1000
0000
1000
0000
0001
1000
0100
0010
0001
0000
0001
0000
1000
,  // measure 5
0010
0000
0010
0000
1000
0100
0000
0010
0000
0100
1000
0000
0000
0000
0000
0000
,  // measure 6
0001
0000
0010
0100
0010
0100
0000
0000
1000
0010
1000
0010
0000
0000
0000
0000
,  // measure 7
1000
0000
1000
0000
0010
0100
0001
1000
0000
0001
1000
0000
0000
0000
0000
0000
,  // measure 8
0001
0000
0010
0001
0010
0001
1000
0010
2000
0000
0000
3002
0000
0000
0003
0000
,  // measure 9
2000
0000
0000
0000
0000
0000
0010
0000
0000
0000
3020
0000
0000
2030
0000
0000
,  // measure 10
3200
0000
0000
0320
0000
0000
0032
0000
0000
2003
0000
0000
3010
0000
0100
0000
,  // measure 11
0001
0000
1000
0100
1000
0100
0010
0001
0010
0001
0000
0100
0000
0010
0000
1000
,  // measure 12
0100
0000
0000
1100
0000
0000
1100
0000
2002
0000
0000
0000
0000
0000
3003
0000
,  // measure 13
0101
0000
0000
0100
0000
0000
0010
0000
1000
0000
0000
1000
0000
0000
0100
0000
,  // measure 14
0010
0000
0000
0010
0000
0000
0001
0000
1000
0000
0000
0000
0000
0000
0000
0000
,  // measure 15
0001
0000
0010
0001
0010
0000
0100
0010
0100
0000
1000
0100
1000
0000
0001
1000
,  // measure 16
0001
0000
0000
0100
0000
0010
1000
0100
0010
0000
0000
0000
0000
0000
0000
0000
,  // measure 17
1100
0000
0000
0100
0000
0000
0010
0000
0001
0000
0000
0001
0000
0000
0100
0000
,  // measure 18
0010
0000
0000
0010
0000
0000
1000
0000
0100
0000
0000
0000
0000
0000
0000
0000
,  // measure 19
1000
0000
0100
1000
0100
0000
0010
0100
0010
0000
0001
0010
0001
0000
1000
0001
,  // measure 20
1000
0000
0000
0100
0000
0010
0001
0100
0010
0000
0000
0000
0000
0000
0000
0000
,  // measure 21
1001
0000
0001
1000
0100
0010
0000
0002
0000
0000
1003
0000
0100
0000
1000
0000
,  // measure 22
0001
0000
0010
0100
0010
0100
0000
1000
0000
0001
1000
0000
0100
1000
0100
0000
,  // measure 23
0000
0000
1000
0100
0010
0001
0000
0200
0000
0000
0310
0000
1000
0100
0010
0100
,  // measure 24
1000
0010
1000
0010
0100
0001
0100
0001
1000
0100
1000
0100
0010
0001
0010
0001
,  // measure 25
1000
0000
0001
0010
0100
1000
0001
1000
0100
0010
0001
1000
0010
1000
0001
0000
,  // measure 26
0010
0100
1000
0001
0010
0100
1000
0001
1000
0010
0100
0010
1000
0000
0000
0010
,  // measure 27
1000
0001
0010
0001
1000
0100
0010
0001
1000
0010
0100
0010
1000
0001
0010
0000
,  // measure 28
0001
0010
0100
1000
0001
0100
0001
1000
0001
0010
1000
0010
0001
0000
0000
0000
,  // measure 29
1000
0010
0100
0001
0000
0000
0000
0000
0000
0000
0000
0000
1001
0000
0000
0000
,  // measure 30
0001
0100
0010
1000
0000
0000
0000
0000
0000
0000
0000
0000
1001
0000
0000
0000
,  // measure 31
1000
0000
0100
0000
1000
0001
0000
0100
0000
0001
1000
0000
0000
0000
0000
0000
,  // measure 32
0100
0000
0010
0001
0010
0100
0000
2000
0000
0000
3010
0000
0100
0000
0010
0000
,  // measure 33
2000
0000
0000
0000
0010
0000
0000
0000
0000
0000
3002
0000
0000
0203
0000
0000
,  // measure 34
2300
0000
0000
3200
0000
0000
0302
0000
0000
0023
0000
0000
0130
0000
1000
0000
,  // measure 35
0001
0000
0100
0001
0100
0001
0000
0010
0000
0100
0000
1000
0010
0100
0010
0000
,  // measure 36
1000
0100
0010
0001
0000
0001
0000
0100
0001
0010
0100
1000
0000
1000
0000
0010
,  // measure 37
0100
0000
0100
0000
0001
0100
0000
0010
0000
0100
0001
0000
0000
0000
0000
0000
,  // measure 38
1000
0000
0010
0100
0010
0100
0000
0000
0001
0010
0001
0010
0000
0000
0000
0000
,  // measure 39
0100
0000
1000
0000
0001
0010
0100
0010
0000
0001
0100
0000
0000
0000
0000
0000
,  // measure 40
0010
1000
0010
1000
0001
0010
0100
1000
0002
0000
0000
0203
0000
0000
0300
0000
,  // measure 41
0001
0000
0010
0000
0001
1000
0000
0010
0000
1000
0001
0000
0000
0000
0000
0000
,  // measure 42
0100
0000
0010
1000
0010
1000
0000
0000
0001
1000
0001
1000
0000
0000
0000
0000
,  // measure 43
0010
0000
0100
0001
0100
0001
1000
0100
0000
1000
0100
1000
0001
0100
0001
0000
,  // measure 44
0010
0000
0100
0010
0100
0010
0002
0000
0000
0000
0203
0000
0000
0000
0300
0000
,  // measure 45
1001
0000
0010
0000
0100
0000
0000
0000
1000
0000
0001
0100
0000
0000
0001
0000
,  // measure 46
0010
0000
0100
0010
0100
0000
1000
0000
0001
0000
0010
0100
0010
0000
0000
0000
,  // measure 47
0101
0000
0000
0101
0000
0000
0202
0000
0000
0000
0000
0000
0303
0000
0000
0000
;

//---------------dance-single - ----------------
#NOTES:
     dance-single:
     :
     Beginner:
     1:
     0.074,0.111,0.077,0.000,0.000:
1000
0000
0000
0000
,
0001
0000
0000
0000
,
0010
0000
0000
0000
,
0100
0000
0000
0000
,
1001
0000
0000
0000
,
0001
0000
0000
0000
,
0100
0000
0000
0000
,
0001
0000
0000
0000
,
1000
0000
0000
0000
,
0100
0000
0000
0000
,
0010
0000
0000
0000
,
0110
0000
0000
0000
,
1001
0000
0000
0000
,
1000
0000
0000
0000
,
0001
0000
0000
0000
,
0010
0000
0000
0000
,
0100
0000
0000
0000
,
0010
0000
0000
0000
,
0100
0000
0000
0000
,
1000
0000
0000
0000
,
1001
0000
0000
0000
,
0001
0000
0000
0000
,
1000
0000
0000
0000
,
0001
0000
0000
0000
,
1000
0000
0000
0000
,
0001
0000
0000
0000
,
1000
0000
0000
0000
,
0001
0000
0000
0000
,
1001
0000
0000
0000
,
1001
0000
0000
0000
,
1000
0000
0000
0000
,
0010
0000
0000
0000
,
0100
0000
0000
0000
,
0010
0000
0000
0000
,
1000
0000
0000
0000
,
0001
0000
0000
0000
,
0010
0000
0000
0000
,
0100
0000
0000
0000
,
0010
0000
0000
0000
,
0100
0000
0000
0000
,
1000
0000
0000
0000
,
0010
0000
0000
0000
,
0100
0000
0000
0000
,
0010
0000
0000
0000
,
1001
0000
0000
0000
,
0000
0000
0000
0000
,
1001
0000
0000
0000
;
