#TITLE:背水之陣;
#SUBTITLE:(Kagutsuchi Remix);
#ARTIST:すわひでお connected by Kagutsuchi;
#TITLETRANSLIT:HAISUI NO JIN;
#SUBTITLETRANSLIT:;
#ARTISTTRANSLIT:HIDEO SUWA connected by Kagutsuchi;
#CREDIT:DigiMindAxel;
#BANNER:HAISUI NO JIN (Kagutsuchi Remix).png;
#BACKGROUND:HAISUI NO JIN (Kagutsuchi Remix)-bg.png;
#LYRICSPATH:;
#CDTITLE:pop'n music.png;
#MUSIC:HAISUI NO JIN (Kagutsuchi Remix).ogg;
#METERTYPE:DDR X;
#OFFSET:-10.099;
#SAMPLESTART:64.951;
#SAMPLELENGTH:12.000;
#SELECTABLE:YES;
#DISPLAYBPM:210;
#BPMS:0.000=210.000,356.000=105.000,363.250=210.000;
#STOPS:322.500=0.286
,325.500=0.286
,328.500=0.286
;
#BGCHANGES:;

//---------------dance-single - ----------------
#NOTES:
     dance-single:
     :
     Easy:
     7:
     0.331,0.376,0.198,0.058,0.004:
1001
0000
0000
1000
0000
0000
0000
0000
,
1001
0000
0000
0001
0000
0000
0000
0000
,
1001
0000
0000
1000
0000
0000
0000
0000
,
0002
0000
1003
0000
,
0110
0000
0000
0010
0000
0000
0000
0000
,
0110
0000
0000
0100
0000
0000
0000
0000
,
0110
0000
0000
0010
0000
0000
0000
0000
,
2000
0000
3001
0000
,
1001
0000
0000
1000
0000
0000
0000
0000
,
0001
0010
0100
1000
,
0110
0000
0000
0010
0000
0000
0000
0000
,
1000
0100
0010
0001
,
0110
0000
0000
0100
0000
0000
0000
0000
,
0001
1000
0010
0100
,
1001
0000
0000
0001
0000
0000
0000
0000
,
1000
0100
0010
0001
,
1000
0000
0000
1000
0000
0000
0000
0000
,
0001
1000
0001
0010
,
0001
0000
0000
0001
0000
0000
0000
0000
,
0100
0010
1000
0100
,
0010
0000
0000
0010
0000
0000
0000
0000
,
0001
1000
0100
0010
,
0001
0000
0000
0001
0000
0000
0000
0000
,
1000
1000
1000
1000
,
0001
0010
0100
1000
,
0000
0001
0010
0100
,
0000
0010
0001
0010
,
0001
1000
0010
0100
,
0001
0100
0010
1000
,
0000
0001
0100
0010
,
0000
1000
0100
0010
,
0001
1000
0001
0000
,
1000
0001
1000
0000
,
0001
1000
0001
0000
,
1000
0001
1000
0000
,
0001
1000
0001
0000
,
1000
0001
1000
0000
,
0001
1000
0001
0000
,
1000
0100
1000
0100
,
1000
1000
0001
0001
,
1000
0100
0010
0001
,
1000
0100
0000
0000
,
1000
0001
0010
0100
,
1000
0001
0100
0000
,
0001
1000
0100
0010
,
0001
1000
0010
0000
,
1000
0001
1000
0001
,
0200
0000
0000
0000
,
0310
0100
0010
0100
,
1000
0001
1000
0001
,
1000
0100
1000
0100
,
1000
0010
0100
0001
,
0010
0100
0010
0100
,
1000
0010
1000
0010
,
1000
0001
1000
0001
,
0100
0010
1000
0001
,
2000
0000
0000
0000
,
0000
0000
0000
0000
,
3000
0000
0000
0000
,
1001
0000
0000
0000
,
0110
0000
0000
0000
,
0010
0000
0000
0000
,
0010
0000
0000
0000
,
0100
0000
0000
0000
,
0001
0000
0010
0000
,
0100
0000
1000
0000
,
2002
0000
0000
0000
,
0000
0000
3003
0000
,
1001
0000
1001
0000
,
0001
0010
0100
1000
,
1001
0000
1001
0000
,
1000
0100
0010
0001
,
1000
0010
1000
0010
,
1000
0001
1000
0001
,
0100
0001
0100
0001
,
0010
0100
1000
0001
,
1000
0010
1000
0010
,
1000
0001
1000
0001
,
0100
0010
0100
0010
,
1000
0100
0010
0000
,
1001
0000
0000
0001
0000
0000
1001
0000
,
0000
1000
0000
0000
1001
0000
0000
0001
,
0000
0010
0100
1000
,
0000
0000
0110
0000
0000
0010
0000
0000
,
0000
0000
0110
0000
0000
0100
0000
0000
,
0000
0000
0110
0000
0000
0010
0000
0000
,
0000
1000
0100
0010
,
0001
0200
0000
0000
,
0000
0000
0000
0000
,
0000
0300
0000
0000
0000
0000
0000
0000
,
0000
0000
0000
0000
0000
0000
0000
0000
0000
0000
0000
0000
0000
0110
0000
0000
;

//---------------dance-single - ----------------
#NOTES:
     dance-single:
     :
     Medium:
     10:
     0.495,0.601,0.447,0.099,0.004:
1001
0000
0000
1001
0000
0000
0000
0000
,
1001
0000
0000
1001
0000
0000
0000
0000
,
0110
0000
0000
0110
0000
0000
0000
0000
,
0010
0100
0010
0000
,
1001
0000
0000
1001
0000
0000
0000
0000
,
0110
0000
0000
0110
0000
0000
0000
0000
,
1001
0000
0000
1001
0000
0000
0000
0000
,
1000
0001
1000
0000
,
1001
0000
0000
1001
0000
0000
0000
0000
,
0001
0010
0100
1000
,
0110
0000
0000
0110
0000
0000
0000
0000
,
1000
0010
0100
0001
,
1001
0000
0000
1001
0000
0000
0000
0000
,
1000
0100
0010
0100
,
1100
0000
0000
1100
0000
0000
0000
0000
,
0010
0100
0001
1000
,
0001
1000
0001
0000
1000
0001
1000
0000
,
0001
0010
0100
1000
,
0010
0100
0010
0000
0100
0010
0100
0000
,
0001
1000
0100
0010
,
0001
1000
0001
0000
1000
0001
1000
0000
,
0010
1000
0001
0010
,
0001
0010
0001
0000
1000
0001
1000
0000
,
0010
0100
0010
0100
0010
0100
0010
0000
,
1000
0100
0010
0000
0002
0000
1003
0000
,
0001
0100
0010
0000
0200
0000
0301
0000
,
1000
0100
0010
0100
,
1000
0010
0100
0000
0110
0000
0110
0000
,
0010
0001
0010
0000
0100
0010
0100
0000
,
1000
0001
1000
0000
0002
0000
1003
0000
,
0001
0010
0100
0000
1000
0001
1000
0000
,
0001
0100
0001
0000
0100
0000
0000
0000
,
0001
0100
0001
0000
0100
0000
0000
0000
,
0001
0100
0001
0000
0100
0000
0000
0000
,
0001
0100
0001
0000
0100
0000
0000
0000
,
0001
0100
0001
0000
0100
0000
0000
0000
,
0001
0100
0001
0000
0100
0000
0000
0000
,
0001
0100
0001
0000
0100
0000
0000
0000
,
0001
1000
0100
0010
,
0001
1000
0001
0000
1000
0001
1000
0000
,
0001
1000
0001
0000
1000
0001
1000
0000
,
0001
1000
0001
0000
1001
0000
1001
0000
,
0010
0100
0010
0000
0100
0010
0100
0000
,
0010
0100
0010
0000
0110
0000
0110
0000
,
0001
1000
0001
0000
1000
0001
1000
0000
,
0001
1000
0001
0000
1001
0000
1001
0000
,
0010
0100
0010
0100
0010
0000
0010
0000
,
2002
0000
0000
3003
,
1000
0100
1000
0000
0001
1000
0001
0000
,
1000
0100
1000
0000
0001
1000
0001
0000
,
1000
0100
1000
0000
0001
1000
0001
0000
,
1000
0100
0010
0001
1000
0000
1000
0000
,
0010
0100
0010
0000
1000
0001
1000
0000
,
0010
0100
0010
0000
1000
0001
1000
0000
,
0010
0001
0010
1000
,
1001
0000
0010
0000
0100
1000
0100
1000
,
0002
0000
0000
0000
,
0100
0000
0000
0000
,
0100
0000
0000
0000
,
2000
0000
0000
3003
,
1000
0001
0000
0000
0000
0000
0000
0000
,
1000
0001
0000
0000
0000
0000
0000
0000
,
1000
0001
0000
1000
0001
0000
0000
0000
,
0120
0000
0000
0000
,
1030
0001
1000
0001
,
0010
0100
0010
0100
,
2002
0000
0000
0000
,
0000
0000
0000
3003
,
1001
1001
0110
0110
,
1000
0100
0010
0001
1000
0000
1000
0000
,
1001
1001
0110
0110
,
0001
0010
0100
1000
0001
0000
0001
0000
,
0100
0001
0100
0000
0001
1000
0100
0000
,
1000
0100
1000
0000
0100
0010
0001
0000
,
0100
0010
0100
0000
0001
1000
0100
0000
,
1000
0100
0010
0001
1000
0000
1000
0000
,
0001
0100
0001
0000
1000
0001
0100
0000
,
0001
1000
0001
0000
0010
0100
1000
0000
,
0010
0100
0010
0000
1000
0100
0010
0000
,
0001
0010
0100
0000
,
1001
0000
0000
1001
0000
0000
0110
0000
,
0000
0110
0000
0000
1001
0000
0000
1001
,
0000
0210
0001
0301
,
0000
0000
0110
0000
0000
0110
0000
0000
,
0000
0000
0101
0000
0000
0101
0000
0000
,
0000
0000
1100
0000
0000
1100
0000
0000
,
0000
1000
0010
0001
,
0010
2000
0000
0000
,
0000
0000
0000
0000
,
3000
0000
0000
0000
,
0000
0000
0000
0000
0000
0000
0000
0000
0000
0000
0000
0000
0000
0110
0000
0000
;

//---------------dance-single - ----------------
#NOTES:
     dance-single:
     :
     Hard:
     13:
     0.643,0.638,0.372,0.091,0.054: // measure 1
1000
0000
0000
1000
0000
0000
1010
0000
0000
0000
0000
0000
0000
0000
0000
0000
,  // measure 2
0100
0000
0000
0100
0000
0000
0110
0000
0000
0000
0000
0000
0000
0000
0000
0000
,  // measure 3
0001
0000
0000
0001
0000
0000
1001
0000
0000
0000
0000
0000
0000
0000
0000
0000
,  // measure 4
0200
0000
0301
1000
0100
0000
0010
0000
,  // measure 5
0001
0000
0000
0001
0000
0000
0101
0000
0000
0000
0000
0000
0000
0000
0000
0000
,  // measure 6
0100
0000
0000
0100
0000
0000
0110
0000
0000
0000
0000
0000
0000
0000
0000
0000
,  // measure 7
1000
0000
0000
1000
0000
0000
1100
0000
0000
0000
0000
0000
0000
0000
0000
0000
,  // measure 8
0020
0000
0031
1000
0010
0000
0100
0000
,  // measure 9
0110
0000
0000
0110
0000
0100
0010
0100
,  // measure 10
0010
0100
0001
0010
0100
1000
0001
0000
,  // measure 11
1001
0000
0000
1001
0000
1000
0001
1000
,  // measure 12
0010
0100
0001
1000
0100
0010
0100
0000
,  // measure 13
0110
0000
0000
0110
0000
0010
0100
0010
,  // measure 14
1000
0100
0010
0100
1000
0001
0100
0000
,  // measure 15
0101
0000
0000
0101
0000
0001
1000
0001
,  // measure 16
0100
0010
0100
0001
1000
0100
0010
0000
,  // measure 17
0001
0100
0001
0000
0100
0010
0100
0000
,  // measure 18
0001
1000
0100
0001
0100
1000
0100
0000
,  // measure 19
1000
0001
1000
0000
0001
0100
0001
0000
,  // measure 20
1000
0001
0010
1000
0010
0001
0010
0000
,  // measure 21
0001
0100
0001
0000
0100
0010
0100
0000
,  // measure 22
0001
1000
0100
0001
0100
1000
0100
0000
,  // measure 23
0010
0001
0010
0001
0100
0010
1000
0000
,  // measure 24
0001
0010
0100
0010
0001
0010
0100
0010
,  // measure 25
0001
0100
0001
0100
0001
0010
0100
0000
,  // measure 26
0010
0001
0010
0001
1000
0010
0100
0000
,  // measure 27
0001
0100
0001
0100
0001
0010
0100
1000
,  // measure 28
0001
0100
0001
1000
0100
0000
0110
0000
,  // measure 29
0010
0001
0010
0001
1000
0010
0100
0000
,  // measure 30
0001
1000
0001
1000
0010
0100
0001
0000
,  // measure 31
0010
0100
0010
0100
1000
0010
0100
0000
,  // measure 32
0001
1000
0010
0100
0010
0000
1001
0000
,  // measure 33
0001
1000
0010
0100
0010
0000
1000
0000
,  // measure 34
0001
1000
0010
0100
0010
0000
1000
0000
,  // measure 35
0001
1000
0010
0100
0020
0000
1030
0000
,  // measure 36
0001
1000
0010
0100
0010
0000
1000
0000
,  // measure 37
0001
1000
0010
0100
0010
0000
1000
0000
,  // measure 38
0001
1000
0010
0100
0010
0000
1000
0000
,  // measure 39
0001
0000
0100
0001
0000
1000
0100
0000
,  // measure 40
1000
0100
0010
0000
0100
0010
0001
0000
,  // measure 41
1000
0100
0010
0000
0100
0010
0001
0000
,  // measure 42
1000
0100
0010
0000
0001
0001
0100
0100
,  // measure 43
0001
0010
0100
0000
0010
0100
1000
0000
,  // measure 44
0001
0010
0100
0000
1000
1000
0001
0001
,  // measure 45
1000
0100
0010
0000
0100
0010
0001
0000
,  // measure 46
1000
0100
0010
0000
0001
0001
1000
1000
,  // measure 47
0001
0010
0100
1000
0001
0000
0001
0000
,  // measure 48
2002
0000
0000
3003
,  // measure 49
0100
0001
0100
0001
1000
0100
0010
0001
,  // measure 50
0100
0010
0100
0010
1000
0100
0010
0001
,  // measure 51
1000
0010
1000
0010
1000
0100
0010
0001
,  // measure 52
0100
0001
1000
0010
0100
0001
0010
0000
,  // measure 53
0001
1000
0001
1000
0100
0010
0100
0010
,  // measure 54
0001
0100
0001
0100
0001
0010
0100
1000
,  // measure 55
0010
0100
0010
0100
0001
1000
0100
0010
,  // measure 56
0100
0000
1100
0000
0110
0000
0010
0001
,  // measure 57
0100
0010
0100
0010
,  // measure 58
1000
0100
1000
0100
,  // measure 59
0001
0100
0001
0100
,  // measure 60
2000
0001
0001
3001
,  // measure 61
1000
1000
0000
0000
0000
0000
0000
0000
,  // measure 62
0001
0001
0000
0000
0000
0000
0000
0000
,  // measure 63
0100
0100
0000
0010
0010
0000
0000
0000
,  // measure 64
2002
0000
0000
3003
,  // measure 65
0001
0010
0001
0000
1000
0001
1000
0000
,  // measure 66
0001
0010
0001
0000
1000
0001
1000
0000
,  // measure 67
2002
0000
0000
0000
,  // measure 68
0000
0000
0000
3003
,  // measure 69
1100
1001
1100
1001
,  // measure 70
0001
0100
0010
1000
0001
0100
0010
0000
,  // measure 71
0101
0101
1001
1001
,  // measure 72
1000
0100
0010
0001
1000
0100
0010
0000
,  // measure 73
0001
0100
0001
0100
0010
0100
0001
1000
,  // measure 74
0100
0010
0100
0010
0001
1000
0010
0100
,  // measure 75
0001
1000
0001
1000
0001
0010
0100
1000
,  // measure 76
0001
0010
1000
0010
0001
0010
1000
0010
,  // measure 77
0001
0100
0001
0100
0001
0010
0100
0010
,  // measure 78
0001
1000
0001
1000
0010
0100
0001
1000
,  // measure 79
0100
0010
0100
0010
0001
1000
0010
0100
,  // measure 80
0010
0101
1001
0000
,  // measure 81
0100
0000
0000
0100
0000
0000
1100
0000
0000
0000
0000
0000
0010
0000
0000
0010
,  // measure 82
0000
0000
0110
0000
0000
0000
0000
0000
0001
0000
0000
0001
0000
0000
0101
0000
,  // measure 83
0000
0000
1001
0000
1000
0010
0100
0001
,  // measure 84
0010
0000
0000
0000
1001
0000
0000
1000
0000
0000
1001
0000
0000
0000
0000
0000
,  // measure 85
0000
0000
0000
0000
0110
0000
0000
0010
0000
0000
0110
0000
0000
0000
0000
0000
,  // measure 86
0000
0000
0000
0000
0101
0000
0000
0001
0000
0000
0101
0000
0000
0000
0000
0000
,  // measure 87
0000
0000
0100
0001
0010
0000
0110
0000
,  // measure 88
1100
0201
0000
0000
,  // measure 89
0000
0000
0000
0000
,  // measure 90
0300
0000
0000
0000
,  // measure 91
0000
0000
0000
0000
0000
0000
0000
0000
0000
0000
0000
0000
0000
1001
0000
0000
;

//---------------dance-single - ----------------
#NOTES:
     dance-single:
     :
     Challenge:
     15:
     0.796,0.826,0.455,0.141,0.252:
1001
0000
0000
1001
0000
0000
1001
0000
0000
0000
0000
0000
0000
0000
0000
0000
,
1100
0000
0000
1100
0000
0000
1100
0000
0000
0000
0000
0000
0000
0000
0000
0000
,
0101
0000
0000
0101
0000
0000
0101
0000
0000
0000
0000
0000
0001
0000
1000
0000
,
0001
0100
0010
0100
0002
0000
1003
0000
,
1010
0000
0000
1010
0000
0000
1010
0000
0000
0000
0000
0000
0000
0000
0000
0000
,
0110
0000
0000
0110
0000
0000
0110
0000
0000
0000
0000
0000
0000
0000
0000
0000
,
0011
0000
0000
0011
0000
0000
0011
0000
0000
0000
0000
0000
1000
0000
0001
0000
,
1000
0100
0010
0100
2000
0000
3001
0000
,
0201
0000
0000
0310
0000
1000
0001
0100
,
0001
0001
1000
1000
0100
0010
0001
0100
,
0120
0000
0000
1030
0000
0001
1000
0100
,
1000
1000
0001
0001
0100
0010
1000
0001
,
0021
0000
0000
0130
0000
1000
0001
0100
,
0010
0010
1000
1000
0100
0010
0001
1000
,
1020
0000
0000
0130
0000
0001
1000
0100
,
0010
0010
0001
0001
0100
0010
1000
0000
,
0010
0100
0001
0010
0100
1000
0010
1000
,
0001
0100
0001
0010
1000
0010
0001
0000
,
1000
0010
1000
0001
0100
0100
0010
0010
,
1000
0000
0001
0000
1000
0000
0100
0000
0001
0000
0100
0000
1000
0001
1000
0001
,
1000
0010
1000
0100
0010
0001
1000
0010
,
1000
1000
0001
0001
0100
0010
0100
0010
,
1000
0100
0001
0100
1000
0001
0010
0000
,
0100
0100
1000
1000
0100
0100
1000
1000
,
0001
0000
0010
0000
1000
0000
0010
0000
0001
0000
1000
0010
2000
0000
0000
0000
,
3001
0000
0100
0000
1000
0000
0100
0000
0001
0000
0010
0100
0020
0000
0000
0000
,
0031
1000
0100
0001
0100
1000
0001
0010
,
0100
1000
0010
1000
0002
0000
1003
0000
,
0001
0000
0100
0000
1000
0000
0100
0000
0001
0000
1000
0100
2000
0000
0000
0000
,
3001
0000
0010
0000
1000
0000
0010
0000
0001
0000
1000
0010
2000
0000
0000
0000
,
3001
1000
0010
0001
0010
1000
0100
0010
,
0001
0000
0010
0000
0001
0000
1000
0000
0010
0000
0000
0000
0100
0010
0100
0010
,
1000
0100
1000
0010
1000
0000
1000
0000
,
0001
0010
0001
0100
0001
0000
0001
0000
,
1000
0100
1000
0010
1000
0000
1000
0000
,
0100
0000
0010
0000
0001
0000
0010
0000
0100
0000
0000
0000
1000
0001
1000
0001
,
1000
0100
0010
0100
1000
0000
1000
0000
,
0001
0010
0100
0010
0001
0000
0001
0000
,
0010
0001
1000
0100
0001
0100
1000
0001
,
0010
0100
0010
0100
0010
0000
0000
0000
0100
0010
0100
0010
0100
0000
0000
0000
,
1000
0010
1000
0010
1000
0000
0000
0000
0010
1000
0010
1000
0010
0000
0000
0000
,
1000
0001
1000
0001
1000
0000
0000
0000
0010
1000
0100
0000
0010
0100
0010
0000
,
0001
0100
0001
0100
0001
0000
0000
0000
0100
0001
0100
0001
0100
0000
0000
0000
,
0001
1000
0001
1000
0001
0000
0000
0000
0010
0000
0010
0000
0100
0000
0100
0000
,
1000
0001
1000
0001
1000
0000
0000
0000
0001
1000
0001
1000
0001
0000
0000
0000
,
0010
0001
0010
0001
0010
0000
0000
0000
0001
0000
0001
0000
1000
0000
1000
0000
,
0100
0010
0100
0000
0010
0100
0010
0000
1001
0000
0000
0000
1001
0000
0000
0000
,
0110
0100
0010
0100
0010
0100
0010
0100
,
0001
1000
0010
0001
0010
0100
0001
1000
,
0001
1000
0100
0010
1000
0010
0001
1000
,
0001
1000
0010
0001
0010
0100
0001
1000
,
0001
0000
0001
0000
0100
0000
0100
0000
0010
0000
0010
0000
1000
0001
1000
0001
,
1000
0001
0100
1000
0100
0010
1000
0001
,
1000
0001
0010
0100
0001
0100
1000
0001
,
1000
0001
0100
1000
0100
0010
1000
0001
,
0100
0001
1000
0100
0010
0001
1000
0010
,
0110
0100
0100
0100
,
0010
1000
0001
0000
0001
0000
0001
0000
,
0010
0100
1000
0000
1000
0000
1000
0000
,
0120
0100
0100
0130
,
1001
0001
0100
0000
0100
0000
0100
0000
,
0110
0010
1000
0000
1000
0000
1000
0000
,
1001
0001
0000
0100
0101
0000
0000
0000
,
2002
0000
0000
3003
,
1000
0100
1000
0100
0001
0100
1000
0000
,
0001
0100
0001
0100
1000
0100
0001
0000
,
0220
0000
0000
0000
,
0000
0000
0000
0330
,
1000
0001
1001
0000
1000
0001
1001
0000
,
0010
0000
0010
0000
0010
0000
0010
0000
0100
0001
0100
0001
1000
0000
0000
0000
,
1000
0001
0011
0000
1000
0001
0011
0000
,
0100
0000
0100
0000
0100
0000
0100
0000
1000
0001
1000
0001
0010
0000
0000
0000
,
0001
1000
0100
0001
0100
0010
0001
0100
,
0001
1000
0100
0010
1000
0010
0001
1000
,
0001
1000
0100
0001
1000
0100
0010
1000
,
0001
0000
0001
0000
0100
0000
0100
0000
0010
0000
0010
0000
0100
0001
0100
0001
,
1000
0001
0010
1000
0001
0010
0100
0001
,
1000
0001
0010
0100
0001
0100
1000
0001
,
1000
0001
0010
1000
0010
0100
1000
0001
,
0100
0000
0001
0000
1000
0000
0100
0000
0010
0000
0001
0000
0100
0001
0100
0001
,
1000
0000
0000
1001
0000
0000
1001
0000
0000
0000
0000
0000
0101
0000
0000
0101
,
0000
0000
0101
0000
0000
0000
0000
0000
0110
0000
0000
0110
0000
0000
0110
0000
,
0000
0000
0010
0100
0010
0100
1000
0001
,
0100
0000
0000
0000
1001
0000
0000
1001
0000
0000
1001
0000
0000
0000
0100
0000
,
0100
0000
0100
0000
1010
0000
0000
1010
0000
0000
1010
0000
0000
0000
0001
0000
,
0001
0000
0001
0000
0110
0000
0000
0110
0000
0000
0110
0000
0000
0000
1000
0000
,
1000
1000
0001
0010
1000
0010
0001
0100
,
0010
1000
0010
1000
0002
0000
0000
0000
0000
0000
0000
0000
0000
0000
0000
0000
,
0000
0000
0000
0000
,
0003
0000
0000
0000
,
0000
0000
0000
0000
0000
0000
0000
0000
0000
0000
0000
0000
0000
0110
0000
0000
;

//---------------dance-double - ----------------
#NOTES:
     dance-double:
     :
     Easy:
     7:
     0.331,0.376,0.198,0.058,0.004:
10010000
00000000
00000000
10000000
00000000
00000000
00000000
00000000
,
10010000
00000000
00000000
00010000
00000000
00000000
00000000
00000000
,
10010000
00000000
00000000
10000000
00000000
00000000
00000000
00000000
,
00002000
00000000
00013000
00000000
,
00000110
00000000
00000000
00000010
00000000
00000000
00000000
00000000
,
00000110
00000000
00000000
00000100
00000000
00000000
00000000
00000000
,
00000110
00000000
00000000
00000010
00000000
00000000
00000000
00000000
,
00002000
00000000
00003001
00000000
,
00000110
00000000
00000000
00000100
00000000
00000000
00000000
00000000
,
00000001
00000010
00000100
00010000
,
00011000
00000000
00000000
00001000
00000000
00000000
00000000
00000000
,
01000000
00100000
10000000
00010000
,
10010000
00000000
00000000
10000000
00000000
00000000
00000000
00000000
,
01000000
00100000
00001000
00010000
,
00011000
00000000
00000000
00010000
00000000
00000000
00000000
00000000
,
10000000
01000000
00100000
00010000
,
10000000
00000000
00000000
10000000
00000000
00000000
00000000
00000000
,
00100000
01000000
00001000
00010000
,
00000100
00000000
00000000
00000100
00000000
00000000
00000000
00000000
,
00000010
00000001
00000010
00000100
,
00010000
00000000
00000000
00010000
00000000
00000000
00000000
00000000
,
00001000
10000000
01000000
00100000
,
00010000
00000000
00000000
00010000
00000000
00000000
00000000
00000000
,
10000000
10000000
10000000
10000000
,
00010000
00100000
01000000
10000000
,
00000000
00010000
00100000
01000000
,
00000000
00100000
00001000
00100000
,
00001000
00010000
00000100
00000010
,
00000001
00000010
00000100
00010000
,
00000000
00001000
01000000
00100000
,
00000000
10000000
00100000
01000000
,
00001000
00010000
00001000
00000000
,
00010000
00001000
00010000
00000000
,
00000010
00000100
00000010
00000000
,
00000100
00000010
00000100
00000000
,
00000001
00000010
00000001
00000000
,
00000010
00000001
00000010
00000000
,
00000100
00000010
00000100
00000000
,
00000010
00000100
00000010
00000100
,
00010000
00010000
00001000
00001000
,
10000000
00100000
01000000
00010000
,
01000000
00100000
00000000
00000000
,
10000000
00010000
00100000
01000000
,
10000000
00001000
01000000
00000000
,
00001000
00010000
00000100
00000010
,
00000001
00000010
00000100
00000000
,
00010000
00001000
00010000
00001000
,
02000000
00000000
00000000
00000000
,
03100000
01000000
00100000
01000000
,
00010000
00100000
01000000
10000000
,
00001000
00100000
00001000
00100000
,
00001000
00010000
00000100
00000010
,
00000001
00000100
00000001
00000100
,
00000001
00000010
00000100
00010000
,
00001000
00100000
00001000
00100000
,
01000000
10000000
00010000
01000000
,
00200000
00000000
00000000
00000000
,
00000000
00000000
00000000
00000000
,
00300000
00000000
00000000
00000000
,
01100000
00000000
00000000
00000000
,
01100000
00000000
00000000
00000000
,
00100000
00000000
00000000
00000000
,
00100000
00000000
00000000
00000000
,
01000000
00000000
00000000
00000000
,
01000000
00000000
00100000
00000000
,
01000000
00000000
00001000
00000000
,
00022000
00000000
00000000
00000000
,
00000000
00000000
00033000
00000000
,
00011000
00000000
00011000
00000000
,
00010000
00000100
00000010
00000001
,
00000110
00000000
00000110
00000000
,
00000001
00000010
00000100
00010000
,
00001000
00100000
00001000
00100000
,
01000000
10000000
01000000
10000000
,
01000000
00100000
01000000
00100000
,
00001000
01000000
00100000
10000000
,
00100000
01000000
00001000
00010000
,
00000100
00000010
00000100
00000010
,
00000001
00000100
00000001
00000100
,
00000001
00000010
00000100
00000000
,
00011000
00000000
00000000
00010000
00000000
00000000
00011000
00000000
,
00000000
00001000
00000000
00000000
00011000
00000000
00000000
00010000
,
00000000
00100000
01000000
10000000
,
00000000
00000000
01100000
00000000
00000000
00100000
00000000
00000000
,
00000000
00000000
01100000
00000000
00000000
01000000
00000000
00000000
,
00000000
00000000
01100000
00000000
00000000
00100000
00000000
00000000
,
00000000
10000000
01000000
00100000
,
00010000
00002000
00000000
00000000
,
00000000
00000000
00000000
00000000
,
00000000
00003000
00000000
00000000
00000000
00000000
00000000
00000000
,
00000000
00000000
00000000
00000000
00000000
00000000
00000000
00000000
00000000
00000000
00000000
00000000
00000000
00011000
00000000
00000000
;

//---------------dance-double - ----------------
#NOTES:
     dance-double:
     :
     Medium:
     10:
     0.513,0.638,0.455,0.108,0.004:
10010000
00000000
00000000
10010000
00000000
00000000
00000000
00000000
,
10010000
00000000
00000000
10010000
00000000
00000000
00000000
00000000
,
10010000
00000000
00000000
10010000
00000000
00000000
00000000
00000000
,
01000000
00100000
00010000
00000000
,
00011000
00000000
00000000
00011000
00000000
00000000
00000000
00000000
,
00011000
00000000
00000000
00011000
00000000
00000000
00000000
00000000
,
00011000
00000000
00000000
00011000
00000000
00000000
00000000
00000000
,
00000010
00000100
00000001
00000000
,
00001001
00000000
00000000
00001001
00000000
00000000
00000000
00000000
,
00000001
00000010
00000100
00000010
,
00001001
00000000
00000000
00001001
00000000
00000000
00000000
00000000
,
00000010
00000100
00010000
00001000
,
01100000
00000000
00000000
01100000
00000000
00000000
00000000
00000000
,
10000000
01000000
00100000
01000000
,
10010000
00000000
00000000
10010000
00000000
00000000
00000000
00000000
,
01000000
10000000
00100000
01000000
,
00001000
01000000
00001000
00000000
01000000
00001000
01000000
00000000
,
00001000
00010000
00000100
00000010
,
00000001
00001000
00000001
00000000
00001000
00000001
00001000
00000000
,
00000010
00000000
00000100
00000000
00000001
00000100
00000001
00000000
,
00010000
00001000
00010000
00000000
00001000
00010000
00001000
00000000
,
00100000
00000000
01000000
00000000
10000000
00010000
10000000
00000000
,
00100000
10000000
00100000
00000000
01000000
00100000
01000000
00000000
,
00001000
00010000
00001000
00010000
00001000
00010000
00001000
00010000
,
00001000
00010000
00000020
00000130
,
00000001
00000010
00000100
00000000
00020000
00000000
00031000
00000000
,
01000000
00100000
01000000
00010000
,
00100000
01000000
10000000
00000000
10010000
00000000
10010000
00000000
,
10000000
00100000
10000000
00000000
00001000
00100000
00001000
00000000
,
00010000
00001000
00010000
00000000
00000200
00000000
00000310
00000000
,
00000001
00000010
00000100
00000000
00001000
00000010
00001000
00000000
,
00000010
00000100
00000010
00000100
00000010
00000000
00000000
00000000
,
00010000
00001000
00010000
00001000
00010000
00000000
00000000
00000000
,
00001000
01000000
00001000
01000000
00001000
00000000
00000000
00000000
,
10000000
01000000
10000000
01000000
10000000
00000000
00000000
00000000
,
00100000
01000000
00100000
01000000
00100000
00000000
00000000
00000000
,
10000000
01000000
10000000
01000000
10000000
00000000
00000000
00000000
,
00001000
00100000
00001000
00100000
00001000
00000000
00000000
00000000
,
00010000
00001000
00010000
00000010
,
00000100
00000010
00000100
00000000
00000001
00000010
00000001
00000000
,
00000100
00000010
00000100
00000000
00000001
00000010
00000001
00000000
,
00000100
00000010
00000100
00000000
00000110
00000000
00000110
00000000
,
00010000
00000100
00010000
00000000
00001000
00010000
00001000
00000000
,
00010000
00000100
00010000
00000000
00011000
00000000
00011000
00000000
,
00100000
01000000
00100000
00000000
01000000
10000000
01000000
00000000
,
00100000
01000000
00100000
00000000
01100000
00000000
01100000
00000000
,
10000000
00010000
10000000
00010000
10000000
00000000
10000000
00000000
,
02200000
00000000
00000000
03300000
,
01000000
00010000
01000000
00000000
00100000
10000000
01000000
00000000
,
00100000
00010000
00100000
00000000
00010000
00001000
00000100
00000000
,
00000010
00000001
00000010
00000000
00000100
00000010
00000001
00000000
,
00000100
00000010
00000100
00000001
00001000
00000000
00001000
00000000
,
00000010
00000100
00000010
00000000
00010000
00001000
01000000
00000000
,
00100000
01000000
00100000
00000000
10000000
01000000
00100000
00000000
,
00001000
00010000
00000100
00000010
,
00000011
00000000
00000110
00000000
00000100
00010000
00000100
00010000
,
00002000
00000000
00000000
00000000
,
00023000
00000000
00000000
00000000
,
00032000
00000000
00000000
00000000
,
02003000
00000000
00000000
03000000
,
00100000
01000000
00000000
00000000
00000000
00000000
00000000
00000000
,
00100000
01000000
00000000
00000000
00000000
00000000
00000000
00000000
,
00100000
01000000
00000000
00100000
01000000
00000000
00000000
00000000
,
20010000
00000000
00000000
00000000
,
31000000
00100000
01000000
00100000
,
00001000
00010000
00001000
00010000
,
00000220
00000000
00000000
00000000
,
00000000
00000000
00000000
00000330
,
00001001
00001001
00000110
00000110
,
00000001
00000010
00000100
00001000
00010000
01000000
00100000
00000000
,
01100000
01100000
10010000
10010000
,
10000000
00100000
01000000
00010000
00100000
00001000
00010000
00000000
,
00000010
00000100
00000010
00000000
00000100
00000001
00000010
00000000
,
00000100
00000010
00000100
00000000
00010000
00001000
00100000
00000000
,
01000000
00100000
01000000
00000000
10000000
01000000
00100000
00000000
,
01000000
10000000
00100000
01000000
00010000
00100000
00001000
00000000
,
00010000
00000100
00010000
00000000
00000100
00000010
00000001
00000000
,
00000100
00000010
00000100
00000000
00000001
00001000
00000100
00000000
,
00001000
00010000
00001000
00000000
00100000
01000000
10000000
01000000
,
00100000
00010000
01000000
00000000
,
01100000
00000000
00000000
01100000
00000000
00000000
10010000
00000000
,
00000000
10010000
00000000
00000000
01100000
00000000
00000000
01100000
,
00000000
01100000
00001000
00010000
,
00000000
00000000
00000110
00000000
00000000
00000110
00000000
00000000
,
00000000
00000000
00000101
00000000
00000000
00000101
00000000
00000000
,
00000000
00000000
00010100
00000000
00000000
00010100
00000000
00000000
,
00000000
00010000
00001000
00100000
,
01000000
20000000
00000000
00000000
,
00000000
00000000
00000000
00000000
,
30000000
00000000
00000000
00000000
,
00000000
00000000
00000000
00000000
00000000
00000000
00000000
00000000
00000000
00000000
00000000
00000000
00000000
00011000
00000000
00000000
;

//---------------dance-double - ----------------
#NOTES:
     dance-double:
     :
     Hard:
     13:
     0.651,0.676,0.372,0.091,0.054:
01000000
00000000
00000000
01000000
00000000
00000000
01100000
00000000
00000000
00000000
00000000
00000000
00000000
00000000
00000000
00000000
,
00010000
00000000
00000000
00010000
00000000
00000000
01010000
00000000
00000000
00000000
00000000
00000000
00000000
00000000
00000000
00000000
,
00001000
00000000
00000000
00001000
00000000
00000000
00011000
00000000
00000000
00000000
00000000
00000000
00000000
00000000
00000000
00000000
,
00000200
00000000
00000310
00000001
00000010
00000001
00000100
00000000
,
00000010
00000000
00000000
00000010
00000000
00000000
00000110
00000000
00000000
00000000
00000000
00000000
00000000
00000000
00000000
00000000
,
00000100
00000000
00000000
00000100
00000000
00000000
00000101
00000000
00000000
00000000
00000000
00000000
00000000
00000000
00000000
00000000
,
00001000
00000000
00000000
00001000
00000000
00000000
00011000
00000000
00000000
00000000
00000000
00000000
00000000
00000000
00000000
00000000
,
00200000
00000000
01300000
10000000
01000000
10000000
00010000
00000000
,
10010000
00000000
00000000
10010000
00000000
10000000
01000000
00100000
,
01000000
00100000
00001000
00010000
00001000
00010000
00000010
00000000
,
00000110
00000000
00000000
00000110
00000000
00000100
00000001
00000010
,
00000001
00000010
00000100
00010000
00000100
00010000
00001000
00000000
,
00011000
00000000
00000000
00011000
00000000
00001000
01000000
00100000
,
01000000
00100000
10000000
01000000
10000000
01000000
00100000
00000000
,
00110000
00000000
00000000
00110000
00000000
00010000
00100000
00001000
,
00010000
00001000
00010000
00000100
00000010
00000100
00000010
00000000
,
00000001
00000100
00000001
00000000
00010000
00001000
00010000
00000000
,
00001000
01000000
00001000
00100000
00001000
01000000
00001000
00000000
,
01000000
00100000
01000000
00000000
00100000
10000000
00100000
00000000
,
10000000
01000000
00100000
01000000
10000000
01000000
00100000
00000000
,
00001000
01000000
00001000
00000000
00010000
00001000
00010000
00000000
,
00000010
00000100
00000001
00000100
00000010
00000100
00000001
00000000
,
00000010
00000100
00000010
00000100
00010000
00001000
01000000
00000000
,
00100000
10000000
00010000
10000000
00100000
10000000
00010000
10000000
,
00100000
01000000
00100000
01000000
00001000
00010000
00000100
00000000
,
00000010
00000001
00000010
00000001
00000100
00000010
00010000
00000000
,
00001000
00010000
00001000
00010000
00100000
01000000
10000000
00010000
,
10000000
00100000
00010000
00100000
10000000
00000000
10010000
00000000
,
10000000
00100000
10000000
00100000
10000000
01000000
00100000
00000000
,
00001000
00010000
00001000
00010000
00000010
00000100
00000001
00000000
,
00000010
00000100
00000010
00000100
00010000
00001000
00100000
00000000
,
00010000
00100000
01000000
10000000
00100000
00000000
01100000
00000000
,
00100000
01000000
10000000
01000000
00100000
00000000
00001000
00000000
,
00010000
00000100
00000010
00000100
00010000
00000000
00000001
00000000
,
00000010
00000100
00001000
00000100
00000010
00000000
00000100
00000000
,
00010000
00001000
01000000
00100000
01000000
00000000
00100000
00000000
,
10000000
01000000
10000000
00010000
10000000
00000000
01000000
00000000
,
00100000
00010000
00100000
00001000
00100000
00000000
00001000
00000000
,
00010000
00000000
00000010
00000100
00000000
00000001
00000010
00000000
,
00000100
00000010
00000001
00000000
00000010
00000100
00001000
00000000
,
01000000
00100000
10000000
00000000
00100000
01000000
00010000
00000000
,
00100000
01000000
10000000
00000000
00001000
00001000
00010000
00010000
,
00000100
00000010
00000001
00000000
00000010
00000100
00001000
00000000
,
00100000
00010000
01000000
00000000
00100000
00100000
10000000
10000000
,
01000000
00100000
00010000
00000000
00100000
01000000
10000000
00000000
,
00100000
01000000
00010000
00000000
00001000
00001000
00010000
00010000
,
00000100
00000010
00000001
00000010
00000100
00000000
00000100
00000000
,
00002002
00000000
00000000
00003003
,
00000100
00000001
00000100
00000001
00000010
00001000
00000010
00000001
,
00010000
00000100
00010000
00000100
00001000
00010000
01000000
00100000
,
10000000
01000000
10000000
01000000
10000000
00100000
01000000
00010000
,
10000000
00100000
00010000
00100000
10000000
01000000
00100000
00000000
,
00001000
01000000
00001000
01000000
00010000
00001000
00000010
00000100
,
00000001
00000010
00000001
00000010
00000001
00001000
00000100
00010000
,
00100000
01000000
00100000
01000000
10000000
00100000
00010000
00100000
,
10000000
01000000
00100000
00001000
00010000
00001000
10000000
00000000
,
01100000
01000000
00100000
01000000
,
00001000
00010000
00001000
00010000
,
00000100
00000010
00000100
00000010
,
00001001
00001000
00000001
00001000
,
00000010
00000100
00000000
00000000
00000000
00000000
00000000
00000000
,
00000001
00000010
00000000
00000000
00000000
00000000
00000000
00000000
,
00000100
00001000
00000000
00010000
00001000
00000000
00000000
00000000
,
02200000
00000000
00000000
03300000
,
00100000
10000000
00100000
00000000
01000000
00100000
01000000
00000000
,
00001000
00100000
00001000
00000000
00010000
00001000
00010000
00000000
,
00022000
00000000
00000000
00000000
,
00000000
00000000
00000000
00033000
,
00010000
00000110
00010000
00000110
,
00000001
00000010
00000100
00000010
00000001
00000100
00000010
00000000
,
00000100
00001001
00000100
00001001
,
00001000
00000100
00000010
00000100
00010000
00001000
00010000
00000000
,
00001000
01000000
00001000
01000000
00010000
00100000
01000000
10000000
,
00010000
00100000
00010000
00100000
00010000
01000000
10000000
01000000
,
00001000
00010000
00001000
00010000
00000010
00000100
00000010
00000100
,
00000001
00000010
00001000
00000010
00000001
00000010
00001000
00000010
,
00000001
00000100
00000001
00000100
00000001
00000010
00000100
00001000
,
00000010
00010000
00000010
00010000
00001000
01000000
00100000
10000000
,
01000000
00100000
01000000
00100000
00010000
01000000
10000000
01000000
,
00010000
00100000
01000000
10000000
00100000
00000000
00000000
00000000
,
01100000
00000000
00000000
01100000
00000000
00000000
01100000
00000000
00000000
00000000
00000000
00000000
10010000
00000000
00000000
10010000
,
00000000
00000000
10010000
00000000
00000000
00000000
00000000
00000000
00101000
00000000
00000000
00101000
00000000
00000000
00101000
00000000
,
00000000
00000000
00002000
00000000
00013000
00000010
00010000
00000100
,
00000010
00000000
00000000
00000000
00000101
00000000
00000000
00000101
00000000
00000000
00000101
00000000
00000000
00000000
00000000
00000000
,
00000000
00000000
00000000
00000000
00010100
00000000
00000000
00010100
00000000
00000000
00010100
00000000
00000000
00000000
00000000
00000000
,
00000000
00000000
00000000
00000000
00110000
00000000
00000000
00110000
00000000
00000000
00110000
00000000
00000000
00000000
00000000
00000000
,
00000000
00000000
00020000
00000000
10030000
00100000
10000000
00010000
,
01000000
02100000
00000000
00000000
,
00000000
00000000
00000000
00000000
,
03000000
00000000
00000000
00000000
,
00000000
00000000
00000000
00000000
00000000
00000000
00000000
00000000
00000000
00000000
00000000
00000000
00000000
00011000
00000000
00000000
;

//---------------dance-double - ----------------
#NOTES:
     dance-double:
     :
     Challenge:
     15:
     0.796,0.826,0.447,0.157,0.252:
10010000
00000000
00000000
10010000
00000000
00000000
10010000
00000000
00000000
00000000
00000000
00000000
00000000
00000000
00000000
00000000
,
01001000
00000000
00000000
01001000
00000000
00000000
01001000
00000000
00000000
00000000
00000000
00000000
00000000
00000000
00000000
00000000
,
00011000
00000000
00000000
00011000
00000000
00000000
00011000
00000000
00000000
00000000
00000000
00000000
00010000
00000000
00000100
00000000
,
00010000
00000100
00000010
00000001
00000200
00000000
00000310
00000000
,
00000101
00000000
00000000
00000101
00000000
00000000
00000101
00000000
00000000
00000000
00000000
00000000
00000000
00000000
00000000
00000000
,
00010010
00000000
00000000
00010010
00000000
00000000
00010010
00000000
00000000
00000000
00000000
00000000
00000000
00000000
00000000
00000000
,
00011000
00000000
00000000
00011000
00000000
00000000
00011000
00000000
00000000
00000000
00000000
00000000
00001000
00000000
00100000
00000000
,
00001000
00100000
01000000
10000000
00020000
00000000
01030000
00000000
,
02100000
00000000
00000000
03010000
00000000
10000000
01000000
10000000
,
00100000
00100000
01000000
01000000
00010000
00001000
00000100
00000010
,
00000102
00000000
00000000
00001003
00000000
00000001
00000010
00000001
,
00000100
00000100
00000010
00000010
00001000
00010000
01000000
00100000
,
20100000
00000000
00000000
30010000
00000000
01000000
00100000
01000000
,
00001000
00001000
00010000
00010000
00000100
00000010
00000100
00001000
,
00001002
00000000
00000000
00000013
00000000
00000100
00000010
00000100
,
00010000
00010000
00001000
00001000
00100000
01000000
00100000
00000000
,
00010000
10000000
00100000
00010000
00100000
10000000
00001000
00010000
,
00000100
00000001
00000100
00001000
00000001
00000010
00000001
00000000
,
00001000
00000010
00000001
00000010
00001000
00000100
00010000
00001000
,
01000000
00000000
10000000
00000000
01000000
00000000
00010000
00000000
00100000
00000000
01000000
00000000
10000000
00010000
10000000
00010000
,
10000000
01000000
00010000
01000000
10000000
00100000
01000000
00001000
,
00010000
00000010
00000001
00000010
00010000
00000100
00010000
00000000
,
00000100
00000010
00000001
00000010
00000100
00010000
00000010
00010000
,
00001000
00001000
01000000
01000000
00001000
00001000
01000000
01000000
,
00100000
00000000
10000000
00000000
01000000
00000000
10000000
00000000
00100000
00000000
01000000
00100000
02000000
00000000
00000000
00000000
,
03001000
00000000
00100000
00000000
01000000
00000000
00100000
00000000
00001000
00000000
00010000
00001000
00020000
00000000
00000000
00000000
,
00030100
00000010
00000001
00000010
00000100
00001000
00000010
00010000
,
00001000
00001000
01000000
01000000
00100000
10000000
01000000
00000000
,
00100000
00000000
00010000
00000000
01000000
00000000
00010000
00000000
00100000
00000000
01000000
10000000
02000000
00000000
00000000
00000000
,
13000000
00000000
00010000
00000000
01000000
00000000
00001000
00000000
00100000
00000000
00001000
00010000
00002000
00000000
00000000
00000000
,
00013000
00000010
00000100
00000010
00010000
00000100
00000010
00000001
,
00000100
00000000
00000001
00000000
00000100
00000000
00000010
00000000
00000100
00000000
00000000
00000000
00000001
00001000
00000001
00001000
,
00000001
00000010
00000100
00001000
00010000
00000000
00010000
00000000
,
00001000
01000000
00100000
10000000
01000000
00000000
01000000
00000000
,
10000000
01000000
00100000
00010000
00001000
00000000
00001000
00000000
,
00010000
00000000
00000010
00000000
00000100
00000000
00000001
00000000
00000010
00000000
00000000
00000000
00000001
00001000
00000001
00001000
,
00000001
00000010
00000100
00000010
00000001
00000000
00000001
00000000
,
00000100
00000010
00010000
00000010
00000100
00000000
00000100
00000000
,
00000010
00010000
00001000
00010000
00000010
00010000
00001000
00010000
,
00000010
00000100
00000010
00000100
00000010
00000000
00000000
00000000
00010000
00001000
00010000
00001000
00010000
00000000
00000000
00000000
,
00001000
01000000
00001000
01000000
00001000
00000000
00000000
00000000
10000000
01000000
10000000
01000000
10000000
00000000
00000000
00000000
,
01000000
00100000
01000000
00100000
01000000
00000000
00000000
00000000
10000000
01000000
10000000
00000000
00001000
01000000
00001000
00000000
,
01000000
00100000
01000000
00100000
01000000
00000000
00000000
00000000
00001000
00010000
00001000
00010000
00001000
00000000
00000000
00000000
,
00010000
00000010
00010000
00000010
00010000
00000000
00000000
00000000
00000100
00000000
00000100
00000000
00000010
00000000
00000010
00000000
,
00000001
00000100
00000001
00000100
00000001
00000000
00000000
00000000
00000100
00000010
00000100
00000010
00000100
00000000
00000000
00000000
,
00000010
00010000
00000010
00010000
00000010
00000000
00000000
00000000
00001000
00000000
00001000
00000000
00010000
00000000
00010000
00000000
,
01000000
00010000
01000000
00000000
00100000
01000000
00100000
00000000
10010000
00000000
00000000
00000000
10010000
00000000
00000000
00000000
,
10000000
00010000
10000000
00010000
10000000
00010000
10000000
00010000
,
10000000
01000000
10000000
00100000
10000000
00010000
00100000
01000000
,
00010000
01000000
10000000
00001000
00100000
00001000
00010000
00000100
,
00000010
00000001
00000100
00000010
00001000
00000100
00010000
00000000
,
00001000
00000000
00001000
00000000
00100000
00000000
00100000
00000000
01000000
00000000
01000000
00000000
10000000
00010000
10000000
00010000
,
10000000
01000000
10000000
00100000
01000000
00010000
00100000
00010000
,
01000000
10000000
01000000
00100000
10000000
00001000
00010000
00000100
,
00000010
00000001
00000010
00000100
00001000
00000010
00001000
00000100
,
00010000
00000000
00001000
00100000
10000000
00100000
00001000
01000000
,
01200000
01000000
01000000
01300000
,
00010000
01000000
00200000
00000000
10000000
00000000
10300000
00000000
,
00001000
00010000
00000200
00000000
00000010
00000000
00000310
00000000
,
00001002
00001000
00001000
00001003
,
00000110
00000010
00010000
00000000
00001000
00000000
00010000
00000000
,
01001000
01000000
00100000
00000000
01000000
00000000
00100000
00000000
,
10010000
00010000
00000000
10000000
11000000
00000000
00000000
00000000
,
02200000
00000000
00000000
03300000
,
01000000
00010000
01000000
00010000
10000000
01000000
10000000
00000000
,
01000000
00100000
01000000
00100000
00001000
01000000
00001000
00000000
,
00022000
00000000
00000000
00000000
,
00000000
00000000
00000000
00033000
,
00010000
00000010
00000110
00000000
00010000
00000010
00000110
00000000
,
00000100
00000000
00000100
00000000
00000100
00000000
00000100
00000000
00000001
00001000
00000001
00001000
00000001
00000000
00000000
00000000
,
00000010
00000100
00010100
00000000
00000010
00000100
00010100
00000000
,
00010000
00000000
00010000
00000000
00010000
00000000
00010000
00000000
00001000
01000000
00001000
01000000
00001000
00000000
00000000
00000000
,
01000000
00100000
10000000
01000000
10000000
00010000
01000000
10000000
,
01000000
00100000
10000000
00100000
01000000
00100000
10000000
01000000
,
00100000
10000000
00100000
00010000
01000000
00001000
00010000
00000100
,
00000010
00000000
00000010
00000000
00000001
00000000
00000001
00000000
00000010
00000000
00000010
00000000
00000001
00000100
00000001
00000100
,
00000001
00001000
00000001
00000100
00000001
00001000
00000001
00000010
,
00001000
00000001
00000010
00000100
00000001
00010000
00000100
00010000
,
00001000
00100000
10000000
00100000
00001000
01000000
00010000
00100000
,
01000000
00000000
00100000
00000000
00010000
00000000
10000000
00000000
01000000
00000000
00100000
00000000
00001000
00100000
00001000
00100000
,
00001000
00000000
00000000
00101000
00000000
00000000
00101000
00000000
00000000
00000000
00000000
00000000
00010010
00000000
00000000
00010010
,
00000000
00000000
00010010
00000000
00000000
00000000
00000000
00000000
00000110
00000000
00000000
00000110
00000000
00000000
00000110
00000000
,
00000000
00000000
00000100
00000001
00000100
00000001
00000010
00000100
,
00001000
00000000
00000000
00000000
00011000
00000000
00000000
00011000
00000000
00000000
00011000
00000000
00000000
00000000
00100000
00000000
,
00100000
00000000
00100000
00000000
11000000
00000000
00000000
11000000
00000000
00000000
11000000
00000000
00000000
00000000
00100000
00000000
,
00100000
00000000
00100000
00000000
10010000
00000000
00000000
10010000
00000000
00000000
10010000
00000000
00000000
00000000
01000000
00000000
,
01000000
01000000
00100000
10000000
01000000
00100000
00001000
00010000
,
00000010
00001000
00000010
00001000
00000020
00000000
00000000
00000000
00000000
00000000
00000000
00000000
00000000
00000000
00000000
00000000
,
00000000
00000000
00000000
00000000
,
00000030
00000000
00000000
00000000
,
00000000
00000000
00000000
00000000
00000000
00000000
00000000
00000000
00000000
00000000
00000000
00000000
00000000
00011000
00000000
00000000
;

//---------------dance-single - ----------------
#NOTES:
     dance-single:
     :
     Beginner:
     3:
     0.135,0.216,0.165,0.000,0.000:
1000
0000
0000
0000
,
0100
0000
0000
0000
,
1000
0000
0000
0000
,
0000
0000
0000
0000
,
0001
0000
0000
0000
,
0100
0000
0000
0000
,
0001
0000
0000
0000
,
0000
0000
0000
0000
,
1001
0000
0000
0000
,
0001
0000
0000
0000
,
1001
0000
0000
0000
,
1000
0000
0000
0000
,
1001
0000
0000
0000
,
0001
0000
0000
0000
,
1001
0000
0000
0000
,
1000
0000
0000
0000
,
0010
0000
0000
0000
,
0100
0000
0000
0000
,
0010
0000
0000
0000
,
0100
0000
0000
0000
,
0001
0000
0000
0000
,
0010
0000
0000
0000
,
0001
0000
0000
0000
,
0010
0000
0000
0000
,
0100
0000
0000
0000
,
0100
0000
0000
0000
,
0100
0000
0000
0000
,
1000
0000
0000
0000
,
0001
0000
0000
0000
,
0001
0000
0000
0000
,
0001
0000
0000
0000
,
0010
0000
0000
0000
,
0001
0000
0000
0000
,
0010
0000
0000
0000
,
0001
0000
0000
0000
,
0010
0000
0000
0000
,
0001
0000
0000
0000
,
0010
0000
0000
0000
,
0001
0000
0000
0000
,
1000
0000
0000
0000
,
1001
0000
0000
0000
,
0000
0000
0100
0000
,
1001
0000
0000
0000
,
0000
0000
0100
0000
,
1001
0000
0000
0000
,
0000
0000
0100
0000
,
1001
0000
0000
0000
,
1001
0000
0000
0000
,
0010
0000
0000
0000
,
0100
0000
0000
0000
,
0010
0000
0000
0000
,
0100
0000
0010
0000
,
0100
0000
0000
0000
,
0001
0000
0000
0000
,
0100
0000
0000
0000
,
0001
0000
0100
0000
,
0001
0000
0000
0000
,
0000
0000
0000
0000
,
0000
0000
0000
0000
,
1001
0000
0000
0000
,
1000
0000
0000
0000
,
1000
0000
0000
0000
,
1000
0000
0000
0000
,
0000
0000
0000
0000
,
0100
0000
1000
0000
,
0100
0000
1000
0000
,
0100
0000
0000
0000
,
0000
0000
0000
0000
,
0000
1001
0000
1001
,
0000
0000
0000
0000
,
0000
1001
0000
1001
,
0000
0000
0000
0000
,
0010
0000
0100
0000
,
0010
0000
0100
0000
,
0010
0000
0100
0000
,
0010
0000
0000
0000
,
1000
0000
0001
0000
,
1000
0000
0001
0000
,
1000
0000
0001
0000
,
1000
0000
0000
0000
,
1001
0000
0000
1001
,
0000
0000
1001
0000
,
0000
0001
0000
0000
,
0000
1001
0000
0000
,
0000
1001
0000
0000
,
0000
1001
0000
0000
,
0000
0010
0000
0100
,
0000
1000
0000
0000
;
