#TITLE:HADROS GALE;
#SUBTITLE:;
#ARTIST:がるる+ふりらい;
#TITLETRANSLIT:;
#SUBTITLETRANSLIT:;
#ARTISTTRANSLIT:GARURU+HURIRAI;
#CREDIT:DigiMindAxel;
#BANNER:HADROS GALE.png;
#BACKGROUND:HADROS GALE-bg.png;
#LYRICSPATH:;
#CDTITLE:pop'n music.png;
#MUSIC:HADROS GALE.ogg;
#METERTYPE:DDR X;
#OFFSET:-0.749;
#SAMPLESTART:12.153;
#SAMPLELENGTH:12.000;
#SELECTABLE:YES;
#BPMS:0.000=168.000;
#STOPS:140.000=0.179
,140.500=0.179
,141.000=0.179
,141.500=0.179
;
#BGCHANGES:;

//---------------dance-single - ----------------
#NOTES:
     dance-single:
     :
     Easy:
     6:
     0.274,0.366,0.090,0.148,0.000:
0000
0000
0000
0000
,
0000
0000
0000
0000
,
0000
0000
0000
0000
,
0000
0000
0000
0000
,
2002
0000
0000
3003
,
2002
0000
0000
3003
,
0220
0000
0000
0330
,
0220
0000
0000
0330
,
1000
0000
0100
1000
,
0100
0000
1000
0010
,
1000
0000
0001
1000
,
0001
0001
0001
0000
,
0010
0000
0100
1000
,
0100
0000
1000
0001
,
1000
0000
0001
0010
,
0001
0001
0001
0000
,
1000
0000
0100
1000
,
0100
0000
0010
0100
,
0010
0000
0001
0100
,
0001
0001
0001
0000
,
1000
0000
0010
0100
,
0010
0000
1000
0100
,
1000
0000
0001
1000
,
0001
0010
0100
1000
,
0010
0010
0010
0000
,
0100
0100
0100
0000
,
0010
0010
0010
0000
,
1000
0100
0100
1000
,
0001
0100
0001
0000
,
1000
0001
1000
0000
,
0100
1000
0100
0000
,
0010
0100
0010
0000
,
0001
1000
0001
0000
,
1000
0100
1000
0000
,
0001
0010
0100
1000
,
0001
0001
0001
0001
1000
0000
0100
0000
,
1000
0000
0010
0100
,
0010
0000
1000
0100
,
0010
0000
0001
0010
,
0100
1000
0002
0000
,
0000
0000
2003
0000
,
0000
0000
3001
0100
,
0001
1000
0100
0010
,
0001
1000
0020
0000
,
0000
0000
0230
0000
,
0000
0000
0301
1000
,
0001
1000
0100
1000
,
0100
1000
0020
0000
,
0000
0000
0230
0000
,
0000
0000
0301
0010
,
0001
0010
0001
1000
,
0001
1000
0200
0000
,
0000
0000
0320
0000
,
0000
0000
0031
0100
,
0001
1000
0100
0000
,
0000
0000
1001
0000
,
0000
0000
0000
0000
,
0000
0000
0001
0000
,
0000
0000
0000
0000
,
0000
0000
1001
0000
,
0000
0000
1000
0000
,
0000
0000
1001
0000
,
0001
0000
1001
0000
,
0000
0000
0010
0100
,
0010
0100
0001
0010
,
0001
0000
0100
0010
,
0100
0010
1000
0100
,
1000
0000
0001
1000
,
0001
1000
0001
0010
,
0001
0000
1000
0100
,
1000
0100
1000
1000
,
1000
1000
1001
0000
,
0010
0100
0010
0100
,
0001
0010
0100
0000
,
1000
0000
0010
0100
,
0010
0000
1000
0100
,
1000
0100
1000
0001
,
1000
0001
0100
0001
,
0100
0001
0110
0000
,
0000
0000
2002
0000
,
0000
0000
0000
0000
,
3003
0000
0000
0000
;

//---------------dance-single - ----------------
#NOTES:
     dance-single:
     :
     Medium:
     10:
     0.445,0.499,0.230,0.230,0.021:
0000
0000
0000
0000
,
0000
0000
0000
0000
,
0000
0000
0000
0000
,
0000
0000
0000
0000
0000
0000
0000
2000
,
0020
0000
0000
0000
0000
3030
0000
0020
,
0200
0000
0000
0000
0000
0330
0000
0020
,
0002
0000
0000
0033
,
0220
0000
0000
0330
,
0100
1000
0000
0010
0000
0010
0100
0000
,
0001
1000
0000
0010
0000
0010
0100
0000
,
0001
0010
0000
0100
0000
0100
0010
0000
,
0001
1000
0001
1000
0001
0000
1001
0000
,
0010
0001
0000
0100
0000
0100
0010
0000
,
1000
0100
0000
0010
0000
0010
0100
0000
,
1000
0001
0000
0010
0000
0100
0010
0000
,
0001
1000
0001
1000
0001
0000
1001
0000
,
0100
1000
0010
0100
0010
0000
0100
0000
,
0001
0000
0010
0100
1000
0000
0100
0000
,
0110
0000
0010
0001
0010
0000
0100
1000
,
0010
0100
0010
0100
0010
0000
0110
0000
,
0100
0001
0010
0000
0100
1000
0010
0000
,
1000
0100
0010
0000
0001
0010
0100
0000
,
1001
0000
1001
0000
,
0001
1000
0001
0000
0010
0000
0100
1000
,
0001
0010
1000
0010
,
0001
0100
1000
0100
,
0001
0010
1000
0010
,
0001
0100
1000
0100
,
0001
1000
0000
0100
0000
0100
0010
0000
,
0001
0100
0000
0001
0000
0001
1000
0000
,
0100
0010
0000
0100
0000
0100
1000
0000
,
0010
0100
0010
0100
0010
0000
0110
0000
,
1000
0010
0001
0010
,
1000
0100
0001
0100
,
1000
0010
0001
0010
,
1001
1001
1001
1001
1000
0001
0000
0010
,
0000
0010
0100
0000
1000
0010
0000
1000
,
0000
1000
0001
0000
0010
0100
0000
1000
,
0000
1000
0010
0000
0100
0001
0100
0001
,
1000
0100
1000
0000
1001
0000
0010
0000
,
0100
1000
0100
0010
,
0001
0000
1000
0000
0010
0100
0010
0000
,
1000
0100
0010
0000
0001
1000
0001
0000
,
0100
0010
1000
0000
1001
0000
0100
0000
,
0010
0001
0010
0100
,
1000
0000
0010
0000
2000
0001
0000
0000
,
3001
0000
1000
0000
0100
0010
0100
0000
,
1000
0001
1000
0000
0110
0000
0001
0000
,
0010
0100
1000
0010
,
0100
0000
0001
0000
0100
0010
0000
1000
,
0000
1000
0100
0000
0010
0001
0000
0100
,
0000
0100
0010
0000
1001
0000
0010
0000
,
0100
0000
1000
0001
0100
0000
0010
0000
,
0100
0000
0010
0000
1000
0100
0010
0000
,
0001
0010
0100
0000
2200
0000
0000
0000
,
0000
3300
2002
0000
,
0000
0000
0000
0000
,
0000
3003
0202
0000
,
0000
0000
0000
0000
,
0000
0303
2002
0000
,
0000
3003
0220
0000
,
0000
0330
2001
0000
,
3002
0000
2000
0000
,
0000
0000
0000
0000
3003
0000
0000
0000
0100
0000
0000
1000
0000
0000
0100
0000
,
0000
0000
1000
0000
0001
0000
0000
0000
0010
0000
0000
0100
0000
0000
0010
0000
,
0000
0001
0100
0000
0001
0010
0100
0000
,
1000
0000
0100
0000
0010
0000
0000
0000
0001
0000
0000
1000
0000
0000
0001
0000
,
0000
0000
0100
0000
0010
0000
0000
0000
1000
0000
0000
0100
0000
0000
1000
0000
,
0000
0000
0010
0000
0100
0000
0000
0000
0001
0000
0000
0100
0000
0000
0001
0000
,
0000
1000
0001
0000
0010
0100
1000
0000
,
0001
0010
0100
0000
1000
0010
0000
1000
,
0001
1000
1001
0020
,
0100
0000
0130
0001
0010
0000
0100
0000
,
1000
0000
0010
0000
0100
0001
0100
0001
,
1000
0100
0020
0001
,
0031
0000
0200
0010
,
0310
1000
0100
0000
0020
0000
0001
0000
,
0031
1000
0100
0000
1001
0000
0000
0110
,
0000
0000
0001
0000
1001
0000
0000
0110
,
0000
1000
2002
0000
,
0000
0000
0000
0000
,
3003
0000
0000
0000
;

//---------------dance-single - ----------------
#NOTES:
     dance-single:
     :
     Hard:
     12:
     0.576,0.632,0.189,0.148,0.205:
0000
0000
0000
0000
,
0000
0000
0000
0000
,
0000
0000
0000
0000
,
0000
0000
0000
0000
0000
0000
0000
0001
,
1000
0000
0000
1000
0000
0000
1001
0000
0000
0000
0000
0000
0000
0000
1000
0000
,
0001
0000
0000
0001
0000
0000
1001
0000
0000
0000
0000
0000
0000
0000
0010
0000
,
0100
0000
0000
0100
0000
0000
0100
0000
0000
0100
0000
0000
0100
0000
0010
0000
,
2000
0000
0000
3001
,
1000
0010
0000
1000
0010
1000
0001
0010
,
0100
0000
0000
1000
0000
0000
0001
0000
0000
1000
0000
0000
0001
0000
0100
0000
,
0010
0000
0000
0100
0000
0000
0010
0000
0000
0100
0000
0000
0001
0000
1000
0000
,
0100
0000
0000
0100
0000
0000
0100
0000
0000
0000
0010
0000
0100
0000
1000
0000
,
0010
0100
0000
0010
0100
0010
1000
0100
,
0010
0000
0000
0001
0000
0000
0010
0000
0000
0001
0000
0000
0100
0000
0010
0000
,
1000
0000
0000
0100
0000
0000
0010
0000
0000
0100
0000
0000
1000
0000
0001
0000
,
0010
0000
0000
0010
0000
0000
0010
0000
0100
0000
1000
0000
0010
0000
0000
0000
,
0100
0001
0100
0001
1000
0100
0010
0000
,
0001
0000
1000
0000
0001
0000
1000
0100
0010
0000
0000
0001
0000
0000
1000
0000
,
0100
0010
0100
0010
0001
0100
0010
0000
,
1000
0000
0000
1000
0000
0000
1001
0000
0000
0000
0001
0000
0100
0000
0010
0000
,
1000
0100
1000
0100
0001
0100
1000
0000
,
1010
0010
0100
0010
0001
1000
0010
0000
,
0110
0000
0100
0000
0001
0000
0010
0000
0100
1000
0100
0000
1000
0000
0001
0000
,
0010
0010
0010
0000
0100
0100
0100
1000
,
0001
0100
1000
0000
0100
0001
1000
0000
,
0100
0010
0001
0010
0100
0010
0001
0000
,
1000
0100
0001
0000
0100
1000
0001
0000
,
0010
0001
0100
0000
0010
1000
0100
0010
,
0001
0100
0000
0001
0100
0001
1000
0100
,
0010
0000
0000
0001
0000
0000
0100
0000
0000
0010
0000
0000
0100
0000
0000
0000
,
0001
0000
0000
1000
0000
0000
0100
0000
0000
1000
0000
0000
0001
0000
0000
0000
,
0100
0000
0000
0100
0000
0000
0100
0000
0001
0000
0010
0000
0100
0000
1000
0000
,
0010
0100
0001
0000
1000
0100
0001
0100
,
1000
0001
0010
0000
0001
0010
1000
0010
,
0001
1000
0001
1000
0010
0100
0010
0000
,
0110
0110
1100
0101
0100
0010
0000
0100
,
0010
0000
1000
0000
0100
0000
0010
0000
0100
0000
0000
1000
0000
0000
0010
0000
,
0000
1000
0000
0000
0100
0000
0000
0000
0010
0000
0000
0001
0000
0000
0010
0000
,
0000
0100
0000
0000
0010
0000
0000
0000
0001
0100
0000
0001
0100
0000
0001
1000
,
0000
0001
1000
0000
0100
0000
0010
0000
0200
0000
0000
0000
1000
0000
0000
0000
,
1000
1300
0020
0100
,
0100
0000
0000
0000
0130
0000
0000
0000
0001
0000
0100
0000
0000
0010
0000
0000
,
0100
0000
0000
0001
0000
0000
0010
0000
0000
0000
0100
0000
0000
1000
0000
0000
,
0010
0100
0010
0100
0002
0000
0100
0000
,
0100
0103
0020
0100
,
0100
0000
0130
0000
0001
0010
0000
0001
,
0010
0001
0100
0010
1000
0100
0001
0100
,
1000
0000
0000
0001
0000
0000
1000
0000
1002
0000
0000
0000
0010
0000
0000
0000
,
0010
0013
0200
0010
,
0010
0000
0000
0000
0310
0000
0000
0000
0001
0000
1000
0000
0000
0100
0000
0000
,
0010
0000
0000
0100
0000
0000
1000
0000
0000
0000
0010
0000
0000
0100
0000
0000
,
0010
1000
0001
0010
0200
0000
1000
0000
,
1000
0000
1300
0010
0200
0000
0001
0000
,
0001
0000
0301
0000
1000
0100
0010
0001
,
1000
0100
0010
0001
0200
0000
0000
0000
,
0000
0300
1002
1000
,
1000
1000
1000
1000
,
1000
1003
0021
0001
,
0001
0001
0001
0001
,
0001
0031
0210
0010
,
0010
0310
2001
0001
,
0001
0000
3001
0000
0110
0010
0100
0000
,
1001
1000
0001
0010
0200
0000
0000
0000
,
1000
0000
1000
0000
1300
0000
0000
0000
0001
0000
0000
0100
0000
0000
1000
0000
,
0000
0000
0100
0000
0010
0000
1000
0000
0001
0000
0000
0010
0000
0000
1000
0000
,
0000
0010
0100
1000
0001
0010
1000
0010
,
0001
0000
0010
0000
0100
0000
1000
0000
0001
0000
0000
0100
0000
0000
0010
0000
,
0000
0100
0000
0000
0001
0000
0000
0000
1000
0000
0000
0010
0000
0000
0001
0000
,
0000
0000
0010
0000
0100
0000
0001
0000
1000
0000
0000
0100
0000
0000
0001
0000
,
0000
0100
0010
0001
1000
0010
0001
0010
,
1000
0100
0010
0001
0100
1000
0001
0010
,
1000
1001
0110
0201
,
0010
0000
0310
1000
0100
0010
0100
1000
,
0000
0010
1000
0001
0010
1000
0010
0001
,
0100
1000
0100
0001
1000
0010
1000
0010
,
0100
0000
0001
0000
0010
0000
0100
0000
0000
0000
0000
0000
1001
0000
0000
0001
0000
0000
1000
0000
0000
0001
0000
0000
,
1000
0100
0001
0100
1000
0001
1000
0001
,
0010
0000
1000
0000
0010
0000
0001
0000
0100
0000
0000
0100
0000
0000
0010
0000
,
0000
0010
0000
0000
1000
0000
0001
0000
1001
0000
0000
1000
0000
0000
1001
0000
,
0000
0001
0000
0000
0001
0000
0100
0000
0220
0000
0000
0000
0000
0000
0000
0000
,
0000
0000
0000
0000
,
0330
0000
0000
0000
;

//---------------dance-single - ----------------
#NOTES:
     dance-single:
     :
     Challenge:
     15:
     0.789,0.799,0.542,0.156,0.567:
0000
0000
0000
0000
,
0000
0000
0000
0000
,
0000
0000
0000
0000
,
0000
0000
0000
0000
0000
0000
0000
0001
,
0110
0000
0000
0110
0000
0000
0110
0000
0000
0000
0000
0000
0000
0000
1000
0000
,
0110
0000
0000
0110
0000
0000
0110
0000
0000
0000
0000
0000
0000
0000
0001
0000
,
0110
0000
0000
0110
0000
0000
1010
0000
0000
1010
0000
0000
1000
0000
0001
0000
,
0010
0100
1000
0001
0010
0100
0100
0100
,
0010
0000
0011
0000
0000
0000
0100
0000
0010
1000
0000
0000
0100
0000
0010
0000
,
0001
0000
0000
0101
0000
0000
0100
0000
0000
0110
0000
0000
0010
0000
1000
0000
,
0100
0000
0000
0110
0000
0000
0010
0000
0000
0011
0000
0000
0001
0000
0100
0000
,
0010
1000
0000
0010
1000
0000
0010
1000
0000
0000
0001
0000
0010
0000
0100
0000
,
1000
0000
1010
0000
0000
0000
0010
0000
0100
0001
0000
0000
0010
0000
0100
0000
,
1000
0000
0000
1001
0000
0000
0001
0000
0000
0011
0000
0000
0010
0000
0100
0000
,
1000
0000
0000
1010
0000
0000
0010
0000
0000
0110
0000
0000
0100
0000
0010
0000
,
0001
1000
0000
0100
1000
0000
0100
0010
0100
0000
1000
0100
0010
0000
0001
0000
,
0100
0000
0001
0100
0001
0000
1000
0000
0100
1000
0100
0000
0010
0000
0001
0000
,
0100
0000
0010
0100
0010
0000
1000
0100
0020
0000
0000
0001
0000
0000
0031
0000
,
1000
0000
0001
0100
0001
0000
1000
0000
0100
0010
0100
0000
1000
0000
0001
0000
,
0100
0001
0000
0100
0001
0000
0100
0001
0000
0000
0010
0000
0100
0000
1000
0000
,
0001
0000
1000
0100
1000
0000
0001
0000
1000
0100
1000
0000
0010
0000
0100
0000
,
0001
0000
0010
0100
1000
0000
0001
0000
0010
0100
1000
0000
0001
0000
0100
0000
,
0001
0000
0010
0100
0010
0100
1000
0000
0001
0100
0001
0100
0010
0000
1000
0000
,
0100
0010
0000
0100
0010
0000
0000
0000
0001
0000
1000
0000
1001
0000
0000
0000
,
1000
0100
1000
0100
0001
0100
1000
0000
,
0001
0001
0100
0100
0001
0010
0100
0000
,
1000
0010
1000
0010
0001
0010
1000
0000
,
0100
0010
0100
1000
0001
0010
0100
1000
,
0001
0000
0101
0000
0000
0000
0110
0000
0010
1000
0000
0000
0100
0000
0010
0000
,
0001
0000
0000
0101
0000
0000
0100
0000
0000
0110
0000
0000
0010
0000
1000
0000
,
0100
0000
0000
0110
0000
0000
0010
0000
0000
0011
0000
0000
0001
0000
1000
0000
,
0100
0010
0000
0100
0010
0000
0100
0010
0001
0000
1000
0000
0100
0000
0010
0000
,
0001
0100
0001
0100
1000
0100
0001
1000
,
1000
0100
1000
0100
0001
0100
1000
0001
,
0001
0000
0100
0000
0010
0000
0100
0000
0001
0000
1000
0000
0100
0010
0100
0000
,
1100
0011
1100
0011
0001
1001
0000
1100
,
1000
0001
0000
0000
0010
0000
0001
0000
0100
0000
0000
0110
0000
0000
0010
0000
,
0000
1010
0000
0000
1000
0000
0100
0000
0010
0000
0000
0011
0000
0000
0001
0000
,
0000
1001
0000
0000
1000
0000
0010
0000
0100
0001
0000
0010
0100
0000
1000
0010
,
1000
0100
0010
0001
0200
0000
0010
0000
,
0001
0000
0310
1000
0200
0000
0010
0000
,
0001
0000
0000
0000
0310
0000
0000
0000
1000
0000
0100
0000
0000
1100
0000
0000
,
0010
0000
0000
0110
0000
0000
0100
0000
0000
0000
1001
0000
0000
0101
0000
0000
,
0100
0001
0010
0100
2000
0000
0001
0000
,
0100
3001
0020
0001
,
0100
0000
0000
0000
0031
0000
0000
0000
1000
0000
0002
0000
0000
0000
1003
0001
,
1000
0000
0010
1000
0010
1000
0001
0000
0010
0000
0100
0000
0010
0000
0001
0000
,
0101
0000
0000
1010
0000
0000
0101
0000
0120
0000
0000
0000
1000
0000
0000
0000
,
0100
1030
0002
1000
,
0010
0000
0000
0000
1003
0000
0000
0000
0001
0000
0101
0000
0000
0100
0000
0000
,
0110
0000
0000
0010
0000
0000
1010
0000
0000
0000
1001
0000
0000
0101
0000
0000
,
0001
1000
0100
0010
0002
0000
0100
0000
,
0010
0000
0000
0000
0103
0000
0001
1000
0001
0000
0010
0000
0100
0000
1000
0000
,
0010
0100
0010
0000
0100
0010
0100
0000
0001
0000
0010
0000
1000
0000
0010
0000
,
0001
0100
1000
0100
0002
0000
0000
0000
,
0000
0000
0000
0000
0003
0000
0000
0000
1000
0000
0001
0100
0000
0001
0100
0000
,
0001
0100
0000
0001
0100
0000
0001
0010
0100
1000
0001
0000
1000
0001
0000
1000
,
0001
0000
0010
0100
1000
0000
0001
0000
0101
0000
0100
0000
0000
0000
0001
0000
,
1000
0100
0000
1000
0000
0010
0100
0000
0001
0000
1000
0000
0100
0000
1000
0000
,
0001
0010
0100
1000
1100
0010
0001
0010
,
0100
0010
0001
0000
0011
0100
1000
0100
,
0010
0000
0100
0000
1000
0000
0001
0000
0100
0001
0100
0000
0010
1000
0010
0000
,
0100
0010
0100
0010
1000
0100
1000
0100
0020
0000
0000
0000
0000
0000
0031
0100
,
0001
0100
0010
0000
0110
0000
0000
0000
1000
0001
0000
0001
0100
0000
0020
0000
,
0000
0000
1030
0000
0100
0010
0001
0000
0100
0010
0000
0010
1000
0000
0002
0000
,
0000
0000
1003
0000
0001
0010
0100
0000
0010
0001
0010
0001
0100
0000
0001
1000
,
0001
1000
0100
0000
0010
0000
0010
0000
0001
0100
0000
0001
1000
0000
0001
0100
,
0000
0001
1000
0000
0100
0000
0100
0000
0010
0001
0000
0001
0100
0000
0020
0000
,
0000
0000
0130
0000
0001
0000
0010
0000
0100
1000
0000
1000
0001
0000
0200
0000
,
0000
0000
0301
0000
1000
0000
0100
0000
0010
0000
0001
0100
0010
0000
1000
0000
,
0100
0010
0000
0010
0001
0000
1000
0000
0001
0010
0100
1000
0000
0001
0010
0100
,
1000
1001
0100
0120
,
1000
0000
0000
0000
0130
0001
1000
0000
0100
0000
0001
0000
0100
0000
2000
0000
,
0000
0000
3001
0000
0100
0000
0010
0000
1000
0010
1000
0000
0001
1000
0001
1000
,
0100
0000
0010
0000
0001
0000
0100
0000
0010
0100
0010
0000
1000
0000
0001
0000
,
0010
0000
0000
0000
0100
0000
0000
0000
1000
0000
0000
0000
0010
0000
0000
0000
0000
0000
0000
0000
1000
0000
0000
0000
0001
0000
0000
0100
0000
0000
0001
0000
0000
0100
0000
0000
0001
0000
0000
0100
0000
0000
0001
0000
0000
0100
0000
0000
,
0010
0000
1000
0000
0001
1000
0001
0000
1000
0010
1000
0010
1000
0010
1000
0100
,
0010
0000
0001
0000
1000
0010
1000
0000
1001
0000
0000
0011
0000
0000
1100
0000
,
0000
1001
0000
0000
0010
0000
0100
0000
0110
0000
0000
0101
0000
0000
1010
0000
,
0000
0110
0000
0000
1100
0000
1000
0000
2002
0000
0000
0000
0000
0000
0000
0000
,
0000
0000
0000
0000
,
3003
0000
0000
0000
;

//---------------dance-double - ----------------
#NOTES:
     dance-double:
     :
     Easy:
     6:
     0.294,0.366,0.173,0.181,0.000:
00000000
00000000
00000000
00000000
,
00000000
00000000
00000000
00000000
,
00000000
00000000
00000000
00000000
,
00000000
00000000
00000000
00000000
,
20020000
00000000
00000000
30030000
,
20020000
00000000
00000000
30030000
,
02200000
00000000
00000000
03300000
,
02200000
00000000
00000000
03300000
,
01000000
00000000
10000000
01000000
,
10000000
00000000
00100000
01000000
,
00100000
00000000
01000000
00001000
,
00010000
00010000
00010000
00000000
,
00000100
00000000
00000010
00000001
,
00000010
00000000
00000100
00000010
,
00000100
00000000
00010000
00001000
,
00100000
00100000
00100000
00000000
,
01000000
00000000
10000000
00100000
,
10000000
00000000
00010000
10000000
,
00010000
00000000
00100000
00001000
,
00010000
00010000
00010000
00000000
,
00000010
00000000
00000100
00000001
,
00000100
00000000
00000001
00001000
,
00000001
00000000
00000010
00000100
,
00000010
00000100
00010000
00001000
,
01000000
01000000
01000000
00000000
,
00100000
00100000
00100000
00000000
,
01000000
01000000
01000000
00000000
,
00010000
10000000
00010000
01000000
,
00100000
00100000
00100000
00000000
,
10000000
10000000
10000000
00000000
,
00010000
01000000
00010000
01000000
,
00001000
00010000
00001000
00000000
,
00010000
00010000
00010000
00000000
,
00000010
00000010
00000010
00000000
,
00001000
00001000
00001000
00000100
,
00000010
00000010
00000010
00000010
00000100
00000000
00001000
00000000
,
00000100
00000000
00000010
00000100
,
00000010
00000000
00000001
00000100
,
00000010
00000000
00000100
00000010
,
00010000
00001000
00200000
00000000
,
00000000
00000000
02300000
00000000
,
00000000
00000000
13000000
10000000
,
10010000
10010000
00100000
00100000
,
01100000
01100000
02000000
00000000
,
00000000
00000000
03002000
00000000
,
00000000
00000000
00013000
00000010
,
00010000
00000010
00000100
00000001
,
00000010
00000100
00020000
00000000
,
00000000
00000000
00032000
00000000
,
00000000
00000000
00103000
00100000
,
01100000
01100000
10000000
10000000
,
10010000
10010000
00020000
00000000
,
00000000
00000000
02030000
00000000
,
00000000
00000000
03001000
00010000
,
00001000
00010000
00000010
00000000
,
00000000
00000000
00000110
00000000
,
00000000
00000000
00000000
00000000
,
00000000
00000000
00001001
00000000
,
00000000
00000000
00000000
00000000
,
00000000
00000000
01100000
00000000
,
00000000
00000000
10010000
00000000
,
00000000
00000000
00100000
01000000
,
00100000
01000000
02200000
00000000
,
00000000
03300000
01000000
00010000
,
01000000
00010000
00100000
01000000
,
00100000
00000000
00001000
00010000
,
00001000
00010000
00000010
00001000
,
00000001
00000000
00000010
00000100
,
00000010
00000100
00010000
00001000
,
00100000
00000000
01000000
10000000
,
01000000
10000000
00001000
00001000
,
00001000
00001000
00000000
00011000
,
00010000
00000010
00000100
00000010
,
00010000
00000010
00000100
00000000
,
00000001
00000000
00000010
00000100
,
00000110
00000000
00000001
00000010
,
00000100
00000010
00000001
00000010
,
00000100
00010000
00001000
00010000
,
00001000
01000000
02200000
00000000
,
00000000
03300000
20020000
00000000
,
00000000
00000000
00000000
00000000
,
30030000
00000000
00000000
00000000
;

//---------------dance-double - ----------------
#NOTES:
     dance-double:
     :
     Medium:
     10:
     0.456,0.533,0.263,0.230,0.021:
00000000
00000000
00000000
00000000
,
00000000
00000000
00000000
00000000
,
00000000
00000000
00000000
00000000
,
00000000
00000000
00000000
00000000
00000000
00000000
00000000
20000000
,
00200000
00000000
00000000
00000000
00000000
30300000
00000000
00200000
,
02000000
00000000
00000000
00000000
00000000
03300000
00000000
00200000
,
00020000
00000000
00000000
00330000
,
20002000
00000000
00000000
30003000
,
00001000
00010000
00000000
00000010
00000000
00000010
00000100
00000000
,
00000001
00000010
00000000
00000100
00000000
00000100
00000010
00000000
,
00000001
00000100
00000000
00000010
00000000
00000010
00010000
00000000
,
00001000
00001000
00100000
00100000
01000000
00000000
01100000
00000000
,
10000000
00100000
00000000
01000000
00000000
01000000
00100000
00000000
,
10000000
01000000
00000000
00100000
00000000
00100000
01000000
00000000
,
10000000
00010000
00000000
00010000
00000000
00010000
00100000
00000000
,
00001000
00001000
00010000
00010000
00000100
00000010
00000001
00000000
,
00000100
00000001
00000010
00000100
00000010
00000000
00000001
00000000
,
00000100
00000000
00000010
00010000
00002000
00000000
00010000
00000000
,
00013000
00100000
01000000
00000000
00100000
01000000
10000000
00000000
,
00100000
01000000
00100000
01000000
00100000
00000000
01100000
00000000
,
01000000
00010000
00100000
00000000
01000000
10000000
00100000
00000000
,
10000000
01000000
00100000
00000000
00001000
00100000
00010000
00000000
,
00011000
00000000
00010010
00000000
,
00000010
00000010
00000010
00000000
00000100
00000100
00000100
00000000
,
00000110
00000010
00000001
00000010
,
00000100
00010000
01000000
00100000
,
10000000
00100000
00010000
00100000
,
10000000
01000000
00010000
01000000
,
10000000
00100000
00000000
01000000
00000000
01000000
00100000
00000000
,
01000000
00001000
00000000
00010000
00000000
00010000
00000100
00000000
,
00000010
00000001
00000000
00000010
00000000
00000010
00000100
00000000
,
00010000
00010000
00001000
00001000
00100000
00000000
01100000
00000000
,
01000000
10000000
00100000
01000000
,
00011000
00001000
00000010
00000100
,
00001001
00001000
00000100
00000010
,
00001001
00001001
00001001
00001001
00000001
00001000
00000000
00000010
,
00000000
00000010
00000100
00000000
00000010
00010000
00000000
00001000
,
00000000
00001000
00100000
00000000
01000000
00100000
00000000
00010000
,
00000000
00010000
00100000
00000000
01000000
10000000
01000000
10000000
,
00100000
01000000
00010000
00000000
10010000
00000000
00100000
00000000
,
01000000
10000000
01000000
00100000
,
00010000
00000000
00001000
00000000
00000010
00000100
00000010
00000000
,
00001000
00000100
00000010
00000000
00000001
00000100
00000001
00000000
,
00000010
00000100
00010000
00000000
00011000
00000000
00001000
00000000
,
01000000
00100000
01000000
00001000
,
01000000
00000000
00100000
00000000
20000000
00010000
00000000
00000000
,
30010000
00000000
10000000
00000000
01000000
00100000
01000000
00000000
,
10000000
00010000
10000000
00000000
01100000
00000000
00100000
00000000
,
01000000
00010000
00001000
00000010
,
00000100
00000000
00000001
00000000
00000100
00000010
00000000
00001000
,
00000000
00001000
00000001
00000000
00000010
00000100
00000000
00010000
,
00000000
00010000
00001000
00000000
00011000
00000000
00001000
00000000
,
01000000
00000000
00100000
01000000
00100000
00000000
01000000
00000000
,
00001000
00000000
00100000
00000000
01000000
10000000
01000000
10000000
,
00010000
00100000
01000000
00000000
22000000
00000000
00000000
00000000
,
00000000
33000000
20020000
00000000
,
00000000
00000000
00000000
00000000
,
00000000
30030000
02002000
00000000
,
00000000
00000000
00000000
00000000
,
00000000
03003000
00022000
00000000
,
00000000
00033000
00020020
00000000
,
00000000
00030030
00000210
00000000
,
00000320
00000000
00000200
00000000
,
00000000
00000000
00000000
00000000
00000330
00000000
00000000
00000000
00000100
00000000
00000000
00000100
00000000
00000000
00000100
00000000
,
00000000
00000000
00000010
00000000
00000100
00000000
00000000
00000000
00000001
00000000
00000000
00000001
00000000
00000000
00000001
00000000
,
00000000
00001000
00000001
00000000
00000010
00000100
00001000
00000000
,
00100000
00000000
01000000
00000000
10000000
00000000
00000000
00000000
00010000
00000000
00000000
00010000
00000000
00000000
00010000
00000000
,
00000000
00000000
10000000
00000000
00010000
00000000
00000000
00000000
01000000
00000000
00000000
01000000
00000000
00000000
01000000
00000000
,
00000000
00000000
00100000
00000000
01000000
00000000
00000000
00000000
00010000
00000000
00000000
00010000
00000000
00000000
00010000
00000000
,
00000000
10000000
00001000
00000000
00010000
00000010
00000100
00000000
,
00000010
00000100
00000001
00000000
00000010
00000100
00001000
00000100
,
00000010
00000010
00000110
00020010
,
00001000
00000000
00031000
00100000
01000000
00000000
10000000
00100000
,
10000000
00100000
01000000
00000000
00010000
00100000
01000000
00100000
,
00001000
00010000
00000010
00000100
,
00000110
00000000
00002001
00000010
,
00003010
00010000
00001000
00000000
00200000
00000000
01000000
00000000
,
01300000
10000000
00010000
00000000
10010000
00000000
00000000
01001000
,
00000000
00000000
00010000
00000000
00011000
00000000
00000000
00010010
,
00000000
00000100
00000220
00000000
,
00000000
00000000
00000000
00000000
,
00000330
00000000
00000000
00000000
;

//---------------dance-double - ----------------
#NOTES:
     dance-double:
     :
     Hard:
     13:
     0.605,0.632,0.296,0.107,0.238:
00000000
00000000
00000000
00000000
,
00000000
00000000
00000000
00000000
,
00000000
00000000
00000000
00000000
,
00000000
00000000
00000000
00000000
00000000
00000000
00000000
00100000
,
01000000
00000000
00000000
01000000
00000000
00000000
01100000
00000000
00000000
00000000
00000000
00000000
00000000
00000000
01000000
00000000
,
00100000
00000000
00000000
00100000
00000000
00000000
01100000
00000000
00000000
00000000
00000000
00000000
00000000
00000000
10000000
00000000
,
00100000
00000000
00000000
01000000
00000000
00000000
00001000
00000000
00000000
00010000
00000000
00000000
00000100
00000000
00000010
00000000
,
00000002
00001000
00001000
00001003
,
00000001
00000100
00000000
00000001
00000100
00000001
00001000
00000100
,
00010000
00000000
00000000
00001000
00000000
00000000
00100000
00000000
00000000
01000000
00000000
00000000
10000000
00000000
00100000
00000000
,
01000000
00000000
00000000
00010000
00000000
00000000
01000000
00000000
00000000
00010000
00000000
00000000
00100000
00000000
00010000
00000000
,
00001000
00010000
00000000
00001000
00010000
00000000
00001000
00010000
00000000
00000000
00000010
00000000
00000010
00000000
00000100
00000000
,
00000001
00000010
00000000
00000001
00000010
00000001
00000100
00000010
,
00010000
00000000
00000000
00001000
00000000
00000000
01000000
00000000
00000000
00100000
00000000
00000000
10000000
00000000
01000000
00000000
,
00100000
00000000
00000000
00010000
00000000
00000000
10000000
00000000
00000000
00010000
00000000
00000000
01000000
00000000
00001000
00000000
,
00010000
00001000
00000000
00010000
00001000
00000000
00010000
00001000
00010000
00000000
00000100
00000000
00000010
00000000
00000001
00000000
,
00000100
00000001
00000100
00000001
00000010
00000100
00001000
00000000
,
00010000
00000000
00001000
00000000
00100000
00000000
01000000
10000000
00100000
00000000
00000000
00100000
00000000
00000000
00100000
00000000
,
10000000
01000000
10000000
01000000
00100000
00010000
01000000
00000000
,
00001000
00010000
00000000
00001000
00010000
00000000
00001000
00010000
00000000
00000000
00000100
00000000
00000010
00000000
00000001
00000000
,
00001000
00000100
00000001
00000100
00001000
00000010
00010000
00000000
,
00011000
00001000
00100000
01000000
10000000
01000000
00100000
00000000
,
00011000
00000000
00010000
00000000
00000010
00000000
00000100
00000000
00000001
00000100
00000001
00000000
00000010
00000000
00000100
00000000
,
00010000
00010000
00010000
00000000
00001000
00001000
00001000
01000000
,
00100000
10000000
01000000
00000000
00100000
01000000
10000000
00000000
,
00010000
10000000
00100000
10000000
00010000
10000000
00100000
00000000
,
01000000
00001000
00010000
00000000
00001000
00010000
00000100
00000000
,
00000010
00000001
00000010
00000001
00000100
00000010
00001000
00000100
,
00010000
00001000
00000000
00010000
00001000
00100000
01000000
10000000
,
00100000
00000000
00000000
01000000
00000000
00000000
00010000
00000000
00000000
00100000
00000000
00000000
00001000
00000000
00000000
00000000
,
00010000
00000000
00000000
00000010
00000000
00000000
00000100
00000000
00000000
00000010
00000000
00000000
00010000
00000000
00000000
00000000
,
00001000
00010000
00000000
00001000
00010000
00000000
00001000
00010000
00001000
00000000
00100000
00000000
01000000
00000000
10000000
00000000
,
00010000
01000000
00100000
00000000
10000000
00010000
00100000
00010000
,
10000000
00010000
00100000
00000000
00010000
10000000
01000000
00100000
,
00101000
00000000
00001000
00010000
00000100
00000010
00000001
00000000
,
00001001
00001001
00000110
00000110
00000100
00000010
00000000
00000100
,
00000010
00000000
00001000
00000000
00010000
00000000
00100000
00000000
01000000
00000000
00000000
10000000
00000000
00000000
00100000
00000000
,
00000000
10000000
00000000
00000000
01000000
00000000
00000000
00000000
00100000
00000000
00000000
00001000
00000000
00000000
00010000
00000000
,
00000000
00000100
00000000
00000000
00000110
00000000
00000000
00000000
00001000
00010000
00000000
00001000
00010000
00000000
00001000
00010000
,
00000000
00001000
00010000
00000000
00100000
00000000
01000000
00000000
20000000
00000000
00000000
00000000
00100000
00000000
00000000
00000000
,
00100000
30100000
02000000
00001000
,
00001000
00000000
00000000
00000000
03001000
00000000
00000000
00000000
00010000
00000000
00000100
00000000
00000000
00000100
00000000
00000000
,
00000010
00000000
00000000
00000010
00000000
00000000
00000001
00000000
00000000
00000000
00000010
00000000
00000000
00000100
00000000
00000000
,
00010000
00001000
00100000
01000000
20000000
00000000
00010000
00000000
,
00010000
30010000
02000000
00010000
,
00010000
00000000
03010000
00000000
10000000
01000000
00000000
10000000
,
01000000
00100000
00010000
01000000
10000000
01000000
00001000
00010000
,
00000100
00000000
00000000
00000010
00000000
00000000
00000100
00000000
00000102
00000000
00000000
00000000
00000100
00000000
00000000
00000000
,
00000100
00000103
00000020
00000100
,
00000100
00000000
00000000
00000000
00000130
00000000
00000000
00000000
00000001
00000000
00001000
00000000
00000000
00000100
00000000
00000000
,
00010000
00000000
00000000
00001000
00000000
00000000
01000000
00000000
00000000
00000000
00100000
00000000
00000000
01000000
00000000
00000000
,
00100000
10000000
01000000
00100000
00002000
00000000
01000000
00000000
,
01000000
00000000
01003000
00001000
00020000
00000000
00000010
00000000
,
00000010
00000000
00030010
00000000
00010000
00000100
00000010
00000001
,
00000010
00000100
00010000
00001000
00020000
00000000
00000000
00000000
,
00000000
00030000
01001000
01000000
,
00001000
01000000
00001000
01000000
,
00100000
01000000
10010000
00010000
,
10000000
00010000
10000000
01000000
,
00100000
00001000
00011000
00010000
,
00000100
00010000
00000110
00000010
,
00000100
00000000
00000010
00000000
00001001
00000001
00000010
00000100
,
00011000
00001000
00100000
01000000
20000000
00000000
00000000
00000000
,
00100000
00000000
00100000
00000000
30100000
00000000
00000000
00000000
01100000
00000000
00000000
01000000
00000000
00000000
10010000
00000000
,
00000000
00000000
00010000
00000000
10000000
00000000
01000000
00000000
00100000
00000000
00000000
00001000
00000000
00000000
00011000
00000000
,
00000000
00010000
00000010
00000100
00000010
00010000
00000100
00000010
,
00000001
00000000
00000010
00000000
00000100
00000000
00010000
00000000
00001000
00000000
00000000
00100000
00000000
00000000
10000000
00000000
,
00000000
00100000
00000000
00000000
00001000
00000000
00000000
00000000
00011000
00000000
00000000
00010000
00000000
00000000
00010010
00000000
,
00000000
00000000
00000100
00000000
00000001
00000000
00000010
00000000
00000100
00000000
00000000
00010000
00000000
00000000
00011000
00000000
,
00000000
00001000
00100000
01000000
10000000
00100000
10000000
01000000
,
10000000
00100000
10000000
01000000
00010000
01000000
10000000
00100000
,
01000000
01001000
00011000
00010010
,
00000010
00000000
00000100
00000001
00000010
00001000
00000010
00000001
,
00000000
00000100
00000010
00001000
00000100
00000001
00000100
00010000
,
00001000
01000000
10000000
01000000
00001000
00100000
01000000
10000000
,
00100000
00000000
01000000
00000000
00001000
00000000
00100000
00000000
00000000
00000000
00000000
00000000
01100000
00000000
00000000
00100000
00000000
00000000
01000000
00000000
00000000
10000000
00000000
00000000
,
01000000
00100000
00001000
00010000
00000100
00000010
00000001
00000010
,
00000100
00000000
00010000
00000000
00001000
00000000
00100000
00000000
01100000
00000000
00000000
01100000
00000000
00000000
11000000
00000000
,
00000000
11000000
00000000
00000000
00100000
00000000
00001000
00000000
01001000
00000000
00000000
00011000
00000000
00000000
01001000
00000000
,
00000000
00011000
00000000
00000000
00010000
00000000
00000010
00000000
00000220
00000000
00000000
00000000
00000000
00000000
00000000
00000000
,
00000000
00000000
00000000
00000000
,
00000330
00000000
00000000
00000000
;

//---------------dance-double - ----------------
#NOTES:
     dance-double:
     :
     Challenge:
     15:
     0.824,0.799,0.740,0.099,0.571:
00000000
00000000
00000000
00000000
,
00000000
00000000
00000000
00000000
,
00000000
00000000
00000000
00000000
,
00000000
00000000
00000000
00000000
00000000
00000000
00000000
10000000
,
01100000
00000000
00000000
01100000
00000000
00000000
01100000
00000000
00000000
00000000
00000000
00000000
00000000
00000000
00100000
00000000
,
00011000
00000000
00000000
00011000
00000000
00000000
00011000
00000000
00000000
00000000
00000000
00000000
00000000
00000000
00000010
00000000
,
00001001
00000000
00000000
00001001
00000000
00000000
00000101
00000000
00000000
00000101
00000000
00000000
00000001
00000000
00000010
00000000
,
00000100
00010000
00001000
00100000
01000000
10000000
10000000
10000000
,
00100000
00000000
01100000
00000000
00000000
00000000
00100000
00000000
10000000
01000000
00000000
00000000
10000000
00000000
00100000
00000000
,
01000000
00000000
00000000
01010000
00000000
00000000
01001000
00000000
00000000
01010000
00000000
00000000
01001000
00000000
00001000
00000000
,
00010000
00000000
00000000
00010010
00000000
00000000
00000110
00000000
00000000
00010010
00000000
00000000
00000110
00000000
00000100
00000000
,
00000001
00000010
00000000
00000001
00000010
00000000
00000001
00000010
00000000
00000000
00000100
00000000
00001000
00000000
00010000
00000000
,
01000000
00000000
01100000
00000000
00000000
00000000
01000000
00000000
00010000
00100000
00000000
00000000
00001000
00000000
00010000
00000000
,
00000010
00000000
00000000
00000110
00000000
00000000
00010010
00000000
00000000
00000110
00000000
00000000
00010010
00000000
00010000
00000000
,
00000001
00000000
00000000
00000011
00000000
00000000
00000110
00000000
00000000
00000011
00000000
00000000
00000110
00000000
00000100
00000000
,
00010000
00001000
00000000
00010000
00001000
00000000
00010000
00001000
00010000
00000000
00001000
00100000
01000000
00000000
10000000
00000000
,
00010000
00000000
00100000
00010000
00100000
00000000
01000000
00000000
10000000
00100000
10000000
00000000
01000000
00000000
00010000
00000000
,
01000000
00000000
10000000
00010000
10000000
00000000
00100000
01000000
00002000
00000000
00000000
00010000
00000000
00000000
00013000
00000000
,
00000010
00000000
00000100
00000001
00000100
00000000
00000001
00000000
00001000
00000100
00001000
00000000
00000010
00000000
00010000
00000000
,
00001000
00010000
00000000
00001000
00010000
00000000
00001000
00010000
00000000
00000000
00001000
00000000
00100000
00000000
01000000
00000000
,
10000000
00000000
01000000
00100000
01000000
00000000
10000000
00000000
01000000
00100000
01000000
00000000
10000000
00000000
00100000
00000000
,
01000000
00000000
00010000
00001000
00000100
00000000
00000010
00000000
00000001
00001000
00000010
00000000
00010000
00000000
00001000
00000000
,
01000000
00000000
00100000
10000000
00100000
10000000
01000000
00000000
00100000
00010000
00100000
00010000
10000000
00000000
01000000
00000000
,
00100000
00001000
00000000
00100000
00001000
00000000
00000000
00000000
00010000
00000000
00000100
00000000
00000110
00000000
00000000
00000000
,
00000010
00000001
00000010
00000001
00000100
00000010
00001000
00000000
,
00010000
00010000
00100000
00100000
01000000
10000000
00010000
00000000
,
01000000
00100000
01000000
00100000
10000000
01000000
00100000
00000000
,
00001000
01000000
10000000
01000000
00001000
00010000
00000100
00000010
,
00000001
00000000
00000101
00000000
00000000
00000000
00000110
00000000
00000010
00001000
00000000
00000000
00000001
00000000
00000010
00000000
,
00000100
00000000
00000000
00010100
00000000
00000000
00011000
00000000
00000000
00010100
00000000
00000000
00011000
00000000
00001000
00000000
,
01000000
00000000
00000000
01100000
00000000
00000000
11000000
00000000
00000000
01100000
00000000
00000000
11000000
00000000
10000000
00000000
,
00001000
00010000
00000000
00001000
00010000
00000000
00001000
00010000
00001000
00000000
00010000
00000000
00000100
00000000
00000010
00000000
,
00000001
00000100
00000001
00000100
00000001
00000010
00000100
00010000
,
00010000
00001000
01000000
00100000
01000000
00001000
01000000
00100000
,
00100000
00000000
10000000
00000000
01000000
00000000
00010000
00000000
01000000
00000000
10000000
00000000
00001000
01000000
00001000
00000000
,
01001000
00011000
00010010
00000110
00000100
00001100
00000000
00000110
,
00000100
00000001
00000000
00000000
00000010
00000000
00000100
00000000
00010000
00000000
00000000
00011000
00000000
00000000
01001000
00000000
,
00000000
00011000
00000000
00000000
01001000
00000000
01000000
00000000
00100000
00000000
00000000
01100000
00000000
00000000
11000000
00000000
,
00000000
01100000
00000000
00000000
11000000
00000000
10000000
00000000
00001000
00010000
00000000
00001000
00010000
00000000
00001000
00010000
,
00001000
00010000
00000100
00000010
00000001
00000100
00000001
00000000
,
00010000
00000100
00010000
00000000
00001000
00010000
00001000
00000000
,
00100000
00000000
01000000
00000000
00100000
00000000
00000000
00000000
00001000
00000000
01001000
00000000
00000000
01100000
00000000
00000000
,
11000000
00000000
00000000
10010000
00000000
00000000
01100000
00000000
00000000
00000000
00011000
00000000
00000000
00010010
00000000
00000000
,
00000110
00000100
00000010
00000001
00010000
00000100
00010000
00000000
,
00001000
00010000
00001000
00000000
00100000
01000000
00100000
00000000
,
00010000
00000000
01000000
00000000
00010000
00000000
00000000
00000000
10000000
00000000
00020000
00000000
00000000
00000000
01030000
00100000
,
01000000
00000000
00010000
00001000
00010000
00001000
00000100
00000000
00000010
00000000
00000001
00000000
00000100
00000000
00000010
00000000
,
00010010
00000000
00000000
00011000
00000000
00000000
01001000
00000000
01100000
00000000
00000000
00000000
01000000
00000000
00000000
00000000
,
00010000
00100000
01000000
00000000
00100000
00001000
00100000
00000000
,
00001000
00000000
00010000
00000000
00000100
00000000
00000000
00000000
00000010
00000000
00000110
00000000
00000000
00000101
00000000
00000000
,
00010010
00000000
00000000
00011000
00000000
00000000
01100000
00000000
00000000
00000000
01100000
00000000
00000000
10010000
00000000
00000000
,
11000000
10000000
00100000
01000000
00001000
00010000
00001000
00000000
,
00010000
00000000
00000010
00000000
00010000
00000000
00000001
00000100
00000001
00000000
00000010
00000000
00000100
00000000
00010000
00000000
,
00001000
00010000
00001000
00000000
01000000
00100000
01000000
00000000
00100000
00000000
10000000
00000000
01000000
00000000
10000000
00000000
,
00100000
00010000
00100000
10000000
00002000
00000000
00000000
00000000
,
00000000
00000000
00000000
00000000
00003000
00000000
00000000
00000000
00010000
00000000
00000010
00010000
00000000
00000010
00010000
00000000
,
00000010
00010000
00000000
00000010
00010000
00000000
00000001
00000010
00000100
00001000
00010000
00000000
01000000
00100000
00000000
01000000
,
00100000
00000000
10000000
00010000
01000000
00010000
10000000
00000000
10010000
00000000
00010000
00000000
00000000
00000000
00100000
00000000
,
01000000
10000000
00000000
00100000
00000000
10000000
01000000
00000000
00100000
00000000
00001000
00000000
00010000
00000000
00000100
00000000
,
00000010
00000100
00010000
00000001
00010001
00010000
00000100
00010000
,
00001000
00100000
01000000
00000000
10010000
00010000
10000000
01000000
,
00100000
00000000
00010000
00000000
01000000
00000000
00001000
00000000
00010000
00001000
00010000
00000000
00000010
00000100
00000010
00000000
,
00000100
00000001
00000100
00000001
00000010
00000100
00000010
00000100
00002000
00000000
00000000
00000000
00000000
00000000
00103000
00010000
,
00100000
00010000
10000000
00000000
10010000
00000000
00000000
00000000
01000000
00100000
00000000
00100000
00010000
00000000
02000000
00000000
,
00000000
00000000
03001000
00000000
00010000
00000010
00000100
00000000
00000001
00000100
00000000
00000100
00000010
00000000
00020000
00000000
,
00000000
00000000
00031000
00000000
00100000
01000000
10000000
00000000
00010000
01000000
00010000
01000000
00100000
00000000
10000000
01000000
,
10000000
01000000
00100000
00000000
00001000
00000000
00001000
00000000
00010000
00000010
00000000
00000100
00000010
00000000
00000100
00000001
,
00000000
00000010
00000100
00000000
00010000
00000000
00010000
00000000
00001000
00100000
00000000
00100000
01000000
00000000
20000000
00000000
,
00000000
00000000
30010000
00000000
01000000
00000000
00010000
00000000
10000000
01000000
00000000
01000000
00100000
00000000
00002000
00000000
,
00000000
00000000
00013000
00000000
00000010
00000000
00010000
00000000
00000001
00000000
00000010
00000100
00001000
00000000
00010000
00000000
,
00001000
10000000
00000000
10000000
00100000
00000000
01000000
00000000
00010000
01000000
00100000
10000000
00000000
01000000
00100000
00010000
,
00001000
00011000
00000010
00000210
,
00000001
00000000
00000000
00000000
00000310
00001000
00000010
00000000
00010000
00000000
00001000
00000000
00100000
00000000
02000000
00000000
,
00000000
00000000
03100000
00000000
00001000
00000000
10000000
00000000
01000000
10000000
01000000
00000000
00100000
00001000
00100000
00001000
,
00010000
00000000
00000100
00000000
00000010
00000000
00000001
00000000
00000100
00000010
00000100
00000000
00000001
00000000
00000010
00000000
,
00000100
00000000
00000000
00000000
00010000
00000000
00000000
00000000
00001000
00000000
00000000
00000000
01000000
00000000
00000000
00000000
00000000
00000000
00000000
00000000
00100000
00000000
00000000
00000000
10000000
00000000
00000000
01000000
00000000
00000000
10000000
00000000
00000000
01000000
00000000
00000000
00100000
00000000
00000000
00001000
00000000
00000000
00100000
00000000
00000000
00001000
00000000
00000000
,
00100000
00000000
00001000
00000000
00010000
00001000
00010000
00000000
00000010
00000100
00000010
00000100
00000001
00000010
00000001
00000010
,
00000100
00000000
00010000
00000000
00001000
00010000
00001000
00000000
00011000
00000000
00000000
01100000
00000000
00000000
00011000
00000000
,
00000000
01100000
00000000
00000000
10000000
00000000
00010000
00000000
10010000
00000000
00000000
10100000
00000000
00000000
01001000
00000000
,
00000000
00011000
00000000
00000000
00010010
00000000
00010010
00000000
00000220
00000000
00000000
00000000
00000000
00000000
00000000
00000000
,
00000000
00000000
00000000
00000000
,
00000330
00000000
00000000
00000000
;

//---------------dance-single - ----------------
#NOTES:
     dance-single:
     :
     Beginner:
     3:
     0.116,0.196,0.148,0.000,0.000: // measure 1
0000
0000
0000
0000
,  // measure 2
0000
0000
0000
0000
,  // measure 3
0000
0000
0000
0000
,  // measure 4
0000
0000
0000
0000
,  // measure 5
1001
0000
0000
0000
,  // measure 6
1001
0000
0000
0000
,  // measure 7
1001
0000
0000
0000
,  // measure 8
0001
0000
0000
0000
,  // measure 9
1000
0000
0000
0000
,  // measure 10
0010
0000
0000
0000
,  // measure 11
1000
0000
0000
0000
,  // measure 12
0010
0000
0000
0000
,  // measure 13
0100
0000
0000
0000
,  // measure 14
0001
0000
0000
0000
,  // measure 15
0100
0000
0000
0000
,  // measure 16
1001
0000
0000
0000
,  // measure 17
0001
0000
0000
0000
,  // measure 18
0010
0000
0000
0000
,  // measure 19
0001
0000
0000
0000
,  // measure 20
0010
0000
0000
0000
,  // measure 21
0110
0000
0000
0000
,  // measure 22
0100
0000
0000
0000
,  // measure 23
1000
0000
0100
0000
,  // measure 24
1000
0000
0000
0000
,  // measure 25
1001
0000
0000
0000
,  // measure 26
0000
0000
0000
0000
,  // measure 27
0001
0000
0000
0000
,  // measure 28
0000
0000
0000
0000
,  // measure 29
1001
0000
0000
0000
,  // measure 30
1000
0000
0000
0000
,  // measure 31
0001
0000
0000
0000
,  // measure 32
0100
0000
0000
0000
,  // measure 33
0110
0000
0000
0000
,  // measure 34
0010
0000
0000
0000
,  // measure 35
0010
0000
0100
0000
,  // measure 36
0000
0000
0110
0000
,  // measure 37
0000
0000
0010
0000
,  // measure 38
0000
0000
0100
0000
,  // measure 39
0000
0000
0010
0000
,  // measure 40
0000
0000
1000
0000
,  // measure 41
0000
0000
0000
0000
,  // measure 42
0000
0000
0001
0000
,  // measure 43
0000
0000
1000
0000
,  // measure 44
0000
0000
1001
0000
,  // measure 45
0000
0000
0000
0000
,  // measure 46
0000
0000
0010
0000
,  // measure 47
0100
0000
0010
0000
,  // measure 48
0000
0000
0100
0000
,  // measure 49
0100
0000
0100
0000
,  // measure 50
0000
0000
0010
0000
,  // measure 51
0010
0000
0100
0000
,  // measure 52
0100
0000
0001
0000
,  // measure 53
0000
0000
1000
0000
,  // measure 54
0000
0000
0001
0000
,  // measure 55
0000
0000
1001
0000
,  // measure 56
0000
0000
1001
0000
,  // measure 57
0000
0000
0000
0000
,  // measure 58
0000
0000
0000
0000
,  // measure 59
0000
0000
0000
0000
,  // measure 60
0000
0000
0010
0000
,  // measure 61
0000
0000
0010
0000
,  // measure 62
0000
0000
0010
0000
,  // measure 63
0000
0000
0110
0000
,  // measure 64
0000
0000
0100
0000
,  // measure 65
1000
0000
0100
0000
,  // measure 66
0000
0000
1000
0000
,  // measure 67
0001
0000
1000
0000
,  // measure 68
0000
0000
0001
0000
,  // measure 69
0100
0000
0001
0000
,  // measure 70
0000
0000
0100
0000
,  // measure 71
0010
0000
0100
0000
,  // measure 72
0000
0000
0000
0001
,  // measure 73
0000
0000
1000
0000
,  // measure 74
0001
0000
1000
0000
,  // measure 75
0001
0000
1000
0000
,  // measure 76
0000
0000
1001
0000
,  // measure 77
0000
0000
0110
0000
,  // measure 78
0000
0000
1001
0000
,  // measure 79
0000
0000
1001
0000
,  // measure 80
0000
0000
0110
0000
;
