#TITLE:Gott;
#SUBTITLE:;
#ARTIST:Hommarju;
#TITLETRANSLIT:;
#SUBTITLETRANSLIT:;
#ARTISTTRANSLIT:;
#CREDIT:DigiMindAxel;
#BANNER:Gott.png;
#BACKGROUND:Gott-bg.png;
#LYRICSPATH:;
#CDTITLE:SOUND VOLTEX.png;
#METERTYPE:DDR X;
#MUSIC:Gott.ogg;
#OFFSET:-12.878;
#SAMPLESTART:91.601;
#SAMPLELENGTH:12.000;
#SELECTABLE:YES;
#BPMS:0.000=195.000,184.000=97.500,200.000=195.000;
#STOPS:;
#BGCHANGES:;

//---------------dance-single - ----------------
#NOTES:
     dance-single:
     :
     Easy:
     6:
     0.249,0.299,0.033,0.057,0.000:
1001
0000
1000
0000
,
0001
0000
0001
0000
,
1000
0000
1000
0000
,
0001
0000
0001
0000
,
0010
0000
0100
0000
,
1000
0010
1000
0000
,
0001
0000
0010
0000
,
0100
0010
0100
0010
,
0200
0000
0000
0000
,
0000
0000
0300
0000
,
1001
0000
0001
0000
,
1000
0000
0001
0000
,
1000
0000
0100
0000
,
0010
0000
0001
0000
,
0100
0000
0001
0000
,
1000
0000
0100
0000
,
1000
0000
0001
0000
,
0020
0000
0000
0000
,
0130
1000
0100
0000
,
0010
0100
0010
0000
,
0001
0010
0001
0000
,
1000
0001
1000
0000
,
0010
1000
0010
0000
,
0100
0010
0100
0000
,
0001
1000
0100
0010
,
0002
0000
0000
0000
,
1003
0100
1000
0010
,
1000
0100
1000
0000
,
0001
0010
0001
0100
,
0001
0010
0001
0000
,
0100
0010
0100
0001
,
0100
0010
0100
0000
,
0010
1000
0010
0100
,
0010
1000
0010
0000
,
1000
0100
1000
0100
,
1000
0100
1000
0100
,
1000
0001
1000
0001
,
1000
0001
1000
0001
,
0010
0001
0010
0001
,
0100
0010
0100
0010
,
1000
0100
0010
0001
,
1000
0010
0100
0001
,
2000
0000
0000
0000
,
0000
0000
0000
0000
,
0000
0000
0000
0000
,
0000
0000
3000
0000
,
1001
0000
0000
0000
,
0000
0000
0000
0000
,
0001
0000
0000
0000
,
0000
0000
0000
0000
,
0100
0000
0000
0000
,
0010
0000
0000
0000
,
0100
0000
0000
0000
,
0001
0000
0000
0000
,
1000
0000
0010
0000
,
0100
0000
0001
0000
,
1000
0010
0100
0001
,
1000
0001
1000
0001
,
0200
0000
0000
0000
,
0000
0000
0300
0000
,
0001
1000
0001
1000
,
0001
0010
0100
0000
,
1000
0001
1000
0010
,
0100
0001
1000
0000
,
0100
1000
0100
1000
,
0001
0010
0100
0000
,
0010
0001
0010
0001
,
1000
0010
0100
0000
,
0010
0100
0010
0100
,
0001
0010
0100
0000
,
0010
0001
0010
0001
,
1000
0010
0100
0000
,
0001
1000
0001
1000
,
0100
0010
0100
0010
,
0001
0100
0010
0000
,
1000
0010
1000
0010
,
0100
0000
0000
0001
0000
0000
0100
0000
,
0000
0001
0000
0000
1000
0000
0100
0000
,
0220
0000
0000
0000
,
0000
0000
0000
0000
,
0000
0000
0000
0000
,
0000
0330
0000
0000
;

//---------------dance-single - ----------------
#NOTES:
     dance-single:
     :
     Medium:
     10:
     0.475,0.599,0.254,0.131,0.000: // measure 1
1001
1000
0001
1000
,  // measure 2
0001
1000
0001
1000
,  // measure 3
0010
0100
0010
0100
,  // measure 4
0010
0100
0010
0100
,  // measure 5
0001
0010
0001
0000
1000
0001
1000
0000
,  // measure 6
0100
1000
0100
0000
1000
0001
1000
0000
,  // measure 7
0001
0100
0001
0100
0001
0100
0001
0000
,  // measure 8
0100
0010
0100
0010
0100
0010
0100
0000
,  // measure 9
2002
0000
0000
0000
,  // measure 10
0000
0000
3003
0000
,  // measure 11
0101
0100
0100
0100
,  // measure 12
0110
0100
0100
0100
,  // measure 13
1010
0010
0010
0010
,  // measure 14
0110
0010
0010
0010
,  // measure 15
1001
0001
0001
0001
,  // measure 16
0011
0010
0010
0010
,  // measure 17
1100
0100
0100
0100
,  // measure 18
1001
0000
0001
0000
0100
0001
0000
1000
,  // measure 19
0100
0000
0010
0000
0100
0000
1000
0100
,  // measure 20
1000
0000
0001
0000
0100
0010
0100
0000
,  // measure 21
0001
1000
0100
1100
,  // measure 22
0010
0000
0001
0000
0100
0001
0100
0000
,  // measure 23
1001
0000
1000
0000
0100
1000
0000
0001
,  // measure 24
0100
0000
0010
0000
0100
0001
0000
1000
,  // measure 25
0100
0000
0010
0000
0001
1000
0000
0010
,  // measure 26
2000
0000
0000
3000
,  // measure 27
1001
0000
0001
0100
0010
0000
1000
0010
,  // measure 28
0000
0000
1000
0100
0010
0000
0001
0000
,  // measure 29
1000
0000
0001
0100
0010
0000
0100
0001
,  // measure 30
0000
0000
1000
0100
0010
0000
0001
0000
,  // measure 31
0100
0000
0010
1000
0100
0000
0010
0100
,  // measure 32
0000
0000
1000
0001
0010
0000
0100
0000
,  // measure 33
1000
0000
0010
0100
0001
0000
1000
0100
,  // measure 34
0000
0000
0010
0100
1000
0010
0000
1000
,  // measure 35
0001
0001
0001
0001
,  // measure 36
0010
0010
0010
0010
,  // measure 37
0100
0100
0100
0100
,  // measure 38
1000
1000
1000
1000
,  // measure 39
0001
0100
0001
0100
0001
0100
0001
0000
,  // measure 40
1000
0100
1000
0100
1000
0100
1000
0000
,  // measure 41
0010
0100
0010
0100
0001
1000
0001
1000
,  // measure 42
0001
0010
0001
0010
0100
1000
0010
0100
,  // measure 43
0220
0000
0000
0000
,  // measure 44
0000
0000
0000
0000
,  // measure 45
0000
0000
0000
0000
,  // measure 46
0000
0000
0330
0000
,  // measure 47
0102
0000
2003
0000
,  // measure 48
3020
0000
0230
0000
,  // measure 49
0302
0000
0023
0000
,  // measure 50
0032
0000
2003
0000
,  // measure 51
3010
0100
0010
1001
,  // measure 52
1000
0001
1000
1001
,  // measure 53
0100
1000
0100
0011
,  // measure 54
0000
0011
0100
0100
,  // measure 55
0001
0000
0010
0100
1000
0000
0001
0100
,  // measure 56
0000
0001
1000
0100
0010
0000
0001
1000
,  // measure 57
0010
0100
0010
0100
0010
0000
1000
0001
,  // measure 58
0100
0010
0100
0010
0100
0001
0010
0100
,  // measure 59
2000
0000
0000
0000
,  // measure 60
0000
0000
3000
0000
,  // measure 61
1001
0000
0001
0100
0010
0100
0001
0000
,  // measure 62
1000
0100
1000
0010
1000
0100
1000
0000
,  // measure 63
0010
0100
0010
1000
0010
0100
0001
0000
,  // measure 64
0010
0000
0100
0000
1000
0100
0010
0000
,  // measure 65
0001
1000
0100
1000
0001
1000
0100
0000
,  // measure 66
0010
0001
1000
0001
0010
0001
1000
0000
,  // measure 67
0010
0100
0010
1000
0010
0100
0010
0000
,  // measure 68
1010
0000
1010
0000
0100
0001
0000
1000
,  // measure 69
0100
0000
0010
0001
1000
0001
0010
0000
,  // measure 70
0100
0010
0001
0010
0100
0010
0001
0000
,  // measure 71
1000
0001
0100
0001
1000
0001
0100
0000
,  // measure 72
0011
0000
0010
0100
0000
1100
0000
0000
,  // measure 73
1100
0000
0010
0001
1000
0001
0010
0000
,  // measure 74
0001
1000
0010
1000
0001
1000
0010
0000
,  // measure 75
0100
0001
0010
0100
0010
0001
0100
0000
,  // measure 76
0010
1000
0100
0010
0001
1000
0010
0000
,  // measure 77
0101
0000
0000
0110
0000
0000
1010
0000
,  // measure 78
0000
0110
0000
0000
0100
0000
0110
0000
,  // measure 79
2002
0000
0000
0000
,  // measure 80
0000
0000
0000
0000
,  // measure 81
0000
0000
0000
0000
,  // measure 82
0000
3003
0000
0000
;

//---------------dance-single - ----------------
#NOTES:
     dance-single:
     :
     Hard:
     14:
     0.654,0.831,0.262,0.213,0.131: // measure 1
0101
0000
0100
0000
0100
0010
1000
0100
,  // measure 2
0000
0010
0001
0000
0010
0100
1000
0000
,  // measure 3
1010
0000
0010
0000
0010
0100
0001
0010
,  // measure 4
0000
0100
1000
0001
0010
0100
0010
0000
,  // measure 5
0001
1000
0010
1000
0001
0010
0100
1000
,  // measure 6
0000
0001
0100
0010
1000
0001
0010
0000
,  // measure 7
0100
1000
0010
1000
0100
0010
0001
0100
,  // measure 8
0000
0010
1000
0001
0010
0100
1000
0001
,  // measure 9
0022
0000
0000
0000
,  // measure 10
0000
0000
0033
0000
,  // measure 11
1001
0000
1000
0100
1000
0000
1000
0001
,  // measure 12
1000
0000
0001
0100
0001
0000
0001
1000
,  // measure 13
0001
0000
0100
0010
0100
0000
0100
0001
,  // measure 14
0100
0000
0001
1000
0001
0000
0001
0010
,  // measure 15
0001
0000
0010
0100
0010
0000
0010
0001
,  // measure 16
0010
0000
0100
1000
0100
0000
0100
0010
,  // measure 17
0100
0000
1000
0010
1000
0000
1000
0001
,  // measure 18
1000
0000
0010
1000
0001
0001
0000
1000
,  // measure 19
1100
0000
0100
1000
0100
0000
2000
0001
,  // measure 20
3001
0000
0010
0001
0200
0010
0310
0000
,  // measure 21
1000
0010
1000
0000
1000
0001
2000
0100
,  // measure 22
3100
0000
0010
0001
0020
0100
0130
0000
,  // measure 23
1001
0000
1000
0010
1000
1000
0000
0001
,  // measure 24
0011
0000
0010
0100
1000
1000
0000
0010
,  // measure 25
0110
0000
0100
0001
0010
0100
0000
1000
,  // measure 26
2020
0000
0000
3030
,  // measure 27
1001
0000
1000
0100
0001
0100
1000
0010
,  // measure 28
0000
0010
0100
0001
0010
0100
0010
0000
,  // measure 29
0001
0000
0001
0010
1000
0010
0001
0100
,  // measure 30
0000
0100
0010
1000
0100
0010
0100
1000
,  // measure 31
0001
0000
0001
0100
1000
0100
0001
0010
,  // measure 32
0000
0010
0100
1000
0010
0001
0010
0000
,  // measure 33
1000
0000
1000
0010
0001
0010
1000
0100
,  // measure 34
0000
0100
0010
0001
1000
1000
0000
0001
,  // measure 35
0101
0000
0100
0010
0100
0010
0100
0020
,  // measure 36
0000
1030
0001
1000
0001
1000
0100
0000
,  // measure 37
0011
0000
0010
0001
0010
0001
0010
0002
,  // measure 38
0000
0103
0010
0100
0010
0100
0001
0000
,  // measure 39
1000
0100
0010
0001
1000
0100
0010
0100
,  // measure 40
1000
0001
0100
0010
1000
0001
0010
0100
,  // measure 41
1000
0001
1000
0000
0100
0000
0010
0000
0001
0100
0001
0000
1000
0000
0100
0000
,  // measure 42
0010
0100
0010
0000
0001
0000
0100
0000
1000
0000
0000
0100
0000
0000
0001
0000
,  // measure 43
2002
0000
0000
0000
,  // measure 44
0000
0000
0000
0000
,  // measure 45
0000
0000
0000
0000
,  // measure 46
0000
0000
3003
0000
,  // measure 47
0021
0100
0100
0130
2000
0010
0010
3010
,  // measure 48
0200
0000
0010
0000
0010
0000
0310
1000
0001
0010
0001
0000
0020
0000
0230
0000
,  // measure 49
2300
0001
0001
3001
0020
0100
0100
0130
,  // measure 50
2000
0000
0010
0000
0010
0000
3010
0100
0001
0010
0100
0000
0020
0000
0032
0000
,  // measure 51
1003
0000
0001
0000
0010
0000
1100
1000
,  // measure 52
0001
0000
0100
0000
0010
0000
1010
1000
,  // measure 53
0001
0000
0010
0000
0100
0000
1001
1000
,  // measure 54
0000
0001
0001
1000
0100
0010
0001
1000
,  // measure 55
1010
0000
0000
0000
0010
0100
0010
0000
1000
0000
0100
0000
0010
0000
0001
0000
,  // measure 56
0000
0000
0100
0010
0100
0000
0010
0100
0010
0000
1000
0000
0100
0000
0010
0000
,  // measure 57
0001
0000
1000
0010
1000
0000
0010
1000
0010
0000
1000
0000
0100
0000
0010
0000
,  // measure 58
0001
1000
0001
0000
0010
0000
0100
0010
0100
0000
1000
0000
0001
0000
0100
0000
,  // measure 59
0220
0000
0000
0000
,  // measure 60
0000
0000
0330
0000
,  // measure 61
1001
0000
0000
0001
1000
0000
0010
0000
1000
0000
0100
0000
0010
0000
0010
0000
,  // measure 62
0001
0100
1000
0100
0001
0100
1000
1000
,  // measure 63
0001
0010
1000
0010
0001
0010
1000
0010
,  // measure 64
0001
0000
1000
0100
1000
0000
0001
1000
0001
1000
0001
0000
0010
0000
0100
0000
,  // measure 65
1000
0000
0000
0001
0100
0000
0001
0000
1000
0000
0100
0000
0010
0000
0100
0000
,  // measure 66
1000
0010
0001
0010
1000
0010
0001
0001
,  // measure 67
1000
0100
0001
0100
1000
0100
0001
0100
,  // measure 68
1000
0000
0001
0100
0001
0000
1000
0100
1000
0000
1100
0000
0000
0000
0001
0000
,  // measure 69
1001
0000
0000
1000
0010
0000
1000
0000
0100
0000
0010
0000
0001
0000
0001
0000
,  // measure 70
0100
0010
0100
0001
0100
0010
0100
0100
,  // measure 71
0001
0010
1000
0010
0001
0010
1000
0100
,  // measure 72
0011
0000
1000
1001
0000
0011
0000
1000
,  // measure 73
1001
0000
0000
0000
0001
0100
0001
0000
1000
0000
0100
0000
0010
0000
0010
0000
,  // measure 74
0000
0000
0001
1000
0001
0000
1000
0010
1000
0000
0001
0000
0010
0000
0100
0000
,  // measure 75
0010
0000
0001
1000
0001
0000
1000
0010
1000
0000
0001
0000
0010
0000
0100
0000
,  // measure 76
1000
0001
1000
0000
0010
0000
0100
0010
0100
0010
0100
0000
0001
0000
1000
0100
,  // measure 77
1000
0000
0001
0011
0000
0010
0110
0000
,  // measure 78
0100
1100
0000
0000
1001
0000
1010
0000
,  // measure 79
0202
0000
0000
0000
,  // measure 80
0000
0000
0000
0000
,  // measure 81
0000
0000
0000
0000
,  // measure 82
0000
0303
0000
0000
;

//---------------dance-single - ----------------
#NOTES:
     dance-single:
     :
     Challenge:
     18:
     0.911,1.000,0.516,0.254,0.790: // measure 1
1001
0000
0001
1000
0001
0100
1000
0200
,  // measure 2
0000
0301
1000
0100
1000
0001
0100
0000
,  // measure 3
0002
0000
1003
0100
1000
0010
0001
0020
,  // measure 4
0000
1030
0001
0010
0001
1000
0100
0010
,  // measure 5
0002
0000
1003
0010
0001
0010
1000
0020
,  // measure 6
0000
0130
0001
0010
1000
0010
0001
0000
,  // measure 7
1000
0010
1000
0010
1000
0010
1000
0010
1000
0001
1000
0001
1000
0001
1000
0001
,  // measure 8
0010
0001
0010
0001
0010
0001
0010
0001
0100
0010
0100
0010
0100
0010
0100
0010
,  // measure 9
0200
0000
0000
0000
,  // measure 10
0000
0000
0000
0000
0000
0000
0000
0301
1000
0001
1000
0001
1000
0001
1000
0000
,  // measure 11
1001
0000
0000
1000
0100
0000
0000
0100
0010
0000
0000
0010
0100
0000
0000
0100
,  // measure 12
1000
0000
0000
1000
0010
0000
0000
0010
0100
0000
0000
0100
0001
0000
0000
0001
,  // measure 13
1000
0000
0000
1000
0010
0000
0000
0010
1000
0000
0000
1000
0001
0000
0000
0001
,  // measure 14
0010
0000
0000
0010
0100
0000
0000
0100
0010
0000
0000
0010
0001
0000
0000
0001
,  // measure 15
0100
0000
0000
0100
0010
0000
0000
0010
1000
0000
0000
1000
0001
0000
0000
0001
,  // measure 16
0010
0000
0000
0010
0100
0000
0000
0100
0010
0000
0000
0010
0001
0000
0000
0001
,  // measure 17
0100
0000
0000
0100
0010
0000
0000
0010
1000
0000
0000
1000
0100
0000
0000
0100
,  // measure 18
0010
0000
0000
0010
0001
0000
0000
0001
0100
0000
0110
0000
0000
0000
0110
0000
,  // measure 19
1010
0000
0000
1000
0001
0000
0000
0001
0010
0000
0000
0010
0200
0000
1000
0000
,  // measure 20
1300
0000
0000
1000
0010
0000
0000
0010
0200
0000
0001
0000
0301
0000
0000
0001
,  // measure 21
1000
0000
0000
1000
0100
0000
0000
0100
0010
0000
0000
0010
0002
0000
0100
0000
,  // measure 22
0103
0000
0000
0100
0010
0000
0000
0010
2000
0000
0100
0000
3200
0000
0000
0000
,  // measure 23
1300
0000
0000
1000
0001
0000
0000
0001
0100
0000
0110
0000
0000
0000
0110
0000
,  // measure 24
1010
0000
0000
1000
0001
0000
0000
0001
0010
0000
0110
0000
0000
0000
0110
0000
,  // measure 25
1100
0000
1001
1000
0100
0011
0000
1100
,  // measure 26
1001
0001
1000
0100
0010
0001
0100
0000
,  // measure 27
1010
0000
0010
1000
0100
0010
0001
2000
,  // measure 28
0000
3001
0100
1000
0100
0001
1000
0000
,  // measure 29
1020
0000
0130
0001
0010
0100
0010
0002
,  // measure 30
0000
1003
0001
0100
1000
0100
0001
0010
,  // measure 31
0210
0000
1300
0010
0100
0010
1000
0002
,  // measure 32
0000
1003
0001
0100
1000
0100
0001
0000
,  // measure 33
0021
0000
0130
1000
0001
1000
0100
0020
,  // measure 34
0000
0031
1000
0100
0110
0011
0000
0110
,  // measure 35
1100
0000
0100
0010
0001
1000
0100
0020
,  // measure 36
0000
0130
1000
0010
0100
0001
0010
0000
,  // measure 37
1002
0000
0103
0010
1000
0001
0100
0020
,  // measure 38
0000
0130
0001
0010
0100
1000
0100
0010
,  // measure 39
1001
1000
0001
0001
0100
0100
0010
0010
,  // measure 40
1000
1000
0001
0001
0010
0010
0100
0100
,  // measure 41
1000
0010
1000
0010
1000
0010
1000
0000
0001
1000
0001
1000
0001
1000
0001
0000
,  // measure 42
0010
0001
0010
0001
0100
0010
0100
0010
1000
0100
0010
0100
1000
0000
0001
0000
,  // measure 43
0201
0000
0000
0000
,  // measure 44
0000
0000
0000
0000
,  // measure 45
0000
0000
0000
0000
,  // measure 46
0000
0000
0000
0000
0000
0000
0000
0310
0100
0010
0100
0010
0100
0010
0100
0000
,  // measure 47
1001
0000
1000
0010
0100
0010
1000
1000
0001
0010
0100
0010
0001
0100
0010
0010
,  // measure 48
1000
0001
0010
0100
1000
0001
0100
0100
0010
0010
0100
0001
1000
0010
0001
0010
,  // measure 49
1000
0000
0100
0010
0001
0100
0010
0010
0100
0001
0010
1000
0010
0001
0100
0100
,  // measure 50
0010
1000
0100
0001
0100
1000
0001
0010
0100
0100
0010
0010
0001
0100
0010
0100
,  // measure 51
1001
0000
0000
0000
0001
0000
1000
0000
0010
0000
1000
0001
0010
0000
0011
0000
,  // measure 52
0100
0000
1000
0000
0001
0000
0010
0000
0100
0000
1000
0001
0100
0000
0101
0000
,  // measure 53
0001
0000
1000
0000
0100
0000
0010
0000
0100
0000
1000
0010
0100
0000
0110
0000
,  // measure 54
0000
0000
0010
0100
0001
0000
1000
0000
1100
0000
0010
0100
0010
0000
0001
0000
,  // measure 55
0101
0000
0000
0000
0100
0010
1000
0010
0100
0000
0001
0000
1001
0000
1100
0000
,  // measure 56
0000
0000
0010
0001
0100
0000
0001
0010
0100
0000
1000
0000
1001
0000
0101
0000
,  // measure 57
0100
0010
1000
0010
0100
0000
0001
0010
0100
0010
0001
0000
1000
0000
1010
0000
,  // measure 58
0010
0100
0001
0100
0010
0000
1000
0100
0010
0100
1000
0000
0001
0000
0100
0010
,  // measure 59
2000
0000
0000
0000
,  // measure 60
0000
0000
0000
0000
0000
0000
0000
3001
1000
0001
1000
0001
1000
0001
1000
0000
,  // measure 61
1001
0000
0001
0100
0001
0000
0100
0010
0100
0000
0020
0000
1000
0000
1030
0000
,  // measure 62
0001
0000
0010
0001
0010
0000
0100
0010
0100
0000
2000
0000
0010
0000
3010
0000
,  // measure 63
1000
0000
0001
1000
0001
0000
1000
0100
1000
0000
0001
0100
0001
0000
0010
0000
,  // measure 64
0200
0000
1000
0000
1300
0000
0010
1000
0010
1000
0001
0010
0100
0010
0001
1000
,  // measure 65
0100
0000
0010
0001
0010
0000
0001
1000
0001
0000
2000
0000
0010
0000
3010
0000
,  // measure 66
0100
0000
0001
1000
0001
0000
1000
0100
1000
0000
0020
0000
0100
0000
0130
0000
,  // measure 67
0001
0000
0010
0001
0010
0000
0100
0010
0100
0000
2000
0000
0010
0000
3010
0000
,  // measure 68
0101
0001
1001
1000
1100
1001
0000
1001
,  // measure 69
0011
0000
0100
0010
0100
0010
1000
0100
0010
0001
1000
0010
1000
0000
1000
0000
,  // measure 70
0001
0000
0100
0001
0100
0001
1000
0100
0010
0100
1000
0010
0100
0000
0100
0000
,  // measure 71
0001
0000
1000
0010
1000
0010
0100
0001
0010
0100
0010
0100
1000
0000
1000
0000
,  // measure 72
1001
0000
0101
0110
0000
0110
0000
0110
,  // measure 73
1010
0000
0010
0100
0010
0100
0001
1000
0100
0010
0100
0000
1100
0000
1100
0000
,  // measure 74
0010
0001
1000
0010
1000
0001
0010
0001
0100
0010
1000
0000
1010
0000
1010
0000
,  // measure 75
0100
0001
0100
0001
1000
0100
0010
0100
1000
0001
0010
0000
0011
0000
0011
0000
,  // measure 76
0100
1000
0010
1000
0100
1000
0001
0010
0100
0010
0001
0100
0010
0100
0001
0000
,  // measure 77
1001
0000
1000
0100
1000
0000
1100
0000
0010
0100
0010
0000
0110
0000
0001
0010
,  // measure 78
0001
0000
0011
0000
0100
0010
0100
0000
0110
0000
0010
1000
0100
0010
0001
0000
,  // measure 79
0202
0000
0000
0000
,  // measure 80
0000
0000
0000
0000
,  // measure 81
0000
0000
0000
0000
,  // measure 82
0000
0303
0000
0000
;

//---------------dance-single - ----------------
#NOTES:
     dance-single:
     :
     Beginner:
     3:
     0.124,0.192,0.065,0.000,0.000:
1000
0000
0000
0000
,
0001
0000
0000
0000
,
1000
0000
0000
0000
,
0100
0000
0000
0000
,
1000
0000
1000
0000
,
0001
0000
0001
0000
,
0010
0000
0100
0000
,
1000
0000
0001
0000
,
1001
0000
0000
0000
,
0000
0000
0000
0000
,
1000
0000
0000
0000
,
0100
0000
0000
0000
,
1000
0000
0000
0000
,
0100
0000
0000
0000
,
0010
0000
0000
0000
,
0100
0000
0000
0000
,
0010
0000
0000
0000
,
0001
0000
0000
0000
,
1001
0000
0000
0000
,
1000
0000
0000
0000
,
0001
0000
0000
0000
,
1000
0000
0000
0000
,
0001
0000
0000
0000
,
0010
0000
0000
0000
,
0100
0000
1000
0000
,
0100
0000
0000
0000
,
1001
0000
0001
0000
,
0001
0000
0000
0000
,
1000
0000
1000
0000
,
1000
0000
0000
0000
,
0100
0000
0100
0000
,
0100
0000
0000
0000
,
0010
0000
0010
0000
,
0010
0000
0000
0000
,
0001
0000
0000
0000
,
0100
0000
0000
0000
,
0001
0000
0000
0000
,
1000
0000
0000
0000
,
0100
0000
0100
0000
,
0010
0000
0010
0000
,
0100
0000
0010
0000
,
0001
0000
0000
0000
,
1001
0000
0000
0000
,
0000
0000
0000
0000
,
0000
0000
0000
0000
,
0000
0000
0000
0000
,
1000
0000
0000
0000
,
0000
0000
0000
0000
,
0001
0000
0000
0000
,
0000
0000
0000
0000
,
1001
0000
0000
1000
,
0000
0000
0000
0001
,
0000
0000
0000
1000
,
0000
0000
0000
0000
,
0001
0000
0000
0000
,
0100
0000
0000
0000
,
0010
0000
0000
0000
,
1000
0000
1000
0000
,
1001
0000
0000
0000
,
0000
0000
0000
0000
,
0001
0000
0010
0000
,
0001
0000
0010
0000
,
0001
0000
0010
0000
,
0001
0000
0000
0000
,
1000
0000
0100
0000
,
1000
0000
0100
0000
,
1000
0000
0100
0000
,
1000
0000
0000
0000
,
0001
0000
1000
0000
,
0001
0000
1000
0000
,
0001
0000
1000
0000
,
0001
0000
0000
0000
,
0100
0000
0001
0000
,
0100
0000
0010
0000
,
0100
0000
0001
0000
,
1000
0000
1000
0000
,
1001
0000
0000
0000
,
0000
0000
1000
0000
,
1001
0000
0000
0000
;
