#TITLE:Got more raves?;
#SUBTITLE:;
#ARTIST:E.G.G.;
#TITLETRANSLIT:;
#SUBTITLETRANSLIT:;
#ARTISTTRANSLIT:;
#CREDIT:DigiMindAxel;
#BANNER:Got more raves.png;
#BACKGROUND:Got more raves-bg.png;
#LYRICSPATH:;
#CDTITLE:GROOVE COASTER.png;
#MUSIC:Got more raves.ogg;
#METERTYPE:DDR X;
#OFFSET:-1.341;
#SAMPLESTART:46.436;
#SAMPLELENGTH:12.000;
#SELECTABLE:YES;
#BPMS:0.000=266.000;
#STOPS:;
#BGCHANGES:-6.000=Got more raves.avi=1.000=1=1=0,
99999=-nosongbg-=1.000=0=0=0 // don't automatically add -songbackground-
;

//---------------dance-single - ----------------
#NOTES:
     dance-single:
     :
     Easy:
     9:
     0.300,0.483,0.192,0.144,0.000: // measure 1
0000
0000
0000
0000
,  // measure 2
0000
0000
0000
0000
,  // measure 3
0000
0000
0000
0000
,  // measure 4
0000
0000
0000
0000
,  // measure 5
0000
0000
0000
0000
,  // measure 6
0000
0000
0000
0000
,  // measure 7
0000
0000
0000
0000
,  // measure 8
1001
0000
1000
0000
,  // measure 9
0100
0000
0010
0000
,  // measure 10
0000
0001
0000
0000
,  // measure 11
0100
0000
0000
0000
,  // measure 12
0010
0000
0200
0000
,  // measure 13
0310
0100
0010
2000
,  // measure 14
0000
0000
0000
0000
,  // measure 15
0000
3200
0000
0000
,  // measure 16
0000
0000
0000
0000
,  // measure 17
0320
0000
0000
0000
,  // measure 18
0000
0000
0000
0000
,  // measure 19
0032
0000
0000
1003
,  // measure 20
0000
0000
0010
1000
,  // measure 21
0010
0000
0000
0100
,  // measure 22
0001
0100
0000
0000
,  // measure 23
0001
1000
0001
1000
,  // measure 24
0100
1000
0100
1000
,  // measure 25
0001
0000
0000
0100
,  // measure 26
0000
0010
0000
0000
,  // measure 27
1000
0000
0001
0000
,  // measure 28
0000
0010
0000
0100
,  // measure 29
0000
0000
1000
0000
,  // measure 30
0100
0000
0000
0010
,  // measure 31
0000
0001
0000
0000
,  // measure 32
0100
0000
0010
0000
,  // measure 33
0000
0100
0000
0001
,  // measure 34
0000
0000
1000
0000
,  // measure 35
0100
0000
0010
0000
,  // measure 36
0000
0001
1000
0001
,  // measure 37
0000
0000
0000
0000
,  // measure 38
1000
0100
1000
0000
,  // measure 39
0000
0000
0000
0000
,  // measure 40
0001
1000
0001
0000
,  // measure 41
0000
0000
0100
0010
,  // measure 42
0100
0000
0001
0000
,  // measure 43
0000
0000
1000
0100
,  // measure 44
1000
0010
0000
0000
,  // measure 45
0100
0010
0100
0001
,  // measure 46
0000
0000
0000
0000
,  // measure 47
0010
0100
0010
0001
,  // measure 48
0000
0000
0000
0100
,  // measure 49
0010
0100
0001
0000
,  // measure 50
0000
1000
0000
0000
,  // measure 51
1001
0000
0000
0010
,  // measure 52
0100
1000
0000
0000
,  // measure 53
0000
0000
1001
0000
,  // measure 54
0000
0100
1000
0010
,  // measure 55
0000
0000
0000
0000
,  // measure 56
0110
0000
0000
0100
,  // measure 57
0010
0001
0000
0000
,  // measure 58
0000
0000
1001
0000
,  // measure 59
0000
1000
0000
0000
,  // measure 60
0110
0000
0000
0110
,  // measure 61
0000
0000
0110
0000
,  // measure 62
0000
1000
0100
0020
,  // measure 63
0000
0000
0030
0000
,  // measure 64
1001
0000
0000
0100
,  // measure 65
0010
2000
0000
0000
,  // measure 66
3000
0000
0110
0000
,  // measure 67
0000
0010
0001
0200
,  // measure 68
0000
0000
0300
0000
,  // measure 69
0110
0000
0000
0010
,  // measure 70
0100
0001
0000
0000
,  // measure 71
0000
0000
0000
0000
,  // measure 72
1001
0000
0000
1000
,  // measure 73
0100
0010
0001
0000
,  // measure 74
0000
0000
0000
0000
0000
0000
0000
1001
,  // measure 75
0000
0000
0000
0000
1000
0000
0000
0100
,  // measure 76
0000
1000
0000
0000
0000
0000
0000
0000
,  // measure 77
0000
0000
0000
0000
0000
0000
0000
1001
,  // measure 78
0000
0000
0000
0000
0001
0000
0000
0100
,  // measure 79
0000
0010
0000
0100
0000
0000
0000
0000
,  // measure 80
0000
0000
2001
0000
,  // measure 81
0000
0000
0000
3200
,  // measure 82
0000
0000
0000
0000
,  // measure 83
0320
0000
0000
0000
,  // measure 84
0000
0032
0000
0000
,  // measure 85
0000
0000
0203
0000
,  // measure 86
0000
0000
0000
0000
,  // measure 87
0000
0000
0000
0000
,  // measure 88
0000
0000
0000
0000
,  // measure 89
0000
0000
0300
0010
,  // measure 90
0100
0010
0100
0000
,  // measure 91
0000
0001
0010
0100
,  // measure 92
0000
0000
1000
0100
,  // measure 93
0010
0000
0000
0001
,  // measure 94
0100
0010
0000
0000
,  // measure 95
0100
0001
0010
0000
,  // measure 96
0000
0100
1000
0010
,  // measure 97
0000
0000
1000
0100
,  // measure 98
0010
0000
0000
0000
,  // measure 99
0001
1000
0100
0000
,  // measure 100
0000
0010
0001
1000
,  // measure 101
0020
0000
0000
0000
,  // measure 102
0000
0030
1001
0000
,  // measure 103
0000
1000
0010
1000
,  // measure 104
0000
0000
0000
0000
,  // measure 105
1001
0000
0000
0001
,  // measure 106
0100
0001
0000
0000
,  // measure 107
0000
0000
0110
0000
,  // measure 108
0000
0010
0100
0010
,  // measure 109
0000
0000
0000
0000
,  // measure 110
1001
0000
0000
0000
,  // measure 111
0000
0000
1001
0000
,  // measure 112
0000
1001
0000
0000
,  // measure 113
0110
0000
0000
0100
,  // measure 114
0010
2000
0000
0000
,  // measure 115
3000
0000
0110
0000
,  // measure 116
0000
1000
0010
0200
,  // measure 117
0000
0000
0300
0000
,  // measure 118
1001
0000
0000
0001
,  // measure 119
0100
0020
0000
0000
,  // measure 120
0030
0000
0000
1000
,  // measure 121
0100
0010
0001
1000
,  // measure 122
0001
0000
0100
0001
,  // measure 123
0100
0001
1000
0000
,  // measure 124
0000
0100
0010
0001
,  // measure 125
0000
0000
0100
0010
,  // measure 126
1000
0000
0000
0010
,  // measure 127
1000
0100
0000
0000
,  // measure 128
0000
0010
0001
0100
,  // measure 129
0000
0000
0001
1000
,  // measure 130
0100
0000
0000
0000
,  // measure 131
0010
0001
0100
0000
,  // measure 132
0000
0010
0100
0001
,  // measure 133
1000
0100
1000
0020
,  // measure 134
0000
0000
0000
0000
,  // measure 135
0000
0000
0030
0000
;

//---------------dance-single - ----------------
#NOTES:
     dance-single:
     :
     Medium:
     13:
     0.613,0.752,0.263,0.200,0.000: // measure 1
0000
0000
0000
0000
,  // measure 2
0000
0000
0000
0000
,  // measure 3
0000
0000
0000
0000
,  // measure 4
0000
0000
0000
0000
,  // measure 5
0000
0000
0000
0000
,  // measure 6
0000
0000
0000
0000
,  // measure 7
0000
0000
0000
0000
,  // measure 8
1000
0001
0000
1000
0001
0000
0000
0000
,  // measure 9
0010
0000
0100
1000
0000
0001
0000
1000
,  // measure 10
0000
0000
0010
0100
0010
0000
0100
0000
,  // measure 11
0001
1000
0000
0000
0010
0000
1000
0000
,  // measure 12
0010
0000
0000
0000
1000
0001
1000
0001
,  // measure 13
1000
0100
0010
0002
,  // measure 14
0000
0203
0000
0310
,  // measure 15
1000
0002
0000
0023
,  // measure 16
0000
0130
1000
0020
,  // measure 17
0000
0230
0000
0302
,  // measure 18
0000
1003
0100
0010
,  // measure 19
0001
1000
0001
0100
,  // measure 20
0000
0110
0000
0000
1000
0000
0100
0000
,  // measure 21
0010
0000
0000
0011
0000
0000
0001
0000
,  // measure 22
0100
0000
0010
0000
0000
0110
0000
0000
,  // measure 23
0100
1000
0100
0010
,  // measure 24
0000
1001
0000
0000
0001
0000
0100
0000
,  // measure 25
0010
0000
0000
0110
0000
0000
0101
0000
,  // measure 26
0001
0000
1000
0000
0000
1100
0000
0000
,  // measure 27
0100
0000
1000
0000
0010
0000
0000
0110
,  // measure 28
0000
0100
0010
0001
,  // measure 29
1000
0000
0000
1001
0000
0000
0001
0000
,  // measure 30
0100
0000
0010
0000
0000
0110
0000
0000
,  // measure 31
0100
0000
0010
0000
0001
0000
0000
1001
,  // measure 32
0000
1000
0010
0100
,  // measure 33
0000
0101
0000
0000
0001
0000
0010
0000
,  // measure 34
0100
0000
1000
0000
0000
1010
0000
0000
,  // measure 35
0010
0000
0100
0000
0001
1000
0000
0001
,  // measure 36
1000
0010
0100
0001
,  // measure 37
0010
0000
0100
0010
0000
0100
0010
0000
,  // measure 38
0001
1000
0100
0010
,  // measure 39
0001
1000
0000
0001
1000
0000
0010
0000
,  // measure 40
1000
0000
0100
0000
0010
0000
0001
0100
,  // measure 41
0000
0001
0100
0000
0001
0000
1000
0000
,  // measure 42
0100
0000
0010
0000
0001
0100
0000
0001
,  // measure 43
0100
0001
1000
0100
,  // measure 44
0010
0000
0100
1000
0000
0100
1000
0000
,  // measure 45
0001
0100
0010
1000
,  // measure 46
0100
0010
0000
0100
0010
0000
0001
0000
,  // measure 47
1000
0000
0010
0000
1000
0000
0001
1000
,  // measure 48
0000
0001
1000
0000
0010
0000
0100
0000
,  // measure 49
0001
1000
0001
1000
0002
0000
0000
0000
,  // measure 50
0000
0200
0000
0000
0000
0000
0303
0000
,  // measure 51
0110
0000
0000
0010
0000
0000
0010
0000
,  // measure 52
0100
0000
1000
0000
0000
0001
0000
0100
,  // measure 53
0001
0000
0010
0000
0100
0000
0000
0100
,  // measure 54
0000
1000
0010
0100
,  // measure 55
0000
0001
1000
0010
1000
0010
1000
0000
,  // measure 56
1001
0000
0000
0001
0000
0000
0010
0000
,  // measure 57
0100
0000
1000
0000
0000
0010
0000
0100
,  // measure 58
0001
0000
0010
0000
0100
1000
0000
0100
,  // measure 59
0000
1000
0100
0000
0010
0000
0000
0000
,  // measure 60
0001
0100
0000
0101
0000
0000
0010
1000
,  // measure 61
0000
1010
0000
0000
1001
0000
0000
0001
,  // measure 62
0000
0100
0010
1000
,  // measure 63
0000
0001
0000
0100
0001
0000
0010
0000
,  // measure 64
0100
0000
0000
0100
0000
0000
1000
0000
,  // measure 65
0010
0000
0100
0000
0000
0001
1000
0100
,  // measure 66
1000
0100
1000
0000
1001
0000
0000
0001
,  // measure 67
0000
0010
0100
2000
,  // measure 68
0000
0001
0000
0000
0001
0000
3001
0000
,  // measure 69
1000
0001
0000
1000
0000
0000
0100
0000
,  // measure 70
0010
0022
0000
0000
,  // measure 71
0000
0000
0000
0033
,  // measure 72
0001
1000
0000
0010
0000
0000
0100
0000
,  // measure 73
0001
1000
2020
0000
,  // measure 74
0000
0000
0000
0000
3030
0000
0000
0100
,  // measure 75
0010
0000
0101
0000
1002
0000
0000
0100
,  // measure 76
0000
0203
0000
0000
0000
0000
0000
0000
,  // measure 77
0000
0000
0000
0000
0300
0000
0000
0010
,  // measure 78
0100
0000
0110
0000
2010
0000
0000
0001
,  // measure 79
0000
3001
0000
0100
0020
0000
0000
0000
,  // measure 80
0000
0030
2000
0000
,  // measure 81
0001
0001
0001
3200
,  // measure 82
0000
0010
0010
0010
,  // measure 83
0320
0000
0001
0001
,  // measure 84
0001
0032
0000
1000
,  // measure 85
1000
1000
2003
0000
,  // measure 86
0001
0001
0001
0000
,  // measure 87
0000
0000
0100
0100
,  // measure 88
0100
0000
0000
0000
,  // measure 89
0001
0000
0001
0000
3001
0000
1000
0010
,  // measure 90
1000
0010
1000
0010
1000
0001
0000
1000
,  // measure 91
0001
0000
0010
0000
0100
0000
1000
0010
,  // measure 92
0000
1000
0010
0000
0100
0000
0001
0000
,  // measure 93
1000
0100
0000
1000
0100
0000
0010
0000
,  // measure 94
0001
0000
1000
0000
0010
0100
0000
0010
,  // measure 95
0100
0000
0001
0000
1000
0000
0100
0010
,  // measure 96
0000
0100
0010
0000
0001
0000
1000
0000
,  // measure 97
0001
0100
0000
0001
0100
0000
0001
0000
,  // measure 98
1000
0000
0100
1000
0000
0100
1000
0000
,  // measure 99
0010
0000
0100
0000
0001
0000
1000
0001
,  // measure 100
0000
1000
0001
0000
0010
0000
0100
0000
,  // measure 101
2000
0000
0000
0000
,  // measure 102
0000
0000
3000
0000
0110
0000
0000
0010
,  // measure 103
0000
1000
0100
0010
,  // measure 104
0000
0001
0000
0100
0001
0000
0010
0000
,  // measure 105
0100
0000
0000
0100
0000
0000
1000
0000
,  // measure 106
0001
0000
0010
0000
0000
0100
1000
0001
,  // measure 107
1000
0001
1000
0000
1001
0000
0000
0001
,  // measure 108
0000
0100
0001
1000
,  // measure 109
0000
0100
0010
0000
0001
0000
0100
0000
,  // measure 110
0010
0100
0000
0010
0000
0100
0010
0000
,  // measure 111
0100
0000
0000
0000
0001
1000
0000
1001
,  // measure 112
0000
0000
0010
0001
0000
0011
0000
0000
,  // measure 113
1001
0000
0000
1000
0000
0000
0010
0000
,  // measure 114
0100
0000
0001
0000
0000
0100
0000
0010
,  // measure 115
0100
0000
0001
0000
1001
0000
0000
1000
,  // measure 116
0000
0100
0010
0001
,  // measure 117
0000
0100
0001
1000
0001
1000
0001
0000
,  // measure 118
0110
0000
0000
0010
0000
0000
0100
0000
,  // measure 119
1000
0000
0001
0000
0000
0100
0000
0000
,  // measure 120
0001
0000
0010
0000
0000
0000
0100
1000
,  // measure 121
0100
1000
0100
1000
0000
0001
1000
0001
,  // measure 122
1000
0001
1000
0000
0001
0010
0001
0000
,  // measure 123
1000
0000
1001
0000
0001
0100
0000
0001
,  // measure 124
0100
0000
0001
0000
0010
0000
0100
1000
,  // measure 125
0000
0100
1000
0000
0001
0000
1000
0000
,  // measure 126
0100
0010
0000
0100
0010
0000
0001
0000
,  // measure 127
0100
0000
0010
1000
0000
0010
1000
0000
,  // measure 128
0001
0000
1000
0000
0100
0000
0010
0001
,  // measure 129
0000
0010
0001
0000
0010
0000
0100
0000
,  // measure 130
1000
0001
0000
1000
0001
0000
0100
0000
,  // measure 131
0010
0000
1000
0100
0000
1000
0100
0000
,  // measure 132
0010
0000
0001
0000
0100
0010
0100
0010
,  // measure 133
0100
0000
0001
1000
0001
1000
0002
0000
,  // measure 134
0000
0000
0000
0000
,  // measure 135
0000
0000
0003
0000
;

//---------------dance-single - ----------------
#NOTES:
     dance-single:
     :
     Hard:
     16:
     0.844,0.805,0.543,0.240,0.000: // measure 1
0000
0000
0000
0000
,  // measure 2
0000
0000
0000
0000
,  // measure 3
0000
0000
0000
0000
,  // measure 4
0000
0000
0000
0000
,  // measure 5
0000
0000
0000
0000
,  // measure 6
0000
0000
0000
0000
,  // measure 7
0000
0000
0000
0000
,  // measure 8
1000
0010
0000
1000
0010
0000
0100
0000
,  // measure 9
0001
0000
1000
0001
0000
0001
0000
1001
,  // measure 10
0000
0000
0100
0010
0100
0010
1000
0000
,  // measure 11
0100
0010
0000
0001
1000
0000
1000
0000
,  // measure 12
0001
0000
0100
0000
0001
1000
0100
0010
,  // measure 13
0001
0000
0101
0000
0101
0000
0100
0010
,  // measure 14
2000
0000
3020
0000
1030
0000
0001
0010
,  // measure 15
0100
1000
0000
0100
1000
0001
0200
0000
,  // measure 16
0301
0000
1000
0100
0010
0001
0000
0010
,  // measure 17
0001
1000
0020
0000
1030
0000
0001
0100
,  // measure 18
0010
1000
0000
0001
0010
0100
0010
0100
,  // measure 19
1000
0000
1001
0000
1000
0000
0100
1000
,  // measure 20
0000
0010
0100
0000
0001
0010
0100
1000
,  // measure 21
0000
0001
0100
0000
0001
1000
0000
0100
,  // measure 22
0010
0001
0000
1000
0100
0000
1000
0001
,  // measure 23
0000
0010
0100
1000
0010
0000
0100
0010
,  // measure 24
0000
1000
0100
0000
0010
0001
0010
0001
,  // measure 25
0100
0010
0000
0010
1000
0000
0001
1000
,  // measure 26
0100
0010
0000
0001
0100
0000
0100
0010
,  // measure 27
0000
1000
0100
0010
0000
0001
1000
0000
,  // measure 28
1000
0100
0000
0010
0001
0010
0100
0000
,  // measure 29
1000
0001
0000
0001
0100
0000
0010
1000
,  // measure 30
0100
0000
0010
0001
0000
0001
0100
0000
,  // measure 31
0010
1000
0100
0010
0000
0001
0100
0000
,  // measure 32
0100
0010
0000
0100
0001
1000
0000
0100
,  // measure 33
0010
0000
0010
0001
0000
0010
0100
1000
,  // measure 34
0001
0000
0100
0001
0000
0001
1000
0000
,  // measure 35
0100
0010
0100
0010
0001
0100
0001
1000
,  // measure 36
0000
0001
1000
0000
0100
0000
1100
0000
,  // measure 37
1000
0000
0100
0010
0000
0100
0010
0000
,  // measure 38
0001
0000
0101
0000
0100
0000
0010
1000
,  // measure 39
0010
0100
0000
0001
0010
0000
0100
0000
,  // measure 40
1100
0000
1000
0000
0100
0010
0100
1000
,  // measure 41
0000
0010
0100
0000
0001
0000
1001
0000
,  // measure 42
1000
0000
0100
1000
0100
0010
0000
0001
,  // measure 43
0100
0010
0110
0100
,  // measure 44
0001
0100
0001
1000
0000
0100
0010
0000
,  // measure 45
0001
0000
0101
0000
0100
0000
0010
1000
,  // measure 46
0100
0010
0000
0001
0010
0000
0100
0000
,  // measure 47
1100
0000
1000
0000
1001
0000
0001
0100
,  // measure 48
0000
0001
1000
0000
0100
0000
1100
0000
,  // measure 49
0010
0001
0100
0010
2000
0000
0000
0001
,  // measure 50
0000
0002
0000
0000
0000
0000
3003
0000
,  // measure 51
0200
0000
0000
1300
0000
0000
1100
0000
,  // measure 52
0100
0000
0120
0000
0000
0031
0100
0010
,  // measure 53
0100
0010
0100
0000
0020
0000
0000
1030
,  // measure 54
0000
1010
0010
0210
,  // measure 55
0000
0301
1000
0100
1000
0001
0010
0100
,  // measure 56
2000
0000
0000
3010
0000
0000
0110
0000
,  // measure 57
0100
0000
0201
0000
0000
0301
1000
0001
,  // measure 58
1000
0100
0010
0000
0001
0100
0000
0100
,  // measure 59
0000
0001
0100
0010
1000
0100
0000
0000
,  // measure 60
0010
0100
0000
1001
0000
0000
0100
0010
,  // measure 61
0000
1001
0000
0000
0101
0000
0000
1001
,  // measure 62
0000
1100
0100
0120
,  // measure 63
0000
0031
0100
0010
1000
0010
0100
0000
,  // measure 64
0011
0000
0000
0110
0000
0000
1010
0000
,  // measure 65
0010
0000
0210
0000
0000
0301
1000
0100
,  // measure 66
0010
0100
1000
0000
1001
0000
0000
0101
,  // measure 67
0000
1010
0010
0210
,  // measure 68
0000
0302
0000
0000
0013
0000
0110
0000
,  // measure 69
0100
1000
0000
1001
0000
0000
0011
0000
,  // measure 70
0001
0000
1001
0000
1000
0100
1000
0100
,  // measure 71
0010
0001
0010
0001
0100
0000
0000
0000
,  // measure 72
0010
1000
0000
1001
0000
0000
0101
0000
,  // measure 73
0100
0000
1001
0000
1001
0000
0100
0010
,  // measure 74
0100
0010
1000
0100
0010
0000
0000
0001
,  // measure 75
0100
0000
0110
0000
2100
0000
0000
3001
,  // measure 76
0000
0101
0000
0100
0010
0100
0010
1000
,  // measure 77
0100
0010
0001
0000
0000
0000
0000
0010
,  // measure 78
0100
0000
1010
0000
0102
0000
0000
1003
,  // measure 79
0000
1001
0000
0010
0001
0100
0010
0100
,  // measure 80
0001
0000
0001
0000
0100
0010
0000
0010
,  // measure 81
0100
0000
0001
0000
0010
0000
0001
1000
,  // measure 82
0000
1000
0001
0000
0100
0000
0010
0000
,  // measure 83
0100
0001
0000
0001
0100
0000
0010
0000
,  // measure 84
1000
0000
0100
0010
0000
0010
0100
0000
,  // measure 85
1000
0000
0010
0000
1000
0001
0000
0001
,  // measure 86
1000
0000
0100
0000
0010
0000
0001
0100
,  // measure 87
0000
0100
0001
0100
0001
0000
1000
0000
,  // measure 88
0100
0010
0000
0010
0100
0000
1000
0000
,  // measure 89
0001
0000
0100
0010
0000
0010
0100
0010
,  // measure 90
1000
0100
0010
0001
0010
0100
0000
1000
,  // measure 91
0001
0000
0010
0001
0100
0010
0000
1000
,  // measure 92
0100
0000
1000
0001
0000
0100
0001
1000
,  // measure 93
0000
1000
0001
0000
0100
0001
0000
0010
,  // measure 94
0100
1000
0001
0000
0100
0010
0000
0100
,  // measure 95
0001
0000
0010
0100
1000
0000
0010
0100
,  // measure 96
0000
0010
0100
0000
0001
1000
0100
0010
,  // measure 97
0000
0001
0100
0000
0001
1000
0000
0100
,  // measure 98
1000
0010
0000
0100
0001
0000
0010
0100
,  // measure 99
0000
1000
0010
1000
0001
0000
0010
0100
,  // measure 100
0000
1000
0010
0000
0100
0001
0100
0010
,  // measure 101
2000
0000
0000
0001
0000
0002
0000
0000
,  // measure 102
0000
0000
3003
0000
0200
0000
0000
0010
,  // measure 103
0000
0310
1000
1002
,  // measure 104
0000
0013
0100
0010
0100
1000
0010
0000
,  // measure 105
0200
0000
0000
0010
0000
0000
0310
0000
,  // measure 106
1000
0000
1002
0000
0000
0013
0100
1000
,  // measure 107
0010
1000
0100
0000
0020
0000
0000
0100
,  // measure 108
0000
0130
1000
1002
,  // measure 109
0000
0013
0100
1000
0010
0100
0010
1000
,  // measure 110
0100
0010
0000
0010
0000
0100
0010
0001
,  // measure 111
0100
0001
0000
0000
0100
0010
0000
1001
,  // measure 112
0000
0000
0010
0100
0000
1001
0000
0000
,  // measure 113
1100
0000
0000
0110
0000
0000
0101
0000
,  // measure 114
0110
0000
2010
0000
0000
3001
1000
0100
,  // measure 115
0010
0100
1000
0000
1001
0000
0000
0011
,  // measure 116
0000
1001
1010
0210
,  // measure 117
0000
0301
1000
0010
0100
0010
1000
0000
,  // measure 118
1001
0000
0000
1010
0000
0000
0110
0000
,  // measure 119
0011
0000
2100
0000
0000
0001
0000
0000
,  // measure 120
3100
0000
0110
0000
0000
1000
0001
0100
,  // measure 121
1000
0100
0001
0010
0000
0100
1000
0100
,  // measure 122
0001
0100
1000
0000
0001
0010
0001
0100
,  // measure 123
0010
1000
0100
0000
0010
0001
0000
0001
,  // measure 124
1000
0000
0100
0010
0001
1000
0000
0001
,  // measure 125
0100
0000
0100
0010
0000
1000
0100
0010
,  // measure 126
0000
0001
1000
0000
1000
0100
0000
0010
,  // measure 127
0001
0100
0000
0001
1000
0000
1000
0010
,  // measure 128
0000
0100
0001
1000
0100
0000
0010
0100
,  // measure 129
0000
0100
1000
0000
0010
0100
0001
0010
,  // measure 130
0000
0100
1000
0000
1000
0010
0000
0100
,  // measure 131
0001
0010
0000
0001
1000
0000
1000
0010
,  // measure 132
0000
0100
0001
0010
0100
1000
0010
0001
,  // measure 133
0010
1000
0100
0010
0001
1000
0020
0000
,  // measure 134
0000
0000
0000
0000
,  // measure 135
0000
0000
0030
0000
;

//---------------dance-double - ----------------
#NOTES:
     dance-double:
     :
     Easy:
     9:
     0.303,0.483,0.184,0.168,0.000:
00000000
00000000
00000000
00000000
,
00000000
00000000
00000000
00000000
,
00000000
00000000
00000000
00000000
,
00000000
00000000
00000000
00000000
,
00000000
00000000
00000000
00000000
,
00000000
00000000
00000000
00000000
,
00000000
00000000
00000000
00000000
,
10010000
00000000
00000000
00000000
,
00010000
00000000
10000000
00000000
,
00000000
00100000
00000000
00000000
,
01000000
00000000
00000000
00000000
,
00001000
00000000
00020000
00000000
,
00030001
00010000
00000001
00000020
,
00000000
00000000
00000000
00000000
,
00000000
00000230
00000000
00000000
,
00000000
00000000
00000000
00000000
,
00002300
00000000
00000000
00000000
,
00000000
00000000
00000000
00000000
,
00023000
00000000
00000000
01030000
,
00000000
00000000
00100000
01000000
,
00100000
00000000
00000000
10000000
,
00100000
10000000
00000000
00000000
,
00100000
01000000
00100000
01000000
,
00001000
01000000
00001000
01000000
,
00001000
00000000
00000000
00010000
,
00000000
00000100
00000000
00000000
,
00000010
00000000
00000001
00000000
,
00000000
00000010
00000000
00000100
,
00000000
00000000
00010000
00000000
,
00001000
00000000
00000000
01000000
,
00000000
00100000
00000000
00000000
,
10000000
00000000
00100000
00000000
,
00000000
01000000
00000000
00001000
,
00000000
00000000
00010000
00000000
,
00000010
00000000
00010000
00000000
,
00000000
00000001
00000010
00000001
,
00000000
00000000
00000000
00000000
,
00010000
00000100
00010000
00000000
,
00000000
00000000
00000000
00000000
,
00001000
00010000
00001000
00000000
,
00000000
00000000
10000000
01000000
,
10000000
00000000
00010000
00000000
,
00000000
00000000
01000000
00100000
,
10000000
01000000
00000000
00000000
,
00100000
00010000
00001000
00000100
,
00000000
00000000
00000000
00000000
,
00000010
00000001
00000100
00000010
,
00000000
00000000
00000000
00010000
,
00001000
00100000
01000000
00000000
,
00000000
00100000
00000000
00000000
,
01100000
00000000
00000000
00100000
,
01000000
10000000
00000000
00000000
,
00000000
00000000
01100000
00000000
,
00000000
01000000
00100000
00001000
,
00000000
00000000
00000000
00000000
,
00011000
00000000
00000000
00010000
,
00000010
00000100
00000000
00000000
,
00000000
00000000
00000110
00000000
,
00000000
00000010
00000000
00000000
,
00001001
00000000
00000000
00001001
,
00000000
00000000
00001001
00000000
,
00000000
00000010
00000100
00020000
,
00000000
00000000
00030000
00000000
,
00011000
00000000
00000000
00001000
,
00100000
02000000
00000000
00000000
,
03000000
00000000
10010000
00000000
,
00000000
10000000
00100000
02000000
,
00000000
00000000
03000000
00000000
,
00011000
00000000
00000000
00001000
,
00010000
00000020
00000000
00000000
,
00000030
00000000
00000000
00000000
,
01100110
00000000
00000000
00000100
,
00000010
00000001
00020000
00000000
,
00000000
00000000
00030000
00000000
00000000
00000000
00000000
00011000
,
00000000
00000000
00001000
00000000
,
02000000
00000000
00000000
03000000
,
00000000
00000000
00000000
00000000
00000000
00000000
00000000
01100000
,
00000000
00000000
00000000
00000000
00100000
00000000
00000000
10000000
,
00000000
00010000
00000000
10000000
00000000
00010000
00000000
00000000
,
00000000
00000000
02000000
00000000
,
00000000
00000000
00000000
03002000
,
00000000
00000000
00000000
00000000
,
00023000
00000000
00000000
00000000
,
00000000
00030200
00000000
00000000
,
00000000
00000000
00000320
00000000
,
00000000
00000000
00000000
00000000
,
00000000
00000000
00000000
00000000
,
00000000
00000000
00000000
00000000
,
00000000
00000000
00000030
00000001
,
00000010
00000001
00000010
00000000
,
00000000
00000100
00010000
00001000
,
00000000
00000000
01000000
00100000
,
01000000
00000000
00000000
00100000
,
10000000
01000000
00000000
00000000
,
10000000
01000000
10000000
00000000
,
00000000
00100000
01000000
00001000
,
00000000
00000000
00010000
00000100
,
00000010
00000000
00000000
00000000
,
00000001
00000010
00000001
00000000
,
00000000
00000010
00000001
00000100
,
00000020
00000000
00000000
00000000
,
00000000
00000030
00001001
00000000
,
00000000
00000001
00000010
00000001
,
00000000
00000000
00000000
00000000
,
00011000
00000000
00000000
00001000
,
00010000
00001000
00000000
00000000
,
00000000
00000000
01100000
00000000
,
00000000
01000000
00100000
01000000
,
00000000
00000000
00000000
00000000
,
10010000
00000000
00000000
00000000
,
00000000
00000000
01100000
00000000
,
00000000
01100000
00000000
00000000
,
10010000
00000000
00000000
00010000
,
10000000
02000000
00000000
00000000
,
03000000
00000000
01100000
00000000
,
00000000
01000000
00100000
00002000
,
00000000
00000000
00003000
00000000
,
00011000
00000000
00000000
00010000
,
00000010
00000200
00000000
00000000
,
00000300
00000000
00000000
00000001
,
00000100
00000001
00000100
00000010
,
00010000
00000000
00001000
00100000
,
00001000
00100000
01000000
00000000
,
00000000
10000000
01000000
00100000
,
00000000
00000000
00001000
00010000
,
00000010
00000000
00000000
00000100
,
00000001
00000010
00000000
00000000
,
00000000
00000001
00000010
00000100
,
00000000
00000000
00010000
00001000
,
00100000
00000000
00000000
00000000
,
01000000
10000000
00010000
00000000
,
00000000
10000000
01000000
00100000
,
00001000
00010000
00001000
00020000
,
00000000
00000000
00000000
00000000
,
00000000
00000000
00030000
00000000
;

//---------------dance-double - ----------------
#NOTES:
     dance-double:
     :
     Medium:
     13:
     0.624,0.752,0.168,0.271,0.000:
00000000
00000000
00000000
00000000
,
00000000
00000000
00000000
00000000
,
00000000
00000000
00000000
00000000
,
00000000
00000000
00000000
00000000
,
00000000
00000000
00000000
00000000
,
00000000
00000000
00000000
00000000
,
00000000
00000000
00000000
00000000
,
10000000
00010000
00000000
10000000
00010000
00000000
00000000
00000000
,
10000000
00000000
00100000
01000000
00000000
00001000
00000000
01000000
,
00000000
00000000
00001000
00010000
00001000
00000000
00010000
00000000
,
00000010
00010000
00000000
00000000
00000001
00000000
00000001
00000000
,
00000001
00000000
00000000
00000000
00000100
00000010
00000100
00000010
,
00000100
00000001
00000010
00000200
,
00000000
00020300
00000000
00031000
,
01000000
00200000
00000000
20300000
,
00000000
30100000
01000000
00002000
,
00000000
00023000
00000000
00030200
,
00000000
00000310
00000001
00000100
,
00000010
00010000
00010000
00010000
,
00000000
00011000
00000000
00000000
00001000
00000000
00100000
00000000
,
01000000
00000000
00000000
11000000
00000000
00000000
10000000
00000000
,
00100000
00000000
01000000
00000000
00000000
01100000
00000000
00000000
,
00100000
01000000
00001000
00010000
,
00000000
00010010
00000000
00000000
00000010
00000000
00000100
00000000
,
00000001
00001000
00000000
00000001
00000000
00000000
00000010
00000000
,
00000100
00000000
00001000
00010000
00000000
00001000
00000000
00000000
,
00010000
00000000
00100000
00000000
01000000
10000000
00000000
01000000
,
00000000
10000000
00100000
01000000
,
00001000
00100000
00000000
00001000
00000000
00000000
00010000
00000000
,
00000100
00000000
00000010
00000001
00000000
00000010
00000000
00000000
,
00000001
00000000
00000100
00000000
00000010
00000100
00000000
00000010
,
00000000
00000000
00001000
00000000
00010000
00000000
00100000
01000000
,
00000000
00100000
00000000
00000000
00010000
00000000
10000000
00000000
,
00100000
00000000
01000000
00001000
00000000
01000000
00000000
00000000
,
00010000
00000000
00001000
00000000
00000010
00000000
00000100
00000001
,
00000000
00000100
00000001
00000000
00000010
00000000
00000100
00000000
,
00001000
00000000
00010000
01000000
00000000
00010000
01000000
00000000
,
00100000
10000000
01000000
00100000
,
00001000
00010000
00000000
00001000
00010000
00000000
00000100
00000000
,
00000010
00000000
00000100
00000000
00010000
00000000
00000001
00000100
,
00000000
00000001
00000100
00000000
00000010
00000000
00010000
00000000
,
00001000
00000000
00100000
00000000
01000000
10000000
00000000
01000000
,
10000000
00100000
01000000
00001000
,
10000000
00000000
00001000
00000000
00010000
00000010
00000000
00010000
,
00000010
00000100
00000001
00000010
,
00000100
00010000
00000000
00000100
00010000
00000000
00001000
00000000
,
00100000
00000000
01000000
00000000
00100000
00000000
00001000
01000000
,
00000000
00001000
01000000
00000000
00100000
00000000
10000000
00000000
,
01000000
00100000
01000000
00100000
01000000
00000000
00000000
01000000
,
00000000
00020000
20000000
00000000
00000000
00000000
30030000
00000000
,
10010000
00000000
00000000
10000000
00000000
00000000
10000000
00000000
,
01000000
00000000
00200000
00000000
00000000
00301000
00000000
00010000
,
00000100
00000000
00000010
00000000
00000001
00000000
00000000
00000001
,
00000000
00000100
00000010
00020000
,
00000000
00031000
01000000
00100000
01000000
00100000
01000000
00000000
,
10010000
00000000
00000000
10000000
00000000
00000000
01000000
00000000
,
00100000
00000000
00002000
00000000
00000000
00013000
00000000
00000010
,
00000100
00000000
00000000
00000000
00000001
00000100
00000000
00000010
,
00000000
00000100
00000001
00000000
00010000
00000000
00000000
00000000
,
00001000
00010000
00000000
00011000
00000000
00000000
00100000
01000000
,
00000000
01100000
00000000
00000000
10010000
00000000
00000000
10000000
,
00000000
00010000
10000000
02000000
,
00000000
03100000
00001000
00010000
00001000
00010000
00001000
00000000
,
00010000
00000000
00000000
00010000
00000000
00000000
00000010
00000000
,
00000100
00000000
00000002
00000000
00000000
00000013
00000100
00010000
,
00000100
00010000
00000100
00000000
00011000
00000000
00000000
00001000
,
00000000
01000000
00100000
20000000
,
00000000
00010000
00000000
00000000
00010000
00000000
30010000
00000000
,
01000000
00100000
00000000
01000000
00000000
00000000
00001000
00000000
,
00010000
00022000
00000000
00000000
,
00000000
00000000
00000000
00033000
,
00010000
00000010
00000000
00010000
00000000
00000000
00000100
00000000
,
00000010
00000001
00002002
00000000
,
00000000
00000000
00000000
00000000
00003003
00000000
00000000
00000001
,
00000100
00000000
00000010
00000000
00020000
00000000
00000000
00031000
,
00000000
00022000
00000000
00000000
00000000
00000000
00000000
00000000
,
00000000
00000000
00000000
00000000
00033000
00000000
00000000
00100000
,
01000000
00000000
10000000
00000000
00200000
00000000
00000000
01000000
,
00000000
01000000
00000000
01300000
00020000
00000000
00000000
00000000
,
00000000
00030000
02000000
00000000
,
00100000
00100000
00100000
03002000
,
00000000
00010000
00010000
00010000
,
00023000
00000000
00000010
00000010
,
00000010
00030002
00000000
00000010
,
00000010
00000010
00000203
00000000
,
00000010
00000010
00000010
00000000
,
00000000
00000000
00000001
00000001
,
00000001
00000000
00000000
00000000
,
00000010
00000000
00000010
00000000
00000310
00000000
00001000
00000001
,
00001000
00000001
00001000
00000001
00001000
00000100
00000000
00001000
,
00000100
00000000
00010000
00000000
00001000
00000000
01000000
00100000
,
00000000
01000000
00100000
00000000
10000000
00000000
00100000
00000000
,
01000000
00010000
00000000
01000000
00010000
00000000
10000000
00000000
,
01000000
00000000
00100000
00000000
00001000
00010000
00000000
00001000
,
00010000
00000000
00000100
00000000
00000010
00000000
00000001
00001000
,
00000000
00000001
00001000
00000000
00000001
00000000
00000100
00000000
,
00000010
00010000
00000000
00000010
00010000
00000000
00001000
00000000
,
01000000
00000000
00100000
01000000
00000000
00100000
01000000
00000000
,
00010000
00000000
10000000
00000000
01000000
00000000
00100000
00001000
,
00000000
00100000
00001000
00000000
00010000
00000000
00000100
00000000
,
00000020
00000000
00000000
00000000
,
00000000
00000000
00000030
00000000
00001001
00000000
00000000
00000001
,
00000000
00000010
00000100
00001000
,
00000000
00001000
00000000
00010000
00001000
00000000
01000000
00000000
,
00100000
00000000
00000000
00100000
00000000
00000000
10000000
00000000
,
01000000
00000000
00100000
00000000
00000000
00100000
00001000
00010000
,
00001000
00010000
00001000
00000000
00011000
00000000
00000000
00010000
,
00000000
00000010
00000100
00000001
,
00000000
00001000
00000001
00000000
00000010
00000000
00000100
00000000
,
00010000
00001000
00000000
00100000
00000000
00001000
00010000
00000000
,
00001000
00000000
00000000
00000000
00100000
01000000
00000000
01100000
,
00000000
00000000
10000000
00010000
00000000
10010000
00000000
00000000
,
01100000
00000000
00000000
01000000
00000000
00000000
00001000
00000000
,
00010000
00000000
00000020
00000000
00000000
00000130
00000001
00001000
,
00000001
00001000
00000001
00000000
00001001
00000000
00000000
00001000
,
00000000
00000010
00010000
00002000
,
00000000
10003000
00100000
01000000
00100000
01000000
00100000
00000000
,
10010000
00000000
00000000
10000000
00000000
00000000
00010000
00000000
,
01000000
00000000
00002000
00000000
00000000
00010000
00000000
00000000
,
00010000
00000000
00013000
00000000
00000000
00000000
00000010
00010000
,
00000010
00010000
00000010
00010000
00000010
00000000
00000100
00000010
,
00000100
00000010
00000100
00000000
00000001
00001000
00000001
00000000
,
00001000
00000000
00001001
00000000
00000010
00000001
00000000
00000010
,
00000001
00000000
00000100
00000000
00000010
00000000
00010000
00001000
,
00000000
00010000
00001000
00000000
00100000
00000000
01000000
00000000
,
10000000
00010000
00000000
10000000
00010000
00000000
00100000
00000000
,
00001000
00000000
00010000
00000010
00000000
00010000
00000010
00000000
,
00000100
00000000
00000001
00000000
00000010
00000000
00000100
00010000
,
00000000
00000100
00010000
00000000
00001000
00000000
00100000
00000000
,
01000000
00100000
00000000
01000000
00100000
00000000
00010000
00000000
,
10000000
00000000
01000000
00100000
00000000
01000000
00100000
00000000
,
00001000
00000000
00010000
00000000
00000010
00010000
00000010
00010000
,
00000010
00000000
00000100
00000010
00000100
00000010
00000200
00000000
,
00000000
00000000
00000000
00000000
,
00000000
00000000
00000300
00000000
;

//---------------dance-double - ----------------
#NOTES:
     dance-double:
     :
     Hard:
     16:
     0.844,0.805,0.551,0.232,0.000:
00000000
00000000
00000000
00000000
,
00000000
00000000
00000000
00000000
,
00000000
00000000
00000000
00000000
,
00000000
00000000
00000000
00000000
,
00000000
00000000
00000000
00000000
,
00000000
00000000
00000000
00000000
,
00000000
00000000
00000000
00000000
,
00010000
10000000
00000000
00010000
10000000
00000000
01000000
00000000
,
00100000
00000000
00001000
00010000
00000000
00010000
00000000
00011000
,
00000000
00000000
00010000
00000100
00000010
00000001
00000100
00000000
,
00000010
00000100
00000000
00000001
00000100
00000000
00000100
00000000
,
00000001
00000000
00000010
00000000
00000100
00010000
00001000
00100000
,
01000000
00000000
01100000
00000000
01100000
00000000
00010000
10000000
,
02000000
00000000
23000000
00000000
31000000
00000000
00100000
00010000
,
00001000
00000100
00000000
00001000
00000100
00000010
00000002
00000000
,
00000103
00000000
00000010
00000100
00000001
00000010
00000000
00000100
,
00001000
00010000
02000000
00000000
03100000
00000000
10000000
00100000
,
01000000
00001000
00000000
00010000
00000010
00000100
00000010
00000100
,
00000010
00000000
00001001
00000000
00000001
00000000
00000100
00000001
,
00000000
00000010
00000100
00000000
00010000
00001000
00100000
01000000
,
00000000
10000000
00100000
00000000
10000000
00010000
00000000
00100000
,
01000000
10000000
00000000
00100000
01000000
00000000
00001000
00010000
,
00000000
00000100
00000010
00000001
00000100
00000000
00000010
00000100
,
00000000
00000001
00000010
00000000
00000100
00010000
00000100
00010000
,
00001000
00100000
00000000
01000000
00100000
00000000
00010000
01000000
,
00100000
10000000
00000000
00010000
10000000
00000000
01000000
00100000
,
00000000
00001000
00010000
00000010
00000000
00000100
00000010
00000000
,
00000100
00000001
00000000
00000010
00000100
00000010
00000001
00000000
,
00000100
00000010
00000000
00010000
00000100
00000000
00001000
00010000
,
00100000
00000000
01000000
10000000
00000000
00100000
01000000
00000000
,
00001000
00010000
00000100
00000010
00000000
00000001
00000100
00000000
,
00000001
00010000
00000000
00001000
01000000
00100000
00000000
01000000
,
00100000
00000000
10000000
01000000
00000000
00100000
01000000
10000000
,
00001000
00000000
00010000
00000010
00000000
00000100
00000010
00000000
,
00000100
00000001
00000100
00000001
00000010
00000100
00001000
00010000
,
00000000
01000000
00100000
00000000
01000000
00000000
01010000
00000000
,
00010000
00000000
10000000
00100000
00000000
00100000
01000000
00000000
,
00001000
00000000
00011000
00000000
00010000
00000000
00000100
00000010
,
00000001
00000010
00000000
00000100
00000010
00000000
00000010
00000000
,
00000011
00000000
00000001
00000000
00000010
00000100
00010000
00001000
,
00000000
00100000
01000000
00000000
01000000
00000000
01100000
00000000
,
00100000
00000000
10000000
00100000
10000000
00001000
00000000
00010000
,
00000100
00000100
00000110
00000010
,
00000001
00000100
00000001
00000010
00000000
00000100
00010000
00000000
,
00010000
00000000
00011000
00000000
00001000
00000000
00100000
01000000
,
10000000
00100000
00000000
10000000
00010000
00000000
00100000
00000000
,
01100000
00000000
01000000
00000000
11000000
00000000
00100000
00010000
,
00000000
00100000
01000000
00000000
10000000
00000000
11000000
00000000
,
00100000
00010000
00001000
00000010
00000200
00000000
00000000
00000001
,
00000000
00000002
00000000
00000000
00000000
00000000
00000303
00000000
,
00000020
00000000
00000000
00000001
00000000
00000000
00000130
00000000
,
00010000
00000000
00012000
00000000
00000000
00100000
00000000
00103000
,
01000000
10000000
01000000
00000000
20000000
00000000
00000000
00010000
,
00000000
30010000
01000000
01002000
,
00000000
00013000
00000010
00000100
00000010
00000100
00000001
00000010
,
00000200
00000000
00000000
00010000
00000000
00000000
00010300
00000000
,
00001000
00000000
02001000
00000000
00000000
03100000
10000000
01000000
,
10000000
01000000
00100000
00000000
00010000
10000000
00000000
10000000
,
00000000
00010000
10000000
01000000
00100000
00001000
00000000
00000000
,
00010000
00000010
00000000
00000110
00000000
00000000
00000100
00000001
,
00000000
00000011
00000000
00000000
00001001
00000000
00000000
00000110
,
00000000
00001001
00000001
00002001
,
00000000
00003010
00010000
00000100
00010000
00001000
00010000
00000000
,
10001000
00000000
00000000
01100000
00000000
00000000
10001000
00000000
,
10000000
00000000
10200000
00000000
00000000
01300000
00001000
00100000
,
00001000
00010000
00001000
00000000
00010001
00000000
00000000
00000110
,
00000000
00010001
00000001
00000021
,
00000000
00000230
00000000
00000000
00010300
00000000
00011000
00000000
,
00001000
01000000
00000000
01100000
00000000
00000000
10010000
00000000
,
10010000
00000000
01100000
00000000
01000000
00010000
01000000
00010000
,
10000000
01000000
10000000
01000000
00100000
00000000
00000000
00000000
,
00001000
00010000
00000000
00010010
00000000
00000000
00001001
00000000
,
00000110
00000000
00000110
00000000
00001001
00000000
00000001
00000100
,
00000001
00000100
00000001
00000010
00000100
00000000
00000000
00010000
,
00001000
00000000
01001000
00000000
01200000
00000000
00000000
10300000
,
00000000
10010000
00000000
00010000
10000000
00010000
10000000
01000000
,
00100000
00001000
00010000
00000000
00010000
00000000
00000010
00000100
,
00000001
00000000
00001001
00000000
00000201
00000000
00000000
00000310
,
00000000
00010010
00000000
00010000
00001000
00010000
00001000
01000000
,
00100000
00000000
00100000
00000000
10000000
01000000
00000000
01000000
,
10000000
00000000
01000000
00000000
00100000
00000000
00001000
01000000
,
00000000
01000000
00001000
00000000
00010000
00000000
00000010
00000000
,
00000100
00000001
00000000
00000001
00000100
00000000
00000001
00000000
,
00001000
00000000
00000100
00010000
00000000
00010000
00000100
00000000
,
00001000
00000000
00010000
00000000
01000000
00100000
00000000
00100000
,
01000000
00000000
00010000
00000000
10000000
00000000
01000000
10000000
,
00000000
10000000
01000000
00100000
01000000
00000000
01000000
00000000
,
10000000
00010000
00000000
00010000
10000000
00000000
01000000
00000000
,
00100000
00000000
00001000
00010000
00000000
00010000
00001000
00000100
,
00000010
00000100
00000010
00000001
00000100
00000001
00000000
00000010
,
00000100
00000000
00010000
00000100
00010000
00001000
00000000
00100000
,
01000000
00000000
10000000
00100000
00000000
10000000
00100000
01000000
,
00000000
00001000
00010000
00000000
00000100
00000010
00000000
00000001
,
00000100
00000010
00000100
00000000
00000001
00000010
00000000
00000100
,
00000010
00000000
00000001
00010000
00000100
00000000
00001000
00010000
,
00000000
01000000
00100000
00000000
00010000
10000000
01000000
10000000
,
00000000
01000000
00100000
00000000
00001000
00010000
00000000
00000010
,
00000100
00000001
00000000
00000100
00000001
00000000
00000010
00000100
,
00000000
00010000
00000100
00010000
00001000
00000000
00100000
01000000
,
00000000
10000000
00100000
00000000
10000000
00100000
10000000
00001000
,
00020000
00000000
00000000
00000010
00000000
00000020
00000000
00000000
,
00000000
00000000
00030030
00000000
00000200
00000000
00000000
00000010
,
00000000
00000310
00001000
00001002
,
00000000
00000013
00000100
00010000
00000100
00010000
00001000
00000000
,
00020000
00000000
00000000
00001000
00000000
00000000
00031000
00000000
,
01000000
00000000
01200000
00000000
00000000
10300000
00010000
00100000
,
01000000
00100000
00010000
00000000
20000000
00000000
00000000
00010000
,
00000000
30010000
01000000
01002000
,
00000000
00013000
00000010
00000100
00000010
00000100
00000001
00000010
,
00000100
00001000
00000000
00001000
00000000
00000001
00001000
00000100
,
00010000
00001000
00000000
00000000
00100000
01000000
00000000
11000000
,
00000000
00000000
00100000
01000000
00000000
01001000
00000000
00000000
,
00011000
00000000
00000000
00010010
00000000
00000000
00000110
00000000
,
00000110
00000000
00000102
00000000
00000000
00000013
00000100
00010000
,
00001000
00010000
00001000
00000000
01100000
00000000
00000000
10100000
,
00000000
10010000
10010000
21000000
,
00000000
30100000
01000000
00001000
00100000
00001000
00100000
00000000
,
00011000
00000000
00000000
00010100
00000000
00000000
00000110
00000000
,
00000110
00000000
00000011
00000000
00000000
00000110
00000000
00000000
,
00010100
00000000
00011000
00000000
00000000
00000000
00001000
01000000
,
00100000
01000000
00001000
01000000
00100000
00000000
10000000
01000000
,
00100000
01000000
10000000
00000000
00100000
10000000
00100000
01000000
,
00001000
00100000
00001000
00000000
00010000
00000010
00000000
00000010
,
00000100
00000000
00000001
00000010
00000100
00000010
00000000
00000001
,
00000100
00000000
00000100
00000010
00000000
00010000
00001000
00100000
,
00000000
01000000
10000000
00000000
10000000
00010000
00000000
00100000
,
01000000
10000000
00000000
00100000
01000000
00000000
01000000
00001000
,
00000000
00010000
00000010
00000100
00000010
00000000
00000100
00000001
,
00000000
00000001
00000010
00000000
00000100
00010000
00001000
01000000
,
00000000
00100000
10000000
00000000
10000000
00010000
00000000
00100000
,
01000000
10000000
00000000
00100000
01000000
00000000
01000000
00001000
,
00000000
00010000
00000010
00000100
00000010
00010000
00000010
00000100
,
00000001
00000010
00000100
00000010
00000001
00000100
00000020
00000000
,
00000000
00000000
00000000
00000000
,
00000000
00000000
00000030
00000000
;

//---------------dance-single - ----------------
#NOTES:
     dance-single:
     :
     Beginner:
     3:
     0.123,0.212,0.176,0.000,0.000:
0000
0000
0000
0000
,
0000
0000
0000
0000
,
0000
0000
0000
0000
,
0000
0000
0000
0000
,
0000
0000
0000
0000
,
0000
0000
0000
0000
,
0000
0000
0000
0000
,
1000
0000
0000
0000
,
0000
0000
0000
0000
,
0001
0000
0000
0000
,
0000
0000
0000
0000
,
1000
0000
0000
0000
,
0000
0000
0000
0010
,
0000
0000
0000
0000
,
0000
0100
0000
0000
,
0000
0000
0000
0000
,
0010
0000
0000
0000
,
0000
0000
0100
0000
,
0000
0000
0000
0010
,
0000
0000
0000
0000
,
0000
1000
0000
0000
,
0000
0000
0001
0000
,
0000
0000
0000
1000
,
0000
0000
0000
0000
,
0001
0000
0000
0000
,
0000
0000
0010
0000
,
0000
0000
0000
0001
,
0000
0000
0000
0000
,
0010
0000
0000
0000
,
0000
0100
0000
0000
,
0000
0000
0000
1000
,
0000
0000
0000
0000
,
0001
0000
0000
0000
,
0000
1000
0000
0000
,
0000
0000
1001
0000
,
0000
0000
0000
0000
,
0001
0000
0000
0000
,
0000
0000
0000
0000
,
1000
0000
0000
0000
,
0000
0000
0000
0100
,
0000
0000
0000
0000
,
0000
0000
0010
0000
,
0000
0000
0000
0000
,
0000
0001
0000
0000
,
0000
0000
0000
0000
,
0000
1000
0000
0000
,
0000
0000
0000
0000
,
0001
0000
0000
0000
,
0000
0000
0100
0000
,
0000
0000
0000
0000
,
0110
0000
0000
0000
,
0000
0010
0000
0000
,
0000
0000
0100
0000
,
0000
0000
0000
0001
,
0000
0000
0000
0000
,
0100
0000
0000
0000
,
0000
0010
0000
0000
,
0000
0000
1000
0000
,
0000
0000
0000
0000
,
1001
0000
0000
0000
,
0000
0000
1001
0000
,
0000
0000
0000
0001
,
0000
0000
0000
0000
,
0010
0000
0000
0000
,
0000
0100
0000
0000
,
0000
0000
1000
0000
,
0000
0000
0000
0100
,
0000
0000
0000
0000
,
1001
0000
0000
0000
,
0000
1001
0000
0000
,
0000
0000
0000
0000
,
1001
0000
0000
0000
,
0000
1001
0000
0000
,
0000
0000
0000
0000
,
0110
0000
0000
0000
,
0000
0110
0000
0000
,
0000
0000
0000
0110
,
0000
0000
0000
0000
,
0000
0000
0110
0000
,
0000
0000
0010
0000
,
0000
0000
0000
0100
,
0000
0000
0000
0000
,
1000
0000
0000
0000
,
0000
0010
0000
0000
,
0000
0000
0100
0000
,
0000
0000
0000
0000
,
0000
0000
0000
0000
,
0000
0000
0000
0000
,
0000
0000
0000
0010
,
0000
0000
0110
0000
,
0000
0000
0000
0000
,
1001
0000
0000
0000
,
0000
1001
0000
0000
,
0000
0000
0110
0000
,
0000
0000
0000
0110
,
0000
0000
0000
0000
,
1001
0000
0000
0000
,
0000
0000
1001
0000
,
0000
0000
0000
0110
,
0000
0000
0000
0000
,
0010
0000
0000
0000
,
0000
0000
0100
0000
,
0000
0000
0000
0000
,
0000
0000
0000
0000
,
0001
0000
0000
0000
,
0000
0000
0000
0000
,
0000
0000
0100
0000
,
0000
0000
0000
0000
,
0000
0000
0000
0000
,
0010
0000
0000
0000
,
0000
0000
1001
0000
,
0000
0000
0000
0000
,
1000
0000
0000
0000
,
0000
0100
0000
0000
,
0000
0000
1000
0000
,
0000
0000
0000
0010
,
0000
0000
0000
0000
,
0100
0000
0000
0000
,
0000
0001
0000
0000
,
0000
0000
0000
0010
,
0000
0000
0000
0000
,
0000
0000
0000
0000
,
0000
0000
1001
0000
,
0000
0000
0000
0000
,
0100
0000
0000
0000
,
0000
1000
0000
0000
,
0000
0000
0001
0000
,
0000
0000
0000
0010
,
0000
0000
0000
0000
,
0001
0000
0000
0000
,
0000
0010
0000
0000
,
0000
0000
0000
0100
,
0000
0000
0000
1000
;
