#TITLE:Give Love A Chance;
#SUBTITLE:;
#ARTIST:JAKAZiD;
#TITLETRANSLIT:;
#SUBTITLETRANSLIT:;
#ARTISTTRANSLIT:;
#CREDIT:DigiMindAxel;
#BANNER:Give Love A Chance.png;
#BACKGROUND:Give Love A Chance-bg.png;
#LYRICSPATH:;
#CDTITLE:DigiMindAxel original simfile.png;
#MUSIC:Give Love A Chance.ogg;
#METERTYPE:DDR X;
#OFFSET:-11.036;
#SAMPLESTART:65.863;
#SAMPLELENGTH:12.000;
#SELECTABLE:YES;
#BPMS:0.000=174.000,32.000=87.000,80.000=174.000;
#STOPS:;
#BGCHANGES:;

//---------------dance-single - ----------------
#NOTES:
     dance-single:
     :
     Easy:
     5:
     0.201,0.224,0.080,0.196,0.009:
1001
0000
1001
0000
,
1001
0000
1001
0000
,
0001
0010
0100
1000
,
0002
0000
0000
0000
,
1003
0000
0000
0000
,
0000
0000
0000
0000
,
0010
0000
0000
0000
,
0000
0000
0000
0000
,
0100
0000
0000
0000
,
0001
0000
0000
0000
,
2002
0000
3003
0000
,
0002
0000
0203
0000
,
0320
0000
0030
0000
,
2000
0000
3200
0000
,
0320
0000
0032
0000
,
2003
0000
3002
0000
,
0203
0000
0320
0000
,
0230
0000
0302
0000
,
1003
0000
0000
1000
0000
0000
1000
0000
0000
0000
0000
0000
0000
0000
0000
0000
,
0001
0000
0000
0001
0000
0000
0000
0000
0010
0000
0100
0000
0010
0000
0000
0000
,
0001
0000
0000
0001
0000
0000
0001
0000
,
0000
0000
0000
0000
,
1000
0000
0000
1000
0000
0000
0000
0000
,
2002
0000
0000
3003
,
1000
0000
0100
0000
,
1000
0100
0010
0001
,
0100
0000
0010
0000
,
0100
0001
0010
0100
,
1000
0000
0001
0000
,
0100
0001
1000
0100
,
0010
0000
0001
0000
,
0100
0010
1000
0010
,
0100
0000
0001
0000
,
1000
0100
0010
0100
,
1000
0000
0001
0000
,
0100
0010
0100
0001
,
0100
0000
0010
0000
,
1000
0100
1000
0001
,
0100
0000
0100
0000
,
2002
0000
0000
3003
,
0001
0001
0001
0000
,
0100
0000
0010
0000
,
1000
1000
1000
0000
,
0100
0000
0010
0000
,
0001
0001
0001
0000
,
0010
0000
0100
0000
,
1000
1000
1000
0000
,
0010
0000
0100
0000
,
0001
0001
0001
0000
,
0010
0100
0010
0000
,
0001
0001
0001
0000
,
0100
0000
0010
0000
,
1000
1000
1000
0000
,
0100
0000
0010
0000
,
0001
0001
0001
0000
,
0220
0000
0000
0330
,
1001
0000
0000
0000
;

//---------------dance-single - ----------------
#NOTES:
     dance-single:
     :
     Medium:
     10:
     0.397,0.498,0.596,0.071,0.009:
1001
1000
1001
1000
,
1001
0001
1001
0001
,
1001
1001
0110
0110
,
2002
0000
0000
3003
,
1100
0100
0100
0100
,
0100
0000
0000
0000
,
0110
0010
0010
0010
,
0010
0000
0000
0000
,
0011
0001
0001
0001
0001
0000
0000
0000
,
1001
1000
1000
1000
1000
0000
0000
0000
,
1010
0010
0100
0010
0100
0000
0000
0000
,
0001
1000
0001
1000
0100
0000
0000
0000
,
0010
0001
0010
0001
0100
0000
0000
0000
,
0010
0100
0010
0100
0001
0000
0000
0000
,
1000
0001
1000
0001
0100
0000
0000
0000
,
0010
1000
0001
1000
0001
0000
0000
0000
,
0010
0001
0010
0001
0100
0000
0000
0000
,
0010
1000
0010
1000
0001
0000
0000
0000
,
1001
0000
0000
1001
0000
0000
1001
0000
2000
0000
0000
0000
0000
0000
3000
0000
,
1001
0000
0000
1001
0000
0000
0000
0000
0101
0000
0101
0000
0101
0000
0000
0000
,
1001
0000
0000
1001
0000
0000
1001
0000
,
0000
1100
0000
0000
0011
0000
0000
0000
,
1001
0000
0000
1001
0000
0000
1001
0000
,
0020
0000
0000
0130
,
0001
0000
1000
0100
1000
0100
0010
0000
,
0000
0001
0000
0001
0100
0000
0010
0000
,
0000
0000
0100
0001
0100
0001
1000
0000
,
0000
0100
0000
0100
1000
0000
0010
0000
,
0000
0000
0100
0001
0100
0001
1000
0000
,
0000
0100
0000
0100
0010
0000
0001
0000
,
0000
0000
0010
0001
0010
0001
1000
0000
,
0000
0100
0000
0100
0010
0000
0100
0000
,
1001
0000
1000
0001
1000
0001
0100
0000
,
0000
0010
0000
0010
0100
0000
0001
0000
,
1000
0000
0100
1000
0100
1000
0010
0000
,
0000
0100
0000
0100
0001
0000
0010
0000
,
0100
0000
1000
0001
0100
0001
0100
0000
,
0000
0010
0000
0010
1000
0000
0100
0000
,
1001
0000
0001
0100
0001
0100
0010
0000
,
0220
0000
0000
0330
,
1100
1100
1100
1100
,
0010
0001
1000
0000
0010
0000
0100
0000
,
0101
0101
0101
0101
,
0010
1000
0001
0000
0010
0000
0100
0000
,
1100
1100
1100
1100
,
0010
0001
0100
0000
0010
0000
1000
0000
,
1010
1010
1010
1010
,
0100
0001
1000
0000
0100
0000
0010
0000
,
0011
0011
0011
0011
,
0100
1000
0010
0000
0100
0000
0001
0000
,
0101
0101
0101
0101
,
0010
1000
0001
0000
0010
0001
0010
0000
,
0110
0110
0110
0110
,
0100
1000
0001
0000
0100
0001
0100
0000
,
0110
0110
0110
0110
,
2020
0000
0000
3030
,
1001
0000
0000
0000
;

//---------------dance-single - ----------------
#NOTES:
     dance-single:
     :
     Hard:
     12:
     0.472,0.481,0.231,0.240,0.147: // measure 1
1000
0010
0100
0000
0001
1000
0100
0010
,  // measure 2
0001
1000
0010
0000
1000
0001
0100
0001
,  // measure 3
1000
0100
0010
0000
0100
1000
0001
0100
,  // measure 4
0001
0010
1000
0010
0001
0100
0010
0000
,  // measure 5
1001
0000
1000
0010
1010
0000
0100
0001
,  // measure 6
0101
0000
1000
0001
1001
0000
0001
1000
,  // measure 7
1001
0000
0000
0100
0000
0000
0010
0000
0000
0001
0000
0000
1000
0000
0000
0020
,  // measure 8
0000
0000
0000
0000
0100
0100
0130
0000
,  // measure 9
0101
0000
0000
0000
0001
0000
0000
0001
0000
0000
0001
0000
0000
0000
0001
0000
0000
0000
0000
0000
0000
0000
0000
0000
0000
0000
0000
0000
0000
0000
0000
0000
,  // measure 10
0100
0000
0000
0000
0100
0000
0000
0100
0000
0000
0100
0000
0000
0000
0100
0000
0000
0000
0000
0000
0000
0000
0000
0000
0000
0000
0000
0000
0000
0000
0000
0000
,  // measure 11
0010
0000
0000
0000
0010
0000
0000
0010
0000
0000
0010
0000
0000
0000
0010
0000
0000
0000
0000
0000
0000
0000
0000
0000
0000
0000
0000
0000
0000
0000
0000
0000
,  // measure 12
1000
0000
0000
0000
1000
0000
0000
1000
0000
0000
1000
0000
0000
0000
1000
0000
0000
0000
0000
0000
0000
0000
0000
0000
0000
0000
0000
0000
0000
0000
0000
0000
,  // measure 13
1200
0000
0000
0020
0000
0000
0000
0000
0330
0000
0000
0000
0000
0000
0000
0000
,  // measure 14
0020
0000
0000
0000
0032
0000
0000
0003
,  // measure 15
0201
0000
0000
0020
0000
0000
0000
0000
0330
0000
0000
0000
0000
0000
0000
0000
,  // measure 16
0020
0000
0000
0000
2030
0000
0000
3000
,  // measure 17
1002
0000
0000
0000
0203
0000
0310
2000
0000
0000
0000
3000
0000
0000
0000
0000
,  // measure 18
0200
0000
0000
2300
0000
0000
3000
0000
0020
0000
0000
0000
0000
0000
0000
0000
,  // measure 19
0230
0000
0000
0000
0302
0000
0013
0200
0000
0000
0000
0000
0300
0000
0000
0000
,  // measure 20
2000
0000
0000
0000
0000
0000
0000
0000
3001
0000
0000
0001
0000
0000
0001
0000
,  // measure 21
0101
0000
0000
0110
0000
0000
2020
0000
,  // measure 22
0000
0000
0000
3030
,  // measure 23
1001
0000
0000
0110
0000
0000
0000
0000
,  // measure 24
0011
0011
0011
0000
,  // measure 25
1100
0000
0000
0110
0000
0000
0011
0000
,  // measure 26
0000
0101
0000
0000
1010
0000
0000
0000
,  // measure 27
1000
0000
0000
0100
0000
0000
0010
0000
0000
0001
0000
0000
0100
0000
0000
0000
,  // measure 28
2002
0000
0000
3003
,  // measure 29
0001
0100
0001
1000
0100
0010
0100
1000
,  // measure 30
0000
0001
0000
0001
0010
1000
0010
0001
,  // measure 31
0000
0100
0001
1000
0001
0100
0010
1000
,  // measure 32
0000
0001
0000
0001
0010
1000
0010
0001
,  // measure 33
1000
0010
1000
0001
0010
0100
0010
0001
,  // measure 34
0000
1000
0000
1000
0100
0001
0100
1000
,  // measure 35
0000
0010
1000
0001
1000
0010
0100
0001
,  // measure 36
0000
1000
0000
1000
0010
0001
0010
0000
,  // measure 37
1000
0000
0001
0000
0100
0000
0010
0000
0000
1000
0000
0000
0001
0000
0010
0000
,  // measure 38
0000
0100
0000
0100
1000
0010
0001
0010
,  // measure 39
0000
0000
1000
0000
0010
0000
0100
0000
0000
0001
0000
0000
1000
0000
0100
0000
,  // measure 40
0000
0010
0000
0010
0001
0100
1000
0100
,  // measure 41
0000
0000
0001
0000
1000
0000
0010
0000
0000
0100
0000
0000
0001
0000
1000
0000
,  // measure 42
0000
0100
0000
0100
1000
0010
0001
0010
,  // measure 43
1000
0000
0100
0000
0010
0000
0001
0000
0000
0100
0000
0000
0010
0000
1000
0000
,  // measure 44
2002
0000
0000
3003
,  // measure 45
0001
0010
0100
0010
0001
0010
0100
0010
,  // measure 46
0001
0000
1000
0000
0010
0000
0000
0000
1000
0000
0000
0001
0000
0000
0100
0000
,  // measure 47
0010
1000
0100
1000
0010
1000
0100
1000
,  // measure 48
0010
0000
0100
0000
0001
0000
0000
0000
0100
0000
0000
0010
0000
0000
1000
0000
,  // measure 49
0100
0010
0001
0010
0100
0010
0001
0010
,  // measure 50
0100
0000
1000
0000
0001
0000
0000
0000
0010
0000
0000
0001
0000
0000
1000
0000
,  // measure 51
0010
0100
0001
0100
0010
0100
0001
0001
,  // measure 52
0010
0100
0100
1000
0010
0010
0100
0000
,  // measure 53
0001
1000
0100
1000
0001
1000
0100
1000
,  // measure 54
0001
0000
0100
0000
0010
0000
0000
0000
0100
0000
0000
0010
0000
0000
1000
0000
,  // measure 55
0010
0100
0001
0100
0010
0100
0001
0100
,  // measure 56
0010
0000
1000
0000
0100
0000
0000
0000
0010
0000
0000
0001
0000
0000
1000
0000
,  // measure 57
0001
1000
0100
1000
0001
1000
0100
1000
,  // measure 58
0001
0000
0100
0000
0010
0000
0000
0000
0100
0000
0000
0010
0000
0000
1000
0000
,  // measure 59
0100
0010
0001
0010
0100
0010
0001
0010
,  // measure 60
0220
0000
0000
0330
,  // measure 61
1001
0000
0000
0000
;

//---------------dance-single - ----------------
#NOTES:
     dance-single:
     :
     Challenge:
     15:
     0.696,0.801,0.320,0.178,0.717:
0001
0000
1000
0010
0000
1000
0010
0000
0100
0001
0000
0100
0001
0000
0010
0100
,
0000
0010
0100
0000
1000
0100
0000
1000
0100
0000
0010
0001
0000
0001
0100
0000
,
0010
0000
0100
0000
0001
1000
0000
0001
1000
0000
0100
1000
0000
0100
1000
0000
,
0010
0100
0000
0100
0001
0000
0010
0100
0000
0100
1000
0000
0010
0100
0010
0000
,
0100
0000
0001
1000
0000
0001
1000
0000
0100
1000
0000
0100
1000
0000
0010
0100
,
0000
0010
0100
0000
0001
0100
0001
0000
1000
0000
0100
0010
0000
0010
0001
0000
,
0011
0000
0000
1001
0000
0000
1100
0000
0000
0110
0000
0000
1001
0000
0000
0022
,
0000
0000
0000
0000
0000
0000
0033
0000
0001
1000
0001
1000
0001
0000
0000
0000
,
1001
0000
0000
0000
1000
0000
0000
0010
0000
0000
0100
0000
0000
0000
1001
0000
0000
0000
0000
0000
0000
0000
0000
0000
0000
0000
0000
0000
0000
0000
0000
0000
,
0101
0000
0000
0000
0100
0000
0000
0010
0000
0000
1000
0000
0000
0000
1001
0000
0000
0000
0000
0000
0000
0000
0000
0000
0000
0000
0000
0000
0000
0000
0000
0000
,
1100
0000
0000
0000
0010
0000
0000
0001
0000
0000
0100
0000
0000
0000
1001
0000
0000
0000
0000
0000
0000
0000
0000
0000
0000
0000
0000
0000
0000
0000
0000
0000
,
0101
0000
0000
0000
0010
0000
0000
1000
0000
0000
0100
0000
0000
0000
2002
0000
0000
0000
0000
0000
0000
0000
0000
0000
0000
0000
0000
0000
3003
0000
0000
0000
,
0001
0000
0100
0000
0001
0000
0000
1000
0000
0000
0100
0000
0000
0000
0000
0000
0020
0000
0000
0000
0000
0000
0000
0000
0000
0000
0000
0000
0000
0000
0000
0000
,
0031
0000
0000
0000
1000
0000
0000
0100
0000
0000
0010
0000
0000
0000
0001
0000
0200
0000
0000
0000
0000
0000
0000
0000
0000
0000
0000
0000
0000
0000
0000
0000
,
0310
0000
0100
0000
0010
0000
0000
1000
0000
0000
0100
0000
0000
0000
0000
0000
0020
0000
0000
0000
0000
0000
0000
0000
0000
0000
0000
0000
0000
0000
0000
0000
,
0031
0000
0000
0000
0100
0000
0000
0010
0000
0000
1000
0000
0000
0000
0010
0000
0200
0000
0000
0000
0000
0000
0000
0000
0000
0000
0000
0000
0000
0000
0300
0000
,
1001
0000
0001
0000
0010
0000
0100
0000
0010
0000
0001
0000
1000
0000
0010
0000
0000
0000
1000
0000
0000
0100
0000
0000
0010
0000
0001
0000
0010
0000
0001
0000
,
1000
0000
0000
0010
0000
0000
0100
0000
0000
0001
0000
0000
1000
0000
0100
0000
0010
0000
0001
0000
0100
0000
0001
0000
0010
0000
0001
0000
0100
0000
0010
0000
,
1000
0000
0001
0000
0010
0000
0001
0000
1000
0000
0100
0000
0010
0000
0001
0000
0000
0000
0100
0000
0000
0010
0000
0000
1000
0000
0001
0000
0010
0000
0100
0000
,
0010
0000
0000
0001
0000
0000
1000
0000
0000
0001
0000
0000
0010
0000
0100
0000
1000
0000
0010
0000
0100
0000
0010
0000
1000
0000
0010
0000
0100
0000
0000
0000
,
1001
0000
0001
0101
0000
0100
0220
0000
,
0000
0000
0000
0330
,
1001
0000
1000
1010
0000
0000
0000
0000
,
0110
1001
0110
0000
,
1001
0000
0001
0011
0000
0100
0110
0000
,
0000
0000
1100
0000
0000
1000
0000
0000
1001
0000
0001
0000
0100
0000
0010
0000
,
1010
0000
0000
1001
0000
0000
0011
0000
0000
1100
0000
0000
0110
0000
0100
0000
,
1002
0000
0000
0000
0000
0000
0000
0000
1003
0001
1000
0001
1000
0000
0000
0000
,
0001
0000
0100
0000
0001
0000
1000
0100
0000
0010
0100
0000
1000
0000
0001
0000
,
0000
0200
0000
0310
1000
0100
0001
0100
,
0000
0000
1000
0000
0010
0000
1000
0001
0000
0010
0001
0000
0100
0000
0010
0000
,
0000
0000
2000
0000
0000
0000
3001
0000
1000
0000
0100
0010
0001
0000
1000
0000
,
0001
0000
0100
0000
0001
0000
1000
0100
0000
0010
0100
0000
1000
0000
0010
0000
,
0000
0200
0000
0301
1000
0010
0001
0010
,
0000
0000
1000
0000
0100
0000
1000
0001
0000
0100
0001
0000
1000
0000
0100
0000
,
0020
0000
0001
0000
0031
0000
0200
0000
0010
0000
0310
0000
1000
0001
1000
0001
,
1000
0000
0010
0000
1000
0000
0001
0010
0000
0100
0010
0000
0001
0000
1000
0000
,
0000
0000
0020
0000
0000
0000
0130
0000
0001
0010
0100
0010
0001
0000
1000
0000
,
0000
0000
0010
0000
1000
0000
0001
0010
0000
0100
0010
0000
0100
0000
1000
0000
,
0000
0000
0020
0000
0000
0000
0130
0000
0001
1000
0010
0000
0100
0000
0001
0000
,
0000
0000
0010
0000
0100
0000
1000
0010
0000
1000
0001
0000
0010
0000
0100
0000
,
0000
0000
0020
0000
0000
0000
0031
0000
1000
0010
0100
0010
1000
0000
0001
0000
,
1001
0000
1000
0000
0010
0000
0100
0001
0000
1000
0100
0000
0010
0000
0100
0000
,
1000
0000
0001
0000
0000
0000
0100
0000
0000
0001
0000
0000
1000
0000
1000
0000
,
0001
0010
0001
0000
1000
0010
1000
0000
0001
0010
0001
0000
1000
0000
0010
0000
,
0100
0000
0001
0000
0100
0000
0010
0000
0100
0000
0001
1000
0000
0001
1000
0000
,
0100
1000
0100
0000
0010
0100
0010
0000
0100
1000
0100
0000
0010
0000
0001
0000
,
1000
0000
0010
0000
0100
0000
0010
0000
1000
0000
0010
0100
0000
0001
0010
0000
,
0001
1000
0001
0000
1000
0100
1000
0000
0001
1000
0001
0000
1000
0000
0100
0000
,
0010
0000
0100
0000
1000
0000
0001
0000
0100
0000
0010
0100
0000
0001
1000
0000
,
0100
0010
0100
0000
0010
0001
0010
0000
0100
0010
0100
0000
1000
0000
0010
1000
,
0000
0000
0001
0000
0100
0001
0000
0000
1000
0000
0100
1000
0100
1000
0100
0000
,
0010
0001
0010
0000
0100
0010
0100
0000
1000
0100
1000
0000
0001
0000
0100
0001
,
1000
0000
0100
0000
1000
0000
0001
0000
1000
0000
0100
1000
0000
0010
0100
0000
,
0001
1000
0001
0000
1000
0100
1000
0000
0001
0010
0001
0000
0100
0000
0010
0000
,
1000
0000
0100
0000
0001
0000
0100
0000
1000
0000
0010
0100
0000
0001
0010
0000
,
0100
1000
0100
0000
0010
0100
0010
0000
0001
0010
0001
0000
1000
0000
0100
1000
,
0001
0000
0100
0000
1000
0000
0100
0000
0001
0000
1000
0100
0000
1000
0001
0000
,
0100
0010
0100
0000
0001
0100
0001
0000
1000
0010
1000
0000
0001
0000
0010
0100
,
2000
0000
0000
3100
,
0110
0000
0000
0000
;

//---------------dance-single - ----------------
#NOTES:
     dance-single:
     :
     Beginner:
     2:
     0.102,0.134,0.080,0.000,0.000:
1000
0000
0000
0000
,
1000
0000
0000
0000
,
0010
0000
0000
0000
,
0010
0000
0000
0000
,
0100
0000
0000
0000
,
0100
0000
0000
0000
,
0001
0000
0000
0000
,
1001
0000
0000
0000
,
1001
0000
0000
0000
,
1000
0000
0000
0000
,
1000
0000
0000
0000
,
1000
0000
0000
0000
,
0010
0000
0000
0000
,
0100
0000
0000
0000
,
0010
0000
0000
0000
,
0100
0000
0000
0000
,
1001
0000
0000
0000
,
0001
0000
1000
0000
,
0001
0000
0000
0000
,
1000
0000
0001
0000
,
1001
0000
0000
0000
,
0000
0000
0000
0000
,
0110
0000
0000
0000
,
0000
0000
0000
0000
,
1001
0000
0000
0000
,
0000
0000
0000
0000
,
0110
0000
0000
0000
,
0000
0000
0000
0000
,
1001
0000
0000
0000
,
1000
0000
0000
0000
,
0001
0000
0000
0000
,
0100
0000
0000
0000
,
0001
0000
0000
0000
,
1000
0000
0000
0000
,
0010
0000
0000
0000
,
1000
0000
0000
0000
,
0001
0000
0010
0000
,
0001
0000
0000
0000
,
1000
0000
0001
0000
,
1000
0000
0000
0000
,
0001
0000
0010
0000
,
0001
0000
0000
0000
,
1000
0000
0001
0000
,
1000
0000
0000
0000
,
0010
0000
0010
0000
,
0010
0000
0000
0000
,
0100
0000
0100
0000
,
0100
0000
0000
0000
,
0001
0000
0001
0000
,
0001
0000
0000
0000
,
1000
0000
1000
0000
,
1000
0000
0000
0000
,
0100
0000
0100
0000
,
0100
0000
0000
0000
,
0010
0000
0010
0000
,
0010
0000
0000
0000
,
0001
0000
0001
0000
,
0001
0000
0000
0000
,
0100
0000
0100
0000
,
0100
0000
0000
0000
,
1001
0000
0000
0000
;
