#TITLE:Ghost Street;
#SUBTITLE:(中文版);
#ARTIST:歌者森;
#TITLETRANSLIT:;
#SUBTITLETRANSLIT:(ZHONGWEN BAN);
#ARTISTTRANSLIT:SingerSen;
#CREDIT:DigiMindAxel;
#BANNER:Ghost Street (ZHONGWEN BAN).png;
#BACKGROUND:Ghost Street (ZHONGWEN BAN)-bg.png;
#LYRICSPATH:;
#CDTITLE:DigiMindAxel original simfile.png;
#MUSIC:Ghost Street (ZHONGWEN BAN).ogg;
#METERTYPE:DDR X;
#OFFSET:-0.094;
#SAMPLESTART:56.087;
#SAMPLELENGTH:12.000;
#SELECTABLE:YES;
#BPMS:0.000=128.000;
#STOPS:;
#BGCHANGES:;

//---------------dance-single - ----------------
#NOTES:
     dance-single:
     :
     Easy:
     3:
     0.192,0.235,0.000,0.273,0.000:
0000
0000
0000
0000
,
0000
0000
0000
0000
,
0000
0000
0000
0000
,
0000
0000
0000
0000
,
2000
0000
0000
0000
,
3020
0000
0000
0030
,
2000
3000
0200
0300
,
2000
0000
3001
0000
,
0020
0030
0002
0003
,
0200
0000
0310
0000
,
2000
3000
0020
0030
,
2000
0000
3001
0000
,
2000
0000
0100
0000
,
0100
0000
3100
0000
,
0020
0000
0000
0030
,
0002
0000
0000
0003
,
0200
0000
0000
0300
,
0020
0000
0000
0030
,
2000
0000
0000
3000
,
0002
0000
0000
0003
,
0020
0000
0000
0030
,
0002
0000
0000
0000
,
1003
0100
1000
0000
,
0001
1000
0001
0000
,
1000
0100
1000
0000
,
0001
1000
0001
0000
,
0100
0010
0100
0000
,
0001
0100
0001
0000
,
0100
0010
0100
0000
,
0001
1000
0001
0000
,
2000
0000
0010
0000
,
3010
0100
0001
0000
,
0020
0000
0001
0000
,
0031
0010
0100
0000
,
2000
0000
0010
0000
,
3010
0100
0001
0000
,
0020
0000
0001
0000
,
0031
0010
0100
0000
,
1000
0010
1000
0000
,
0001
0010
0100
1000
,
0001
0100
0001
0000
,
1000
0100
0010
0001
,
1000
0010
1000
0000
,
0001
0010
0100
1000
,
0001
0100
0010
0100
,
0010
1000
0100
0010
,
0002
0000
0000
0000
,
0000
0000
0000
0003
,
2000
0000
0000
0000
,
0000
0000
0000
3010
;

//---------------dance-single - ----------------
#NOTES:
     dance-single:
     :
     Medium:
     6:
     0.273,0.339,0.042,0.168,0.000:
0000
0000
0000
0000
,
0000
0000
0000
0000
,
0000
0000
0000
0000
,
0000
0000
0000
0000
,
2000
0000
0000
3100
,
0020
0000
0000
0031
,
0000
1000
0100
0000
1000
0100
0000
0010
,
0000
0010
0000
0001
1000
0000
1000
0000
,
0000
0010
0100
0000
0010
0100
0000
0002
,
0000
0000
1003
0000
,
0000
0010
1000
0000
0010
1000
0000
0001
,
0000
0001
0000
0100
0010
0000
0010
0000
,
1000
0100
0010
0001
,
1000
0000
0100
0000
0010
0100
0010
0100
,
2000
0000
0000
3010
,
0200
0000
0000
0300
,
0200
0000
0000
1300
,
0002
0000
0000
0003
,
0020
0000
0000
0130
,
2000
0000
0000
3000
,
0020
0000
0000
0130
,
0002
0000
0000
0003
,
1000
0000
0001
0000
1000
0100
1000
0000
,
0001
0000
1000
0000
0001
0010
0001
0000
,
1000
0000
0001
0000
1000
0010
1000
0000
,
0001
0000
1000
0000
0001
0100
0001
0000
,
0010
0000
0100
0000
0010
0001
0010
0000
,
0100
0000
1000
0000
0010
0100
0010
0000
,
1000
0000
0001
0000
0100
0010
0100
0000
,
0001
1000
0001
0000
0100
0010
1000
0000
,
1001
0000
0000
0001
0000
0001
0000
0100
,
0010
1000
0000
0000
,
1001
0000
0000
1000
0000
0000
0010
0200
,
0000
0000
0310
0200
0000
0000
0300
0000
,
1001
0000
0000
1000
0000
1000
0000
0100
,
0010
0001
0000
0100
,
0010
1000
0000
0010
0000
0100
0000
0001
,
0000
0010
0000
0100
0000
0000
0000
0000
,
1000
0001
0010
0000
0001
0010
0000
0100
,
0000
0100
0000
1000
0010
0000
0010
0000
,
0000
0100
0001
0000
0100
0001
0000
2000
,
0000
3100
0010
0011
,
0000
0001
1000
0000
0001
1000
0000
0010
,
0000
0010
0000
0100
0001
0000
0001
0000
,
1000
0100
0010
0001
0000
1000
0100
0010
,
0001
0000
0000
1000
0010
0000
0100
0000
,
0020
0000
0000
0000
0000
0100
0000
0100
,
0000
0000
0000
0030
,
0200
0000
0000
0000
0000
0010
0000
0010
,
0000
0000
0000
0310
;

//---------------dance-single - ----------------
#NOTES:
     dance-single:
     :
     Hard:
     10:
     0.480,0.496,0.262,0.283,0.063: // measure 1
0000
0000
0000
0000
,  // measure 2
0000
0000
0000
0000
,  // measure 3
0000
0000
0000
0000
,  // measure 4
0000
0000
0000
0000
,  // measure 5
2000
0000
0000
0000
0000
0000
3100
0010
,  // measure 6
0002
0000
0000
0103
,  // measure 7
1001
1000
0010
0000
1000
0010
0000
0110
,  // measure 8
0000
0110
0000
0101
0001
0010
0100
0000
,  // measure 9
1000
0001
0010
0000
0001
0010
0000
0120
,  // measure 10
0000
0000
0000
0000
0130
0000
1000
0000
0001
0000
0100
0000
0001
0000
1000
0100
,  // measure 11
1000
0100
0010
0000
0100
0010
0000
0011
,  // measure 12
0000
0011
0000
1001
1000
0010
0100
0001
,  // measure 13
1000
0100
1000
0001
1000
0100
1000
0001
,  // measure 14
1000
0000
0100
0000
1000
0000
0001
0000
1000
0000
0010
0100
0010
0100
0010
0000
,  // measure 15
2000
0100
0100
0100
,  // measure 16
3100
0020
0032
0203
,  // measure 17
0320
1000
1000
1000
,  // measure 18
1030
0020
0230
0302
,  // measure 19
0023
0100
0100
0100
,  // measure 20
0130
2000
3020
0230
,  // measure 21
0302
0010
0010
0010
,  // measure 22
0023
0100
0100
0130
,  // measure 23
1001
0000
1000
0010
0001
0010
0100
0001
,  // measure 24
0000
1000
0000
0000
0010
0000
0110
0000
,  // measure 25
0001
0100
0010
0000
1010
0000
0010
0100
,  // measure 26
0001
0000
1001
0000
0001
0100
1000
0100
,  // measure 27
0001
0000
0010
0100
0010
0001
0000
0200
,  // measure 28
0000
0310
1000
1100
,  // measure 29
1000
0001
0100
1000
0100
0010
1000
0001
,  // measure 30
0000
0000
0100
0000
0001
0000
0000
0000
1000
0000
0010
0100
0010
0100
0010
0000
,  // measure 31
1001
1000
0000
0100
0010
0100
1000
0001
,  // measure 32
0100
0100
0100
0001
0200
0000
0310
1000
,  // measure 33
1001
0001
0010
0200
0000
1300
0010
0200
,  // measure 34
0000
0000
0310
0000
1000
0000
0002
0000
0000
0000
0013
0000
0000
0000
0100
0010
,  // measure 35
0100
0010
0000
0001
0100
0001
1000
0100
,  // measure 36
0010
0010
0010
0100
2000
0000
3010
0100
,  // measure 37
0001
0001
1000
0200
0000
0301
0100
2000
,  // measure 38
0000
0000
3010
0000
0100
0000
0001
0000
0000
0000
0010
0100
0010
0100
0010
0100
,  // measure 39
0010
0001
0100
0000
0001
0100
0000
1001
,  // measure 40
0000
1001
0001
0010
0100
1000
1010
0000
,  // measure 41
0100
0001
0010
0000
0001
0010
0000
1001
,  // measure 42
0001
0000
1000
0000
0100
0000
0010
0000
0011
0000
0000
0000
0110
0000
0010
1000
,  // measure 43
0010
0100
0001
0000
0100
0001
0000
1001
,  // measure 44
0000
1001
0000
0011
0010
0100
1000
0000
,  // measure 45
0001
0100
1000
0100
0000
0001
0100
1000
,  // measure 46
0100
0000
0001
0000
0000
0000
1000
0000
0100
0000
0010
0100
0010
0100
0010
0000
,  // measure 47
0001
0010
1000
0010
0000
0001
0010
1000
,  // measure 48
0010
0000
0000
0001
0100
0000
0010
0000
,  // measure 49
2000
0000
0010
0000
0000
0010
0000
3010
,  // measure 50
0100
0002
0000
0010
0000
0013
0110
0000
;

//---------------dance-single - ----------------
#NOTES:
     dance-single:
     :
     Beginner:
     1:
     0.076,0.131,0.084,0.000,0.000:
0000
0000
0000
0000
,
0000
0000
0000
0000
,
0000
0000
0000
0000
,
0000
0000
0000
0000
,
1000
0000
0000
0000
,
1000
0000
0000
0000
,
1001
0000
0000
0000
,
0001
0000
0000
0000
,
0100
0000
0000
0000
,
0010
0000
0000
0000
,
0100
0000
0000
0000
,
0001
0000
0000
0000
,
1000
0000
0000
0000
,
0000
0000
0000
0000
,
1001
0000
0000
0000
,
0000
0000
0000
0000
,
0001
0000
0000
0000
,
0000
0000
0000
0000
,
0010
0000
0000
0000
,
0000
0000
0000
0000
,
0100
0000
0000
0000
,
0000
0000
0000
0000
,
0010
0000
0001
0000
,
0010
0000
0000
0000
,
0100
0000
0010
0000
,
0100
0000
0000
0000
,
1000
0000
0100
0000
,
1000
0000
0000
0000
,
0001
0000
1000
0000
,
0001
0000
0000
0000
,
1001
0000
0000
0000
,
0000
0000
0000
0000
,
0110
0000
0000
0000
,
0000
0000
0000
0000
,
1001
0000
0000
0000
,
0000
0000
0000
0000
,
0110
0000
0000
0000
,
0000
0000
0000
0000
,
1001
0000
1000
0000
,
0001
0000
0000
0000
,
1000
0000
0001
0000
,
1000
0000
0000
0000
,
0010
0000
1000
0000
,
0010
0000
0000
0000
,
0100
0000
0000
0000
,
0000
0000
0000
0000
,
0001
0000
0000
0000
,
0000
0000
0000
0000
,
0010
0000
0000
0000
,
0100
0000
0000
1001
;
