#TITLE:Get Happy;
#SUBTITLE:;
#ARTIST:Jimmy Weckl;
#TITLETRANSLIT:;
#SUBTITLETRANSLIT:;
#ARTISTTRANSLIT:;
#CREDIT:DigiMindAxel.png;
#BANNER:Get Happy.png;
#BACKGROUND:Get Happy-bg.png;
#LYRICSPATH:;
#CDTITLE:maimai.png;
#MUSIC:Get Happy.ogg;
#METERTYPE:DDR X;
#OFFSET:-0.165;
#SAMPLESTART:27.360;
#SAMPLELENGTH:12.000;
#SELECTABLE:YES;
#BPMS:0.000=150.000;
#STOPS:;
#BGCHANGES:-2.000=Get Happy.avi=1.000=1=1=0,
99999=-nosongbg-=1.000=0=0=0 // don't automatically add -songbackground-
;

//---------------dance-single - ----------------
#NOTES:
     dance-single:
     :
     Easy:
     5:
     0.270,0.304,0.031,0.000,0.000:
0000
0000
0000
0000
,
0000
0000
0000
0000
,
0000
0000
0000
0000
,
0000
0000
0000
0000
,
0000
0000
0000
0000
,
0001
1000
0100
0000
,
1000
0000
0100
1000
,
0010
0100
0010
0000
,
1000
0100
0010
0001
,
1000
0000
0100
0000
,
0010
0000
0100
1000
,
0100
0000
0010
0000
,
0001
0000
1000
0010
,
1000
0000
0001
1000
,
0001
0000
0010
0001
,
0100
0010
0100
0000
,
0001
1000
0100
0010
,
1001
1000
0100
1000
,
0010
0100
0010
0100
,
0001
0001
1000
1000
,
0001
0010
0100
1000
,
1001
0001
0010
0001
,
1000
0001
1000
0001
,
1000
1000
0100
0100
,
1000
0100
0010
0001
,
1000
0000
1000
0000
,
1000
0000
1000
0000
,
0001
0000
0001
0000
,
0001
0000
0001
0000
,
1000
0001
1000
0001
,
1000
0100
1000
0000
,
0001
1000
0001
1000
,
0001
0010
0001
0010
,
0001
0000
0010
0000
,
0100
0000
1000
0100
,
0010
0000
0001
0000
,
0100
0000
0010
1000
,
0001
0000
0010
0000
,
0001
0000
0100
0000
,
0010
0000
1000
0000
,
0100
0010
0100
0010
,
0001
0001
0001
1000
,
0100
0010
0001
1000
,
0100
0100
1000
1000
,
0010
0100
0001
0100
,
0010
0010
0100
0100
,
0001
0010
0100
1000
,
0001
0001
0100
0100
,
0001
1000
0100
0010
,
0001
0001
1000
1000
,
0010
0100
0001
0100
,
0010
0010
1000
1000
,
0001
1000
0100
0010
,
0001
0100
0001
1000
,
0100
1000
0100
1000
,
0001
0001
0100
0100
,
0010
1000
0100
0010
,
0001
0000
0001
0000
,
0000
1001
0000
0000
;

//---------------dance-single - ----------------
#NOTES:
     dance-single:
     :
     Medium:
     8:
     0.419,0.426,0.272,0.052,0.000:
0000
0000
0000
0000
,
0000
0000
0000
0000
,
0000
0000
0000
0000
,
0000
0000
0000
0000
,
0000
0000
0000
0000
,
1000
0000
0100
1000
0100
0000
0010
0000
,
0100
0000
1000
0000
0010
0100
0010
0100
,
0001
0010
0100
1000
,
0010
0100
0001
0000
0010
0000
0100
0000
,
0110
0000
0000
0100
0010
0001
0000
0100
,
0000
0010
2000
0000
0001
0000
0001
0000
,
3001
0000
0000
1000
0100
0010
0000
0001
,
0000
0100
0010
0200
0000
0001
0000
0301
,
1000
0000
0010
0200
0000
0001
0000
0000
,
0000
0301
0000
1000
0001
0100
0000
0010
,
0000
0010
0200
0000
0000
0010
0000
0310
,
0000
1000
0001
1000
0100
0000
1100
0000
,
0100
1000
0010
1000
0100
0000
0010
0000
,
0001
0100
0010
0100
0001
0000
0010
0000
,
0110
0000
0000
0100
0000
0000
1100
0000
,
1000
0001
0010
0100
,
0010
0001
0100
0001
0010
0000
0100
0000
,
1000
0100
0010
0100
1000
0000
0001
0000
,
1001
0000
0000
1000
0000
0000
1010
0000
,
0010
1000
0100
0010
,
0001
0001
0001
0001
,
1000
1000
1000
0000
,
0100
0100
0100
0100
,
0010
0010
0010
0000
,
0001
0100
0010
0100
,
0001
0010
0100
0000
,
0010
0001
0100
0001
,
0010
0100
1000
0010
,
0110
0000
0000
0100
0001
1000
0000
0001
,
0000
0001
1000
0000
1100
0000
0011
0000
,
0001
0000
0000
1000
0100
0010
0000
0100
,
0000
0100
1000
0200
0000
0310
0000
0001
,
1000
0000
0100
0010
0000
0001
0100
0001
,
0000
1001
0000
1000
0100
1000
0000
0010
,
0000
0100
0010
0000
0000
1000
0001
1000
,
0000
0000
1001
0000
0010
0100
0010
1000
,
0001
0000
0011
0000
0100
0000
0010
0001
,
0100
0001
0010
0000
0100
0000
0010
0000
,
1001
0000
0000
0101
0000
0000
0010
1000
,
0100
0000
0010
0100
1000
0100
0010
0000
,
1100
0000
0010
0000
0100
0000
1000
0001
,
0100
0001
1000
0000
0100
0000
0010
0000
,
1001
0000
0000
1100
0000
0000
0010
0001
,
1000
0000
0010
0100
0001
0100
0010
0000
,
1001
0000
0110
0000
0100
0000
0001
0010
,
0100
0010
0001
0010
0100
0000
1000
0000
,
1100
0000
0000
0011
0000
0000
0001
1000
,
0010
0000
0100
0000
0010
1000
0100
0000
,
1001
0000
0110
0000
0010
0000
1000
0100
,
0010
0100
1000
0100
0010
0000
0001
0000
,
0101
0000
0000
1010
0000
0000
1000
0001
,
0010
0000
0100
0000
0010
0001
0100
0010
,
1000
0000
1000
1000
,
1000
1001
0000
0000
;

//---------------dance-single - ----------------
#NOTES:
     dance-single:
     :
     Hard:
     11:
     0.559,0.547,0.219,0.303,0.392: // measure 1
0000
0000
0000
0000
,  // measure 2
0000
0000
0000
0000
,  // measure 3
0000
0000
0000
0000
,  // measure 4
0000
0000
0000
0000
,  // measure 5
0000
0000
0000
0000
,  // measure 6
0002
0000
0000
0000
0010
0000
0000
0010
0000
0000
0013
0000
0100
0000
0000
0000
,  // measure 7
0010
0001
0100
0000
0001
0100
1000
0100
,  // measure 8
0010
2000
0010
3010
,  // measure 9
0100
0001
0010
0100
0001
0100
1000
0001
,  // measure 10
1001
0000
0000
1000
0100
2000
0000
3002
,  // measure 11
0000
0103
0020
0000
1000
1030
0100
0010
,  // measure 12
0100
0000
0000
1000
0010
2000
0000
3002
,  // measure 13
0000
0013
0100
0010
0000
0110
0000
0001
,  // measure 14
1000
0100
0010
0200
0000
1000
0000
1300
,  // measure 15
0000
1100
0000
1000
0001
0100
0000
0010
,  // measure 16
0000
1000
0200
0000
0000
0010
0000
0310
,  // measure 17
0000
0000
0001
0000
1000
0000
0100
0000
1000
0001
0000
1000
0001
1000
0001
0000
,  // measure 18
0101
0000
0000
0100
0000
0000
0200
0000
0000
0000
0000
0000
0301
0000
0010
0000
,  // measure 19
0100
0000
0000
0100
0000
0000
0200
0000
0000
0000
1300
0000
0000
0000
0000
0000
,  // measure 20
1001
0000
0000
0100
0000
0000
1001
0000
0000
0100
0000
0000
1001
0000
0000
0000
,  // measure 21
1000
0000
0000
1000
0000
0001
0000
0100
0000
0001
1000
0000
0100
0000
0000
0000
,  // measure 22
1001
0000
0000
0001
0000
0000
0002
0000
0000
0000
0000
0000
1003
0000
0010
0000
,  // measure 23
0100
0000
0000
0100
0000
0000
0200
0000
0000
0000
0301
0000
0000
0000
0000
0000
,  // measure 24
1001
0000
0000
0100
0000
0000
1001
0000
0000
0100
0000
0000
1001
0000
0000
0000
,  // measure 25
0001
0000
0000
0001
0000
1000
0000
0100
0000
1000
0001
0000
0100
0000
0001
0000
,  // measure 26
1000
0000
1000
0100
0010
0100
1000
0000
,  // measure 27
0001
0000
0001
0100
0010
0100
0100
0000
,  // measure 28
0001
0000
0001
0010
0100
0010
0001
0000
,  // measure 29
1000
0000
1000
0010
0100
0010
0010
0000
,  // measure 30
1001
0000
0001
0100
0010
0100
0001
0000
,  // measure 31
0010
0000
0010
0100
1000
0010
0010
0000
,  // measure 32
1000
0000
1000
0010
0100
0010
1000
0000
,  // measure 33
0001
0010
0100
1000
0100
0010
0001
0000
,  // measure 34
1001
0000
0000
1000
0010
2000
0000
3002
,  // measure 35
0000
0000
0013
0000
0100
0000
0000
0000
1000
0001
0000
0100
0010
0100
0010
0000
,  // measure 36
0100
0000
0000
0001
1000
0200
0000
0320
,  // measure 37
0000
0031
1000
0020
0000
0130
0000
0001
,  // measure 38
1000
0010
0100
0002
0000
0103
1000
0100
,  // measure 39
0000
1001
0000
1000
0001
0100
0000
0020
,  // measure 40
0000
1030
0002
0000
0000
1003
0001
0010
,  // measure 41
0000
0000
0001
0000
0010
0000
0100
0000
1000
0001
0000
0100
0010
0100
0010
0000
,  // measure 42
1000
0000
0001
0100
0000
0001
0200
0000
0000
0000
0000
0000
0301
0000
1000
0000
,  // measure 43
0100
0010
0000
0100
0000
1000
0200
0000
0000
0000
0310
0000
0000
0000
0000
0000
,  // measure 44
0011
0000
0000
0010
0000
0000
0011
0000
0000
0010
0000
0000
0011
0000
0000
0000
,  // measure 45
0001
0000
0000
0001
0000
1000
0000
0010
0000
1000
0010
0000
0100
0000
0000
0000
,  // measure 46
0001
0000
1000
0010
0000
1000
0020
0000
0000
0000
0000
0000
1030
0000
0001
0000
,  // measure 47
0010
0100
0000
0010
0000
0001
0020
0000
0000
0000
0130
0000
0000
0000
0000
0000
,  // measure 48
1100
0000
0000
0100
0000
0000
0110
0000
0000
0100
0000
0000
1100
0000
0000
0000
,  // measure 49
1000
0000
0000
1000
0000
0010
0000
1000
0000
0001
0010
0000
0100
0000
0000
0000
,  // measure 50
1000
0000
0001
0100
0000
0001
2000
0000
0000
0000
0000
0000
3100
0000
0010
0000
,  // measure 51
0001
1000
0000
0001
0000
0000
0200
0000
0000
0000
0301
0000
0000
0000
0000
0000
,  // measure 52
0100
0010
0000
0100
0000
0000
0001
0010
0000
0001
0000
0000
1000
0000
0010
0000
,  // measure 53
0100
0000
0000
0010
0000
1000
0000
0001
0000
1000
0010
0000
0100
0000
0000
0000
,  // measure 54
0001
0000
1000
0100
0000
1000
0002
0000
0000
0000
0000
0000
1003
0000
0010
0000
,  // measure 55
0100
0001
0000
0100
0000
0000
0002
0000
0000
0000
1003
0000
0000
0000
0000
0000
,  // measure 56
0010
0100
0000
0010
0000
0000
1000
0100
0000
1000
0000
0000
0001
0000
0100
0000
,  // measure 57
0010
0000
0000
1000
0000
0010
0000
0100
0000
0010
1000
0000
0100
0000
0010
0000
,  // measure 58
0001
0000
0000
0000
0001
0000
0000
0000
1000
0010
1000
0000
0001
0010
0001
0010
,  // measure 59
0000
1001
0000
0000
;

//---------------dance-single - ----------------
#NOTES:
     dance-single:
     :
     Challenge:
     13:
     0.697,0.700,0.094,0.272,0.820:
0000
0000
0000
0000
,
0000
0000
0000
0000
,
0000
0000
0000
0000
,
0000
0000
0000
0000
,
0000
0000
0000
0000
,
1001
0000
0000
1000
0100
1000
0100
2000
0000
0000
3001
0000
1000
0000
0100
0000
,
0010
0000
0000
0000
0001
0000
0000
0100
0001
0100
0001
0010
0100
0010
0100
1000
,
0000
0000
0000
0000
0010
0100
0010
0200
0000
0000
0000
0000
0301
0000
0000
0000
,
1000
0000
0001
1000
0000
0100
0000
0001
0000
0100
0000
1000
0000
0100
0010
0000
,
1001
0000
0000
0001
0100
0002
0000
2003
,
0000
0000
3001
0000
0020
0000
0000
0000
0031
1000
0000
0001
1000
0001
0100
0000
,
0010
0000
1000
0100
0010
0002
0000
2003
,
0000
3010
0100
0010
0000
0110
0000
0010
,
0100
0001
0010
0200
0000
1000
1000
1300
,
0000
1001
0000
0001
1000
0010
0000
1000
,
0100
0010
0002
0000
0000
0100
0100
0103
,
0001
1000
0001
0000
0010
0100
0010
0000
0001
1000
0000
0001
1000
0100
1000
0000
,
0001
0100
0010
1000
0000
0010
1000
0000
0001
0000
0000
0000
0010
0000
0100
0000
,
1000
0001
0000
0100
0000
0001
2000
0000
0000
0000
3100
0000
0010
0000
0000
0000
,
0001
1000
0000
1000
0000
0010
1000
0001
0000
0001
0000
0010
0001
0000
1000
0000
,
0020
0000
0000
0130
0000
0001
0000
0010
0000
0100
0010
0001
1000
0000
0000
0000
,
0001
0100
0010
1000
0000
0010
1000
0000
0001
0000
0000
0000
0010
0000
0100
0000
,
1000
0001
0000
0100
0000
0001
2000
0000
0000
0000
3100
0000
0010
0000
0000
0000
,
0001
1000
0000
1000
0000
0100
1000
0001
0000
0001
0000
0100
0001
0000
1000
0000
,
0200
0000
0000
1300
0000
0010
0000
0100
0000
0001
1000
0100
1000
0100
0010
0001
,
0010
0000
0000
0000
0001
0000
0001
0000
1000
0000
1000
0000
0100
0010
0000
0000
,
0001
1000
0000
0000
0010
0000
0010
0000
0010
0000
0100
0000
0100
0000
0000
0000
,
1000
0001
0000
0000
0010
0000
0010
0000
0100
0000
0100
0000
1000
0001
0000
0000
,
0010
0100
0000
0000
1000
0000
1000
0000
1000
0000
0010
0000
0010
0100
0000
0000
,
1001
0000
0000
0000
0001
0000
0001
0000
1000
0000
1000
0000
0100
0010
0000
0000
,
0001
0100
0000
0000
0010
0000
0010
0000
0010
0000
1000
0000
1000
0000
0000
0000
,
0100
0010
0000
0000
0001
0000
0001
0000
0100
0000
0100
0000
0010
0100
0000
0000
,
0001
1000
0001
0000
1000
0100
1000
0000
0100
0010
0100
0010
0001
0010
0001
0000
,
1001
0000
0000
1000
0100
2000
0000
3002
,
0000
0000
0013
0000
0100
0000
0000
0000
1000
0001
0000
1000
0001
0100
0001
0000
,
1000
0000
0000
0100
0010
0200
0000
2300
,
0000
3001
0010
0100
0000
0110
0000
0010
,
0100
1000
0001
0200
0000
0010
0010
0310
,
0000
1001
0000
1000
0100
0010
0000
0002
,
0000
1003
0200
0000
1300
0001
0100
0010
,
0000
0000
0100
0000
0010
0000
1000
0000
0001
1000
0000
0001
1000
0100
1000
0000
,
0001
0100
0010
1000
0000
0010
1000
0000
0001
0000
0000
0000
0010
0000
0100
0000
,
1000
0001
0000
0100
0000
0001
2000
0000
0000
0000
3100
0000
0010
0000
0000
0000
,
0001
1000
0000
1000
0000
0100
0010
0001
0000
0001
0000
0010
0100
0000
1000
0000
,
0002
0000
0000
0103
0000
0010
0000
1000
0000
0100
0010
0001
1000
0000
0000
0000
,
0001
0100
0010
1000
0000
0010
1000
0000
0001
0000
0000
0000
0010
0000
0100
0000
,
1000
0001
0000
0100
0000
0001
2000
0000
0000
0000
3100
0000
0010
0000
0000
0000
,
0001
1000
0000
1000
0000
0100
0010
0001
0000
0001
0000
0010
0100
0000
1000
0000
,
0002
0000
0000
0103
0000
0010
0000
1000
0100
1000
0100
0010
0100
0010
0001
0010
,
0100
1000
0010
0100
0000
0010
0100
0000
0001
0000
0000
0000
0010
0000
0100
0000
,
1000
0010
0000
0100
0000
0010
1000
0000
0001
0000
0010
0000
0100
0000
0000
0000
,
1000
0001
0000
0001
0000
0100
0010
1000
0000
1000
0000
0010
0100
0000
0001
0000
,
2000
0000
0000
3100
0000
0010
0000
0001
0000
0010
0100
0010
0001
0000
0100
0000
,
0001
0100
0010
1000
0000
0010
1000
0000
0001
0000
0000
0000
0100
0000
0010
0000
,
1000
0001
0000
0010
0000
0001
1000
0000
0100
0000
0010
0000
0100
0000
0000
0000
,
1000
0001
0000
0001
0000
0010
0100
1000
0000
1000
0000
0010
0100
0000
0001
0000
,
2000
0000
0000
3010
0000
0100
0000
0001
0010
0001
0010
0100
0010
0100
1000
0100
,
1000
0000
0000
0000
1000
0000
0000
0000
1000
0010
1000
0010
0100
0001
0100
0001
,
0000
1001
0000
0000
;

//---------------dance-single - ----------------
#NOTES:
     dance-single:
     :
     Beginner:
     1:
     0.079,0.122,0.104,0.000,0.000:
0000
0000
0000
0000
,
0000
0000
0000
0000
,
0000
0000
0000
0000
,
0000
0000
0000
0000
,
0000
0000
0000
0000
,
1001
0000
0000
0000
,
1000
0000
0000
0000
,
0100
0000
0000
0000
,
0010
0000
0000
0000
,
1001
0000
0000
0000
,
0000
0000
0010
0000
,
0000
0000
0000
0000
,
0000
0000
0000
0000
,
0100
0000
0000
0000
,
0000
0000
0000
0000
,
1000
0000
0000
0000
,
0001
0000
0000
0000
,
1001
0000
0000
0000
,
0001
0000
0000
0000
,
1000
0000
0000
0000
,
0100
0000
0000
0000
,
1001
0000
0000
0000
,
0100
0000
0000
0000
,
1000
0000
0000
0000
,
0010
0000
0000
0000
,
0110
0000
0000
0000
,
0000
0000
0000
0000
,
0100
0000
0000
0000
,
0000
0000
0000
0000
,
0110
0000
0000
0000
,
0000
0000
0000
0000
,
0010
0000
0000
0000
,
0000
0000
0000
0000
,
1001
0000
0000
0000
,
0000
0000
0000
0000
,
0001
0000
0000
0000
,
0000
0000
0000
0000
,
0010
0000
0000
0000
,
0000
0000
0000
0000
,
0100
0000
0000
0000
,
0000
0000
0000
0000
,
1001
0000
0000
0000
,
0001
0000
0000
0000
,
1000
0000
0000
0000
,
0100
0000
0000
0000
,
1000
0000
0000
0000
,
0001
0000
0000
0000
,
0010
0000
0000
0000
,
0100
0000
0000
0000
,
1001
0000
0000
0000
,
1000
0000
0000
0000
,
0100
0000
0000
0000
,
0010
0000
0000
0000
,
0100
0000
0000
0000
,
1000
0000
0000
0000
,
0001
0000
0000
0000
,
0100
0000
0000
0000
,
0010
0000
0000
0000
,
0000
0110
0000
0000
;
