#TITLE:Garakuta Doll Play;
#SUBTITLE:(sasakure.UK clutter remix);
#ARTIST:sasakure.UK;
#TITLETRANSLIT:;
#SUBTITLETRANSLIT:;
#ARTISTTRANSLIT:;
#CREDIT:DigiMindAxel;
#BANNER:Garakuta Doll Play (sasakure.UK clutter remix).png;
#BACKGROUND:Garakuta Doll Play (sasakure.UK clutter remix)-bg.png;
#LYRICSPATH:;
#CDTITLE:CHUNITHM.png;
#MUSIC:Garakuta Doll Play (sasakure.UK clutter remix).ogg;
#METERTYPE:DDR X;
#OFFSET:-8.627;
#SAMPLESTART:46.498;
#SAMPLELENGTH:12.000;
#SELECTABLE:YES;
#BPMS:0.000=256.000,132.000=128.000,148.000=256.000,353.000=128.000,369.000=256.000;
#STOPS:;
#BGCHANGES:;

//---------------dance-single - ----------------
#NOTES:
     dance-single:
     :
     Easy:
     5:
     0.237,0.370,0.164,0.112,0.000:
0200
0000
0000
0300
,
1001
0000
0000
0000
,
0000
0000
0000
0000
,
0000
0000
0000
0000
,
0000
0000
0000
0000
,
1001
0000
1000
0000
,
0001
0000
0000
0000
,
0000
0000
0000
0000
,
0000
0000
0000
0000
,
1001
0000
0001
0000
,
1000
0000
0000
0000
,
1001
0000
1000
0000
,
0001
0000
0000
0000
,
1001
0000
0001
0000
,
1000
0000
0001
0000
,
1000
0000
0000
0000
,
0001
0000
0000
0000
,
1000
0000
0100
0000
,
1000
0000
0000
0000
,
0010
0000
0010
0000
,
0100
0000
0100
0000
,
0001
0000
0010
0000
,
0001
0000
0000
0000
,
0010
0000
0010
0000
,
0100
0000
0100
0000
,
1000
0000
0001
0000
,
1000
0000
0000
0000
,
0001
0000
1000
0000
,
0001
0000
0000
0000
,
0100
0000
0100
0000
,
0001
0000
0001
0000
,
1000
0000
0100
0000
,
0010
0000
0000
0000
,
0002
0000
0000
0000
,
0203
0000
0000
0000
,
0320
0000
0000
0000
,
2030
0000
3000
0000
,
0001
1000
0001
1000
,
0001
0000
0000
0000
,
0100
0001
0100
0001
,
0100
0000
0000
0000
,
0001
1000
0001
1000
,
0001
0000
0000
0000
,
1000
0100
1000
0100
,
2000
0000
0000
0000
,
3001
0000
0100
0000
,
0010
0100
0001
0000
,
1000
0000
0100
0000
,
0010
0001
0100
0000
,
0001
0000
1000
0000
,
0010
1000
0100
0000
,
0010
0000
0001
0000
,
0100
0010
0100
0010
,
0100
0001
0010
0000
,
0100
0000
1000
0000
,
0010
1000
0100
0000
,
0010
0000
0001
0000
,
0100
0001
0010
0000
,
0100
0000
1000
0000
,
0010
1000
0010
1000
,
0002
0000
0000
0000
,
1003
0000
0000
0100
,
0000
0000
0010
0000
,
0000
0001
0000
0000
,
1000
0000
0000
0100
,
0000
0000
0010
0000
,
0000
0001
0000
0000
,
1000
0000
0000
0100
,
0000
0000
0010
0000
,
0000
0001
0000
0000
,
1000
0000
0000
0100
,
0000
0000
0010
0000
,
0000
0001
0000
0000
,
1001
0000
0000
1001
,
0000
0000
1001
0000
,
0000
1001
0000
0000
,
0110
0000
0000
0110
,
0000
0000
0110
0000
,
0000
0110
0000
0000
,
1001
0000
0000
1001
,
0000
0000
1001
0000
,
0000
1001
0000
0000
,
0110
0000
0000
0110
,
0000
0000
0110
0000
,
0000
0220
0000
0000
,
0000
0000
0000
0000
,
0000
0000
0000
0000
,
0000
0000
0000
0000
,
0330
0100
0000
0000
,
0000
0000
0000
0000
,
0000
0100
0000
0000
,
0000
0000
0000
0000
,
0000
0010
0000
0100
,
0000
0010
0000
0100
,
0000
0001
0000
1000
,
0000
0001
0000
1000
,
0000
0100
0000
1000
,
0000
0100
0000
1000
,
0000
0010
0000
0100
,
0000
0001
0000
0000
,
0000
2000
0000
0000
,
0000
0000
0000
0000
,
0000
3002
0000
0000
,
0000
0000
0000
0000
,
0000
0203
0000
0000
,
0000
0000
0000
0000
,
0000
0320
0000
0000
,
0000
0000
0000
0000
,
0000
1030
0001
1000
,
0001
1000
0000
0000
,
0000
0010
1000
0010
,
1000
0001
0000
0000
,
0000
0010
0001
0010
,
0001
0100
0010
0100
,
0010
1000
0100
0010
,
0001
1000
0000
0000
,
0000
2002
0000
0000
,
0000
0000
0000
0000
,
0000
0000
0000
0000
,
0000
0000
0000
0000
,
0000
0000
0000
0000
,
0000
0000
0000
0000
,
0000
0000
0000
0000
,
0000
0000
0000
0000
,
0000
3003
0000
0000
;

//---------------dance-single - ----------------
#NOTES:
     dance-single:
     :
     Medium:
     9:
     0.446,0.555,0.305,0.186,0.045:
1000
0001
1000
0001
,
2002
0000
0000
0000
,
0000
0000
0000
0000
,
3003
0000
0000
0000
,
0000
0000
0000
0000
,
1001
1000
0001
0001
,
2000
0000
0000
0000
,
3000
0000
0000
0000
,
0000
0000
0000
0000
,
1001
0001
1000
1000
,
0001
0000
0000
0000
,
0110
0100
0010
0010
,
0100
0000
0000
0000
,
0110
0100
0010
0010
,
0100
0100
0010
0010
,
0200
0000
0000
0000
,
0310
1000
0010
0000
,
0100
0001
1000
0100
,
0010
0001
1000
0000
,
0001
0010
0100
0010
,
0001
0010
0100
0000
,
1000
0100
0010
0001
,
1000
0010
1000
0000
,
0002
0000
0203
0000
,
0301
0010
0100
1000
,
0001
0100
0001
0100
,
0010
1000
0100
0000
,
0010
0001
0010
0001
,
0100
0010
1000
0000
,
0001
0010
0100
1000
,
0001
0100
0001
0000
,
1000
0001
0100
0001
,
2000
0000
3000
0000
,
0010
0000
0000
0000
0100
0000
0000
0001
0000
0000
0000
0000
0010
0000
0100
0000
,
1000
0000
0000
0000
0001
0000
0000
0100
0000
0000
0000
0000
0001
0000
1000
0000
,
0001
0000
0000
0000
0010
0000
0000
0100
0000
0000
0000
0000
1000
0000
0010
0000
,
0100
0000
0000
0000
0001
0000
0000
1000
0000
0000
0000
0000
0002
0000
0000
0000
,
1003
0010
1000
0100
,
0010
0000
0001
0000
1000
0001
1000
0000
,
0001
0100
0001
0010
,
0100
1000
0001
0001
,
1000
0100
1000
0010
,
0100
0000
0001
0000
1000
0001
1000
0000
,
0100
0010
0100
1000
,
0020
0000
0000
0000
,
0130
0000
0001
0000
1000
0000
0000
0100
,
0000
1000
0000
0000
0100
0000
0000
0010
,
0000
0000
0100
0000
1000
0000
0000
0001
,
0000
0100
0000
0000
0001
0000
0000
0000
,
0010
0000
0100
0000
1000
0000
0000
0001
,
0000
0100
0000
0000
0001
0000
0000
1000
,
0000
0000
0100
0000
0010
0000
0000
0002
,
0000
0100
0103
0000
,
1001
0000
0010
0000
0100
0000
1000
0001
,
0000
1000
0001
0000
0100
0000
0010
1000
,
0000
0000
0010
0000
1000
0000
0100
0010
,
0000
0100
0010
0000
0001
1000
0000
0000
,
0001
0000
0010
0000
0100
0000
1000
0001
,
0000
1000
0001
0000
0100
0000
0010
1000
,
0010
0010
0010
0010
,
0220
0000
0000
0330
,
0100
0000
0000
0001
0000
0000
0100
0000
,
0000
0001
0000
0000
1000
0000
0000
0100
,
0000
0000
1000
0000
0000
0100
0000
0000
,
0010
0000
0000
0100
0000
0000
0010
0000
,
0000
0100
0000
0000
1000
0000
0000
0001
,
0000
0000
0100
0000
0000
0001
0000
0000
,
1000
0000
0000
0100
0000
0000
0010
0000
,
0000
0100
0000
0000
1000
0000
0000
0001
,
0000
0000
0010
0000
0000
0001
0000
0000
,
1000
0000
0000
0010
0000
0000
0100
0000
,
0000
0001
0000
0000
1000
0000
0000
0010
,
0000
0000
0100
0000
0000
0001
0000
0000
,
1001
0000
0000
1001
0000
0000
0110
0000
,
0000
0110
0000
0000
1001
0000
0000
1001
,
0000
0000
0110
0000
0000
0110
0000
0000
,
1100
0000
0000
1100
0000
0000
0011
0000
,
0000
0011
0000
0000
1010
0000
0000
1010
,
0000
0000
0101
0000
0000
0101
0000
0000
,
0110
0000
0000
0110
0000
0000
1001
0000
,
0000
1001
0000
0000
1100
0000
0000
1100
,
0000
0000
0011
0000
0000
0011
0000
0000
,
0110
0000
0000
0110
0000
0000
1010
0000
,
0000
1010
0000
0000
0101
0000
0000
0101
,
0000
2002
0000
0000
,
0000
0000
0000
0000
,
0000
0000
0000
0000
,
0000
0000
0000
0000
,
3003
0000
0000
0000
0001
0000
0000
0001
0000
0000
0000
0100
0000
0000
0100
0000
,
0000
0000
0000
0000
0010
0000
0000
0010
0000
0000
0000
1000
0000
0000
1000
0000
,
0000
0000
0000
0000
0100
0000
0000
0100
0000
0000
0000
0010
0000
0000
0010
0000
,
0000
0000
0000
0000
0001
0000
0000
0001
0000
0000
0000
2000
0000
0000
0000
0000
,
0000
3000
0001
0000
0100
0000
0001
0100
,
0001
0000
1000
0000
0100
1000
0100
0000
,
1000
0000
0010
0000
1000
0010
1000
0000
,
0001
0010
0001
0200
,
0000
0310
1000
0010
,
1000
0001
1000
0000
0001
0000
0100
0000
,
0010
1000
0010
0000
1000
0000
0001
0000
,
0010
0200
0000
0000
,
0300
0000
1000
0000
0000
1000
0000
0000
,
1000
0000
0000
1000
0000
0000
1000
0000
,
0000
0000
0001
0000
0000
0001
0000
0000
,
0001
0000
0000
0001
0000
0000
0001
0000
,
0000
0000
0100
0000
0000
0010
0000
0000
,
0000
1000
0000
0000
0000
0000
0000
0000
,
0000
0000
0001
0000
0000
0100
0000
0000
,
0000
0010
0000
0000
0000
0000
0000
0000
,
0000
0000
1000
0010
1000
0000
0010
1000
,
0010
2020
0000
0000
,
3030
0000
0100
0010
0100
0000
0010
0100
,
0010
0220
0000
0000
,
0330
0000
0010
0001
0010
0000
0001
0010
,
0001
2000
0001
0001
,
3001
0000
0100
0010
0100
0000
0010
0100
,
0010
0200
0010
0010
,
0310
2002
0000
0000
,
0000
0000
0000
0000
,
0000
0000
0000
0000
,
0000
0000
0000
0000
,
0000
0000
0000
0000
,
0000
0000
0000
0000
,
0000
0000
0000
0000
,
0000
0000
0000
0000
,
0000
3003
0000
0000
;

//---------------dance-single - ----------------
#NOTES:
     dance-single:
     :
     Hard:
     13:
     0.686,0.924,0.357,0.164,0.074:
1000
0001
1000
0001
1000
0001
1000
0001
,
1000
0100
0010
0001
,
1000
0000
0001
0100
0000
0000
0000
0000
,
0000
0000
0000
0000
,
0000
0000
0000
0000
,
1001
0001
0010
0100
,
1000
0000
0001
0100
0000
0000
0000
0000
,
0000
0000
0000
0000
,
0001
1000
0001
0000
1000
0001
1000
0001
,
1000
0100
0010
0001
,
1000
0000
0010
1000
0000
0000
0000
0000
,
1001
0010
0100
1000
,
0001
0000
0100
0001
0000
0000
0000
0000
,
1001
0010
0100
1000
,
0001
0010
0100
1000
,
0001
0100
0001
1000
,
0100
1000
0100
0000
1000
0001
1000
0000
,
0001
0010
0100
0000
1000
0000
0001
0000
,
0100
0001
0010
0000
0100
0000
1100
0000
,
0010
0100
0001
0000
1000
0000
0100
0000
,
0010
0001
0100
0000
0001
0000
1000
0000
,
0100
0010
0001
0000
0100
0000
0010
0000
,
1000
0001
0010
0000
0100
0000
1000
0000
,
0001
0100
0010
0000
0100
0000
0001
0000
,
0010
0100
0010
0000
0001
0100
0001
0100
,
0001
0010
0100
0000
0010
0000
0001
0000
,
1000
0010
0100
0000
0001
0000
0101
0000
,
0010
0100
1000
0000
0001
0000
0100
0000
,
0010
1000
0100
0000
0010
0000
0001
0000
,
1000
0100
0010
0000
0100
0000
1000
0000
,
0010
0100
0001
0000
0100
0000
0001
0000
,
0100
0010
0100
0010
0100
0010
0100
0010
,
0200
0000
0300
0000
,
0001
0000
1000
0000
0001
0100
0000
0020
0000
0000
1030
0000
0001
0100
0001
0000
,
1000
0000
0010
0000
1000
0001
0000
0020
0000
0000
0031
0000
0010
0000
0100
0000
,
1000
0000
0010
0000
1000
0001
0000
0020
0000
0000
0130
0000
1000
0100
1000
0000
,
0001
0000
0100
0000
0001
1000
0000
0200
0000
0000
0000
0000
1000
0000
1300
0000
,
1001
0000
0001
0000
1000
0010
0000
2000
,
0000
0000
3001
0000
0100
0001
0100
0001
,
1000
0000
0100
0000
0010
0001
0000
0200
,
0000
0301
1000
0010
,
0101
0000
0100
0000
0001
1000
0000
0200
,
0000
0000
0310
0000
0001
0010
0001
0010
,
0100
0000
1000
0000
0001
1000
0000
0010
,
0100
0010
0100
0010
0100
0010
0100
0010
,
0100
0000
0001
0000
0010
0100
1000
0001
,
0000
0100
0001
0000
0010
0000
0100
1000
,
0000
0010
0100
0000
0001
0000
1000
0010
,
0000
0100
0001
0000
1000
0001
1000
0000
,
0001
0100
0001
0000
1000
0100
0010
0001
,
0000
0100
0010
0000
1000
0000
0001
0100
,
0000
0001
1000
0000
0100
0000
0010
0001
,
0100
0010
0100
0010
0100
0010
0100
0000
,
1001
0000
1001
0000
0001
1000
0100
0010
,
0000
0100
0010
0000
0001
0100
0001
1000
,
0000
0001
1000
0000
0100
0010
0001
0100
,
0000
0001
0100
0000
0001
1000
0100
0000
,
0011
0000
0011
0000
0100
1000
0010
0100
,
0000
0010
0100
0000
0001
1000
0100
0010
,
0001
0100
0001
0100
0001
0100
0001
0100
,
0002
0000
0000
0003
,
1010
0000
0000
0110
0000
0000
1010
0000
,
0000
0110
0000
0000
0011
0000
0000
0110
,
0000
0000
0011
0000
0000
0110
0000
0000
,
1100
0000
0000
1001
0000
0000
1100
0000
,
0000
1001
0000
0000
0101
0000
0000
0110
,
0000
0000
0101
0000
0000
0110
0000
0000
,
1001
0000
0000
0011
0000
0000
1001
0000
,
0000
0011
0000
0000
1100
0000
0000
0110
,
0000
0000
1100
0000
0000
0110
0000
0000
,
1001
0000
0000
0110
0000
0000
1001
0000
,
0000
0110
0000
0000
0101
0000
0000
0110
,
0000
0000
0101
0000
0000
0110
0000
0000
,
0010
0100
1000
0010
0000
0000
0100
0001
,
0010
0100
0000
0000
0010
0001
1000
0010
,
0000
0000
0100
0001
0010
0100
0000
0000
,
1000
0001
0010
0100
0000
0000
1000
0010
,
0100
0001
0000
0000
0100
0001
1000
0100
,
0000
0000
0010
0001
0100
0010
0000
0000
,
1000
0001
0010
0100
0000
0000
0010
0001
,
0100
0010
0000
0000
0100
0001
1000
0100
,
0000
0000
0010
0100
1000
0010
0000
0000
,
0100
0001
0010
0100
0000
0000
1000
0010
,
0100
0001
0000
0000
0100
0001
0010
0100
,
0000
0000
1000
0001
1000
0001
1000
0001
,
1000
0001
1000
0001
1000
0001
1000
0001
,
1000
0001
1000
0001
1000
0001
1000
0001
,
1000
0001
1000
0001
1000
0001
1000
0001
,
1000
0000
0000
0000
0020
0000
0000
1030
0000
0000
0000
0002
0000
0000
0013
0000
,
0000
0000
0000
0000
0200
0000
0000
0310
0000
0000
0000
0002
0000
0000
1003
0000
,
0000
0000
0000
0000
0200
0000
0000
1300
0000
0000
0000
0020
0000
0000
0130
0000
,
0000
0000
0000
0000
0002
0000
0000
1003
0000
0000
0000
0200
0000
0000
0000
0000
,
1300
0001
1000
0001
1000
0000
0000
0000
1001
0000
0000
0000
0010
0000
1000
0000
,
0010
1000
0001
0000
0001
0010
0100
0000
,
1000
0000
1010
0000
0100
0001
0100
0001
,
1000
0100
0010
0000
0010
0001
0100
0010
,
0000
0100
0010
0000
1010
0000
1000
0001
,
1000
0001
0010
0000
0010
0001
0100
0000
,
0010
1000
0000
0010
0100
0001
0010
0100
,
1000
0001
0200
0000
0000
0000
0000
0000
,
0300
0000
0001
1000
0000
0001
1000
0000
,
0001
1000
0000
0001
1000
0000
0001
1000
,
0000
0000
0100
0010
0000
0100
0010
0000
,
0100
0010
0000
0100
0010
0000
0100
0010
,
0000
0000
0001
0100
0000
0001
0000
0000
,
1000
0100
0000
0000
1000
0001
0000
0100
,
0000
0000
0001
0010
0100
1000
0000
0001
,
0000
1000
0100
1000
0100
0010
0001
0010
,
0001
0000
0010
0100
1000
0100
0010
0100
,
1000
0100
0020
0000
0000
0000
0000
0000
,
0030
0000
0001
0100
0010
0100
0001
0100
,
0010
0100
0002
0000
0000
0000
0000
0000
,
0003
0000
1000
0001
0010
0100
0010
0001
,
0010
0100
1000
0010
1000
0000
0010
0100
,
0010
0000
0100
0001
1000
0010
0100
0001
,
1000
0100
0010
0000
0010
0000
0011
0000
,
0000
0220
0000
0000
,
0000
0000
0000
0000
,
0000
0000
0000
0000
,
0000
0000
0000
0000
,
0000
0000
0000
0000
,
0000
0000
0000
0000
,
0000
0000
0000
0000
,
0000
0000
0000
0000
,
0000
0330
0000
0000
;

//---------------dance-single - ----------------
#NOTES:
     dance-single:
     :
     Challenge:
     15:
     0.812,1.000,0.171,0.387,0.097:
0001
1000
0001
1000
0001
1000
0001
1000
,
0001
0000
0010
0100
0000
1000
0000
1000
,
0000
0001
0010
0001
0000
0100
0010
0000
,
0100
0001
0010
0100
0000
1000
0010
1000
,
0000
0001
1000
0001
0000
0100
0001
1000
,
0100
0000
0010
0001
0000
0001
0000
0100
,
0000
0010
0100
0010
0000
1000
0010
0000
,
1000
0001
0010
0100
0000
0100
0000
1000
,
0010
0100
0010
0000
1000
0010
0100
0010
,
1000
0000
0001
0100
0000
0001
0000
0001
,
0000
0100
0010
0100
0000
0001
1000
0000
,
0100
0010
0001
0100
0000
0001
1000
0001
,
0000
1000
0100
1000
0000
0010
0100
0001
,
0010
0000
0100
0010
0000
0001
0000
0001
,
0000
0100
0001
1000
0000
0100
0010
0000
,
0001
0100
0001
1000
0000
1000
0000
0001
,
1000
0100
1000
0100
0010
0001
0010
0001
,
1000
0100
0001
0100
1000
0000
0001
0000
,
1000
0010
0001
0010
1000
0000
0001
0000
,
1000
0010
0001
0010
1000
0000
0001
0000
,
1000
0100
0001
0100
1000
0000
0001
0000
,
0010
0001
0100
0010
1000
0000
0100
0000
,
0010
0001
0100
0010
1000
0000
0100
0000
,
0010
0100
1000
0010
0100
0000
0001
0000
,
0010
0100
1000
0010
0100
0001
0010
0001
,
1000
0100
0010
0100
1000
0000
0010
0000
,
0100
0001
0010
0001
0100
0000
1001
0000
,
0001
0100
0010
0100
0001
0000
1000
0000
,
0100
0010
0001
0010
0100
0000
1000
0000
,
0100
1000
0010
0100
0001
0000
0100
0000
,
0001
0010
0100
1000
0001
0000
0100
0000
,
0010
1000
0010
1000
0100
0010
0100
0010
,
0002
0000
0003
0000
,
1000
0000
1000
0000
0010
0100
0000
0102
0000
0000
1003
0000
0001
0100
1000
0100
,
0001
0000
0001
0000
0010
0100
0000
1020
0000
0000
0130
0000
0001
0000
0100
0000
,
0001
0000
0001
0000
1000
0100
0000
1002
0000
0000
0103
0000
0001
0010
1000
0010
,
0001
0000
0001
0000
0010
0100
0000
2010
0000
0000
0000
0000
0001
0000
3001
0000
,
1000
0010
0100
0000
0001
0100
0000
0001
,
1000
0000
1000
0000
0001
0010
1000
0010
,
0001
1000
0100
0000
1000
0001
0000
0100
,
0001
0000
0001
0000
1000
0100
0010
0000
,
0001
0100
0010
0000
0100
0001
0000
1000
,
0100
0000
0100
0000
1000
0010
0001
0010
,
1000
0100
0010
0000
0001
0100
0000
0001
,
1000
0100
0010
0001
1000
0100
0010
0001
,
1000
0000
1100
0000
0010
0001
0100
0010
,
0000
0100
0002
0000
1000
0000
1003
0100
,
0000
0010
0100
0000
1000
0000
0001
0100
,
0000
0010
0100
0000
0010
1000
0001
0000
,
0100
0001
0010
0100
1000
0001
0100
0001
,
0000
1000
0100
0000
0010
0000
0001
0100
,
0000
0010
0100
0000
0001
0000
1000
0100
,
0010
0001
1000
0100
0010
0001
1000
0000
,
0001
0100
0010
0100
0001
0010
0100
1000
,
0000
0001
0200
0000
0001
0000
0301
1000
,
0000
0100
1000
0000
0010
0100
0001
0010
,
0000
0100
0010
0000
0001
0100
0010
0000
,
1000
0001
1000
0100
0010
0001
0100
0001
,
0000
1000
0100
0000
1000
0000
1000
0010
,
0100
0001
0010
0001
0100
0010
0100
0001
,
2000
0000
0000
3000
,
1200
0000
0000
0302
0000
0000
0203
0000
,
0000
2300
0000
0000
3020
0000
0000
0032
,
0000
0000
0023
0000
0000
2030
0000
0000
,
3200
0000
0000
0302
0000
0000
0203
0000
,
0000
0320
0000
0000
0032
0000
0000
2003
,
0000
0000
3200
0000
0000
0320
0000
0000
,
2030
0000
0000
3020
0000
0000
0032
0000
,
0000
2003
0000
0000
3002
0000
0000
0203
,
0000
0000
2300
0000
0000
3200
0000
0000
,
0320
0000
0000
2030
0000
0000
3002
0000
,
0000
0023
0000
0000
2030
0000
0000
3002
,
0000
0000
0023
0000
0000
0230
0000
0000
,
0301
1000
0010
0110
0000
0000
0100
0010
,
0001
1001
0000
0000
0010
1000
0001
0011
,
0000
0000
0100
1000
0001
0101
0000
0000
,
0100
0010
0001
1001
0000
0000
0100
0001
,
1000
1100
0000
0000
0010
0001
0100
0110
,
0000
0000
0010
1000
0001
0011
0000
0000
,
0010
0100
1000
1001
0000
0000
0100
0010
,
0001
0101
0000
0000
0100
0010
1000
1100
,
0000
0000
0010
0001
0100
0110
0000
0000
,
0010
0100
1000
1001
0000
0000
0010
0001
,
1000
1010
0000
0000
0100
0010
0001
1001
,
0000
0000
0100
0001
0100
0001
1000
0100
,
1000
0100
0010
0001
0010
0001
0100
0010
,
0100
0010
1000
0100
1000
0100
0010
0001
,
0010
0001
0010
0100
0010
0100
1000
0010
,
0100
0000
0001
0000
2000
0000
0000
0000
3010
0100
0000
0002
0000
0000
0003
0000
,
1000
0100
0001
0100
1000
0000
0000
0000
0010
0100
0000
0002
0000
0000
0003
0000
,
1000
0000
0010
0000
0100
0000
0000
0000
0001
1000
0000
0200
0000
0000
0300
0000
,
1000
0010
0001
0010
1000
0000
0000
0000
0100
0010
0000
0200
0000
0000
0300
0000
,
1000
0001
1000
0001
1000
0000
0001
0000
0100
0000
0000
0000
0001
0000
0100
0000
,
1000
0100
0001
0000
0001
0010
0100
0000
,
0100
1000
0010
0000
1000
0010
0001
0010
,
1000
0100
0010
0000
0010
0001
0200
0010
,
0000
0310
1000
0001
1000
0000
0001
0010
,
1000
0010
0001
0000
0001
0100
0010
1000
,
0200
0010
0000
0310
0001
1000
0100
0010
,
0001
0100
0002
0000
0000
0000
0000
0000
,
0003
0000
0010
0100
1000
0001
0010
0100
,
0010
0001
1000
0100
0010
0100
1000
0001
,
0100
0000
0001
0100
0010
1000
0010
0100
,
0010
1000
0001
0100
0010
0100
0001
1000
,
0100
0000
1000
0001
0000
0001
0000
0010
,
0100
1000
0000
0010
0100
0001
0000
0001
,
0000
0010
0001
1000
0100
0010
0000
0010
,
0000
0001
1000
0010
0001
0010
1000
0100
,
0010
0000
0001
0100
1000
0100
0001
0010
,
1000
0010
0001
1000
0100
0010
0100
0000
,
1000
0010
1000
0100
0001
0100
1000
0010
,
0001
0010
1000
0001
1000
0100
0010
0000
,
0001
0100
0001
0010
1000
0010
0001
0100
,
1000
0100
0001
1000
0100
0010
1000
0010
,
0100
1000
0001
0100
1000
0100
0001
0010
,
1000
0010
0001
1000
0010
0100
0002
0020
,
0033
2002
0000
0000
,
0000
0000
0000
0000
,
0000
0000
0000
0000
,
0000
0000
0000
0000
,
0000
0000
0000
0000
,
0000
0000
0000
0000
,
0000
0000
0000
0000
,
0000
0000
0000
0000
,
0000
3003
0000
0000
;

//---------------dance-double - ----------------
#NOTES:
     dance-double:
     :
     Easy:
     5:
     0.252,0.370,0.171,0.104,0.000:
00000000
00000000
00000000
00000000
,
10010000
00000000
00000000
00000000
,
00000000
00000000
00000000
00000000
,
00000000
00000000
00000000
00000000
,
00000000
00000000
00000000
00000000
,
10010000
00000000
10000000
00000000
,
00010000
00000000
00000000
00000000
,
00000000
00000000
00000000
00000000
,
00000000
00000000
00000000
00000000
,
10010000
00000000
00010000
00000000
,
10000000
00000000
00000000
00000000
,
10010000
00000000
10000000
00000000
,
00010000
00000000
00000000
00000000
,
10010000
00000000
00010000
00000000
,
10000000
00000000
00010000
00000000
,
10000000
00000000
00000000
00000000
,
01000000
00000000
00000000
00000000
,
00100000
00000000
00010000
00000000
,
00100000
00000000
00000000
00000000
,
00001000
00000000
00001000
00000000
,
00010000
00000000
00010000
00000000
,
00000010
00000000
00000100
00000000
,
00000010
00000000
00000000
00000000
,
00001000
00000000
00001000
00000000
,
00000001
00000000
00000001
00000000
,
00000100
00000000
00000001
00000000
,
00000100
00000000
00000000
00000000
,
00000010
00000000
00000100
00000000
,
00000010
00000000
00000000
00000000
,
00001000
00000000
00001000
00000000
,
00010000
00000000
00010000
00000000
,
01000000
00000000
00100000
00000000
,
10000000
00000000
00000000
00000000
,
00020000
00000000
00000000
00000000
,
02030000
00000000
00000000
00000000
,
03020000
00000000
00000000
00000000
,
00230000
00000000
00300000
00000000
,
00001000
00010000
00001000
00010000
,
00000010
00000000
00000100
00000000
,
00000001
00001000
00000001
00001000
,
00000100
00000000
00010000
00000000
,
00001000
01000000
00001000
01000000
,
00100000
00000000
10000000
00000000
,
01000000
00100000
01000000
00100000
,
00020000
00000000
00000000
00000000
,
10030000
00000000
01000000
00000000
,
00100000
00010000
01000000
00100000
,
10000000
00000000
01000000
00000000
,
00100000
00010000
01000000
00100000
,
10000000
00000000
01000000
00000000
,
00100000
00001000
00010000
00000100
,
00000010
00000000
00000001
00000000
,
00000100
00000010
00000100
00000010
,
00000100
00000001
00000010
00000000
,
00000100
00000000
00010000
00000000
,
00001000
10000000
01000000
00100000
,
00010000
00000000
01000000
00000000
,
00001000
00100000
01000000
10000000
,
00010000
00000000
01000000
00000000
,
00001000
00010000
00001000
00010000
,
00000020
00000000
00000000
00000000
,
00000130
00000000
00000000
00000001
,
00000000
00000000
00000010
00000000
,
00000000
00000100
00000000
00000000
,
00010000
00000000
00000000
00001000
,
00000000
00000000
01000000
00000000
,
00000000
00100000
00000000
00000000
,
10000000
00000000
00000000
01000000
,
00000000
00000000
00100000
00000000
,
00000000
00010000
00000000
00000000
,
10000000
00000000
00000000
01000000
,
00000000
00000000
00100000
00000000
,
00000000
00010000
00000000
00000000
,
10010000
00000000
00000000
10010000
,
00000000
00000000
10010000
00000000
,
00000000
10010000
00000000
00000000
,
01100000
00000000
00000000
01100000
,
00000000
00000000
01100000
00000000
,
00000000
01100000
00000000
00000000
,
00011000
00000000
00000000
00011000
,
00000000
00000000
00011000
00000000
,
00000000
00011000
00000000
00000000
,
00000110
00000000
00000000
00000110
,
00000000
00000000
00000110
00000000
,
00000000
00002002
00000000
00000000
,
00000000
00000000
00000000
00000000
,
00000000
00000000
00000000
00000000
,
00000000
00000000
00000000
00000000
,
00003003
00000001
00000000
00000000
,
00000000
00000000
00000000
00000000
,
00000000
00000100
00000000
00000000
,
00000000
00000000
00000000
00000000
,
00000000
00000010
00000000
00000100
,
00000010
00000100
00000010
00000100
,
00000000
00000001
00000000
00000010
,
00000001
00000010
00000001
00000010
,
00000000
00000100
00000000
00010000
,
00000100
00010000
00000100
00010000
,
00000000
00001000
00000000
01000000
,
00100000
10000000
00000000
00000000
,
00000000
20010000
00000000
00000000
,
00000000
00000000
00000000
00000000
,
00000000
30020000
00000000
00000000
,
00000000
00000000
00000000
00000000
,
00000000
02030000
00000000
00000000
,
00000000
00000000
00000000
00000000
,
00000000
03200000
00000000
00000000
,
00000000
00000000
00000000
00000000
,
00000000
10300000
01000000
00100000
,
00010000
10000000
00000000
00000000
,
00000000
00100000
01000000
00001000
,
00010000
00000100
00000000
00000000
,
00000000
00000010
00000001
00000010
,
00000001
00000100
00000010
00000100
,
00000010
00010000
00001000
00100000
,
01000000
10000000
00000000
00000000
,
00000000
20020000
00000000
00000000
,
00000000
00000000
00000000
00000000
,
00000000
00000000
00000000
00000000
,
00000000
00000000
00000000
00000000
,
00000000
00000000
00000000
00000000
,
00000000
00000000
00000000
00000000
,
00000000
00000000
00000000
00000000
,
00000000
00000000
00000000
00000000
,
00000000
30030000
00000000
00000000
;

//---------------dance-double - ----------------
#NOTES:
     dance-double:
     :
     Medium:
     9:
     0.449,0.647,0.350,0.171,0.045:
10000000
00010000
10000000
00010000
,
10010000
00000000
10000000
00000000
,
10000000
00010000
10000000
00000000
,
00000000
00000000
00000000
00000000
,
00000000
00000000
00000000
00000000
,
01100000
00000000
00100000
00000000
,
00100000
01000000
00100000
00000000
,
00000000
00000000
00000000
00000000
,
00000000
00000000
00000000
00000000
,
10010000
00000000
10000000
00000000
,
10000000
00010000
10000000
00000000
,
10010000
00000000
00010000
00000000
,
10000000
00010000
10000000
00000000
,
01100000
00000000
00100000
00000000
,
01100000
00000000
01000000
00000000
,
00020000
00000000
00000000
00000000
,
10030000
01000000
10000000
00000000
,
00001000
00100000
00001000
00100000
,
00001000
00010000
00000100
00000000
,
00000010
00000001
00000010
00000001
,
00000100
00000010
00010000
00000000
,
00000100
00000010
00000100
00000010
,
00000001
00000100
00000010
00000000
,
00020000
00000000
00032000
00000000
,
00103000
01000000
00100000
01000000
,
10000000
00010000
01000000
00010000
,
10000000
01000000
00100000
00000000
,
00001000
00010000
00001000
00010000
,
00000100
00000010
00000001
00000000
,
00000100
00000001
00000100
00000001
,
00000010
00000100
00001000
00000000
,
00010000
01000000
10000000
01000000
,
00020000
00000000
00030000
00000000
,
20000000
00000000
00000000
00000000
00100000
00000000
00000000
30100000
00000000
00000000
00000000
00000000
10000000
00000000
00100000
00000000
,
02000000
00000000
00000000
00000000
00001000
00000000
00000000
03001000
00000000
00000000
00000000
00000000
00010000
00000000
00000100
00000000
,
00000020
00000000
00000000
00000000
00000100
00000000
00000000
00000130
00000000
00000000
00000000
00000000
00001000
00000000
00000001
00000000
,
00000200
00000000
00000000
00000000
00000001
00000000
00000000
00000301
00000000
00000000
00000000
00000000
00010000
00000000
00001000
00000000
,
00010000
00001000
01000000
00100000
,
10000000
00000000
00100000
00000000
01000000
00100000
01000000
00000000
,
00001000
00010000
00000100
00000010
,
00000100
00010000
00000001
00000001
,
00001000
00000010
00000001
00000010
,
00001000
00000000
00000100
00000000
00010000
00001000
00010000
00000000
,
00001000
01000000
00100000
01000000
,
00002000
00000000
00000000
00000000
,
10003000
00000000
01000000
00000000
00100000
00000000
00000000
00010000
,
00000000
01000000
00000000
00000000
00001000
00000000
00000000
00010000
,
00000000
00000000
00000100
00000000
00000010
00000000
00000000
00000001
,
00000000
00000100
00000000
00000000
00000001
00000000
00000000
00000000
,
00010000
00000000
00001000
00000000
01000000
00000000
00000000
00100000
,
00000000
01000000
00000000
00000000
00010000
00000000
00000000
10000000
,
00000000
00000000
01000000
00000000
00100000
00000000
00000000
00002000
,
00000000
00010000
00013000
00000000
,
00000110
00000000
00000100
00000000
00000001
00000000
00000010
00000100
,
00000000
00000010
00000100
00000000
00010000
00000000
00001000
01000000
,
00000000
00000000
00100000
00000000
01000000
00000000
00010000
10000000
,
00000000
00010000
10000000
00000000
01000000
00100000
00000000
00000000
,
00001000
00000000
00010000
00000000
00000100
00000000
00000010
00000001
,
00000000
00000010
00000001
00000000
00000100
00000000
00000010
00000100
,
00000010
00000110
00000110
00000110
,
00002002
00000000
00000000
00003003
,
00000001
00000000
00000000
00000010
00000000
00000000
00000001
00000000
,
00000000
00001000
00000000
00000000
00000010
00000000
00000000
00010000
,
00000000
00000000
00001000
00000000
00000000
00100000
00000000
00000000
,
01000000
00000000
00000000
10000000
00000000
00000000
01000000
00000000
,
00000000
00100000
00000000
00000000
00001000
00000000
00000000
00010000
,
00000000
00000000
00000010
00000000
00000000
00000100
00000000
00000000
,
00000001
00000000
00000000
00000100
00000000
00000000
00000010
00000000
,
00000000
00001000
00000000
00000000
00010000
00000000
00000000
00100000
,
00000000
00000000
01000000
00000000
00000000
00100000
00000000
00000000
,
00010000
00000000
00000000
00001000
00000000
00000000
00000010
00000000
,
00000000
00000100
00000000
00000000
00000010
00000000
00000000
00010000
,
00000000
00000000
00001000
00000000
00000000
00100000
00000000
00000000
,
01100000
00000000
00000000
01100000
00000000
00000000
11000000
00000000
,
00000000
11000000
00000000
00000000
00101000
00000000
00000000
00101000
,
00000000
00000000
00011000
00000000
00000000
00011000
00000000
00000000
,
00010010
00000000
00000000
00010010
00000000
00000000
00000110
00000000
,
00000000
00000110
00000000
00000000
00000011
00000000
00000000
00000011
,
00000000
00000000
00010010
00000000
00000000
00010010
00000000
00000000
,
00011000
00000000
00000000
00011000
00000000
00000000
01100000
00000000
,
00000000
01100000
00000000
00000000
11000000
00000000
00000000
11000000
,
00000000
00000000
01100000
00000000
00000000
01100000
00000000
00000000
,
01001000
00000000
00000000
01001000
00000000
00000000
00011000
00000000
,
00000000
00011000
00000000
00000000
00010100
00000000
00000000
00010100
,
00000000
00000220
00000000
00000000
,
00000000
00000000
00000000
00000000
,
00000000
00000000
00000000
00000000
,
00000000
00000000
00000000
00000000
,
00000330
00000000
00000000
00000000
00000010
00000000
00000000
00000010
00000000
00000000
00000000
00000001
00000000
00000000
00000001
00000000
,
00000000
00000000
00000000
00000000
00010000
00000000
00000000
00010000
00000000
00000000
00000000
00001000
00000000
00000000
00001000
00000000
,
00000000
00000000
00000000
00000000
00100000
00000000
00000000
00100000
00000000
00000000
00000000
01000000
00000000
00000000
01000000
00000000
,
00000000
00000000
00000000
00000000
00100000
00000000
00000000
00100000
00000000
00000000
00000000
20000000
00000000
00000000
00000000
00000000
,
00000000
30000000
00010000
00000000
01000000
00000000
00100000
01000000
,
00100000
00000000
10000000
00000000
00001000
01000000
00001000
00000000
,
00010000
00000000
00000100
00000000
00000010
00000100
00000010
00000000
,
00000100
00010000
00000001
00000200
,
00000000
00000310
00000100
00000010
,
00010000
00000100
00010000
00000000
00001000
00000000
00100000
00000000
,
01000000
00100000
01000000
00000000
00100000
00000000
00001000
00000000
,
10000000
00200000
00000000
00000000
,
00300000
00000000
10000000
00000000
00000000
01000000
00000000
00000000
,
10000000
00000000
00000000
01000000
00000000
00000000
10000000
00000000
,
00000000
00000000
00001000
00000000
00000000
01000000
00000000
00000000
,
00001000
00000000
00000000
01000000
00000000
00000000
00001000
00000000
,
00000000
00000000
00010000
00000000
00000000
00000100
00000000
00000000
,
00000000
00000010
00000000
00000000
00000000
00000000
00000000
00000000
,
00000000
00000000
00000100
00000000
00000000
00000001
00000000
00000000
,
00000000
00000010
00000000
00000000
00000000
00000000
00000000
00000000
,
00000000
00000000
00000100
00010000
00000100
00010000
00000100
00010000
,
00000100
00011000
00000000
00000000
,
00000000
00000000
01000000
00100000
01000000
00100000
01000000
00100000
,
01000000
10100000
00000000
00000000
,
00000000
00000000
00001000
00100000
00001000
00100000
00001000
00100000
,
00001000
00022000
00000000
00000000
,
00033000
00000000
00000010
00000100
00000010
00000100
00000010
00000100
,
00000010
00000220
00000000
00000000
,
00000330
00002002
00000000
00000000
,
00000000
00000000
00000000
00000000
,
00000000
00000000
00000000
00000000
,
00000000
00000000
00000000
00000000
,
00000000
00000000
00000000
00000000
,
00000000
00000000
00000000
00000000
,
00000000
00000000
00000000
00000000
,
00000000
00000000
00000000
00000000
,
00000000
00003003
00000000
00000000
;

//---------------dance-double - ----------------
#NOTES:
     dance-double:
     :
     Hard:
     13:
     0.660,0.878,0.231,0.112,0.082:
10000000
00010000
10000000
00010000
10000000
00010000
10000000
00010000
,
10000000
10000000
00100000
00100000
,
01000000
00000000
00001000
00010000
00000000
00000000
00000000
00000000
,
00000000
00000000
00000000
00000000
,
00000000
00000000
00000000
00000000
,
00000110
00000100
00000001
00000001
,
00000010
00000000
00000100
00000010
00000000
00000000
00000000
00000000
,
00000000
00000000
00000000
00000000
,
00010000
00001000
00010000
00000000
00001000
00010000
00001000
00010000
,
00001000
01000000
00100000
01000000
,
00001000
00000000
00100000
01000000
00000000
00000000
00000000
00000000
,
10000000
01000000
00100000
00001000
,
00010000
00000000
00000010
00010000
00000000
00000000
00000000
00000000
,
00000100
00000010
00000001
00001000
,
00000100
00000010
00000001
00001000
,
00000100
00010000
00001000
00100000
,
01000000
10000000
01000000
00000000
10000000
00010000
10000000
00000000
,
00010000
00100000
01000000
00000000
10000000
00000000
10000000
00000000
,
00100000
01000000
00001000
00000000
00010000
00000000
00011000
00000000
,
00000100
00000010
00000001
00000000
00000100
00000000
00000100
00000000
,
00000001
00000100
00000010
00000000
00010000
00000000
00001000
00000000
,
00100000
01000000
10000000
00000000
00100000
00000000
00100000
00000000
,
10000000
00010000
00100000
00000000
01000000
00000000
10000000
00000000
,
00010000
01000000
00100000
00000000
01000000
00000000
00001000
00000000
,
00010000
00001000
00010000
00000000
00000010
00010000
00000010
00010000
,
00000010
00000100
00000001
00000000
00001000
00000000
00000001
00000000
,
00000010
00000100
00001000
00000000
00010000
00000000
00011000
00000000
,
00100000
01000000
10000000
00000000
00010000
00000000
00010000
00000000
,
01000000
00010000
10000000
00000000
01000000
00000000
00100000
00000000
,
00001000
00010000
00000010
00000000
00000100
00000000
00000100
00000000
,
00000001
00001000
00000010
00000000
00000100
00000000
00000100
00000000
,
00010000
00001000
00010000
00001000
00010000
00001000
00010000
00001000
,
00020000
00000000
00030000
00000000
,
00011000
00000000
00000000
00000000
00001000
01000000
00000000
02000000
00000000
00000000
03100000
00000000
10000000
01000000
10000000
01000000
,
10000000
00000000
00000000
00000000
00100000
01000000
00000000
02000000
00000000
00000000
03010000
00000000
00100000
00000000
01000000
00000000
,
10000000
00000000
00000000
00000000
00100000
01000000
00000000
02000000
00000000
00000000
03001000
00000000
00010000
00001000
00010000
00001000
,
00010000
00000000
00000000
00000000
00000010
00000100
00000000
00000200
00000000
00000000
00000000
00000000
00000001
00000000
00000301
00000000
,
00001001
00000000
00001000
00000000
00000001
00000100
00000000
00000002
,
00000000
00000000
00001003
00000000
00000001
00000010
00000001
00000010
,
00000100
00000000
00010000
00000000
00001000
00100000
00000000
02000000
,
00000000
03100000
00010000
01000000
,
10010000
00000000
00010000
00000000
00100000
01000000
00000000
20000000
,
00000000
00000000
30100000
00000000
01000000
00010000
01000000
00010000
,
10000000
00000000
01000000
00000000
00100000
01000000
00000000
10000000
,
00001000
01000000
00001000
01000000
00001000
01000000
00001000
01000000
,
00001000
00000000
00010000
00000000
00000100
00000010
00000001
00000100
,
00000000
00000001
00000100
00000000
00000001
00000000
00000100
00000010
,
00000000
00000100
00000010
00000000
00010000
00000000
00001000
00100000
,
00000000
00001000
00100000
00000000
01000000
00100000
01000000
00000000
,
10000000
00100000
10000000
00000000
00010000
00100000
01000000
10000000
,
00000000
01000000
10000000
00000000
00010000
00000000
01000000
00001000
,
00000000
01000000
00001000
00000000
00010000
00000000
00000010
00000100
,
00000001
00000010
00000001
00000010
00000001
00000010
00000001
00000000
,
00001001
00000000
00001001
00000000
00001000
00000001
00000010
00000100
,
00000000
00000010
00000100
00000000
00010000
00001000
01000000
00010000
,
00000000
01000000
00010000
00000000
10000000
01000000
00100000
00010000
,
00000000
00100000
00010000
00000000
01000000
00100000
10000000
00000000
,
10010000
00000000
10010000
00000000
00010000
10000000
01000000
00100000
,
00000000
01000000
00100000
00000000
00001000
00010000
00000100
00000010
,
00000001
00000100
00000001
00000100
00000001
00000100
00000001
00000100
,
00000002
00000000
00000000
00000003
,
00000101
00000000
00000000
00000100
00000000
00000000
00000101
00000000
,
00000000
00000100
00000000
00000000
00000101
00000000
00000000
00000100
,
00000000
00000000
00010010
00000000
00000000
00010000
00000000
00000000
,
00010010
00000000
00000000
00010000
00000000
00000000
00010010
00000000
,
00000000
00010000
00000000
00000000
01100000
00000000
00000000
00100000
,
00000000
00000000
01100000
00000000
00000000
00100000
00000000
00000000
,
01100000
00000000
00000000
00100000
00000000
00000000
10010000
00000000
,
00000000
10000000
00000000
00000000
10010000
00000000
00000000
10000000
,
00000000
00000000
10010000
00000000
00000000
10000000
00000000
00000000
,
01001000
00000000
00000000
01000000
00000000
00000000
01001000
00000000
,
00000000
01000000
00000000
00000000
01001000
00000000
00000000
01000000
,
00000000
00000000
01001000
00000000
00000000
01000000
00000000
00000000
,
00100000
01000000
00001000
00010000
00000000
00000000
00001000
00010000
,
00000010
00000100
00000000
00000000
00000010
00000100
00000001
00000010
,
00000000
00000000
00000001
00000010
00000100
00001000
00000000
00000000
,
00010000
00100000
01000000
10000000
00000000
00000000
01000000
00100000
,
00010000
10000000
00000000
00000000
00100000
10000000
00010000
00100000
,
00000000
00000000
00001000
00010000
00000100
00000010
00000000
00000000
,
00000001
00001000
00000100
00000010
00000000
00000000
00000001
00000100
,
00000010
00010000
00000000
00000000
00001000
01000000
00100000
10000000
,
00000000
00000000
01000000
00100000
00010000
01000000
00000000
00000000
,
00100000
10000000
01000000
00100000
00000000
00000000
00001000
00010000
,
00000010
00000100
00000000
00000000
00000001
00001000
00000100
00000010
,
00000000
00000000
00000001
00001000
00000001
00001000
00000001
00001000
,
00000001
00001000
00000001
00001000
00000001
00001000
00000001
00001000
,
00000001
00001000
00000001
00001000
00000001
00001000
00000001
00001000
,
00000001
00001000
00000001
00001000
00000001
00001000
00000001
00001000
,
00000001
00000000
00000000
00000000
00000100
00000000
00000000
00000010
00000000
00000000
00000000
00010000
00000000
00000000
00001000
00000000
,
00000000
00000000
00000000
00000000
00100000
00000000
00000000
01000000
00000000
00000000
00000000
10000000
00000000
00000000
00100000
00000000
,
00000000
00000000
00000000
00000000
01000000
00000000
00000000
00010000
00000000
00000000
00000000
00100000
00000000
00000000
01000000
00000000
,
00000000
00000000
00000000
00000000
00100000
00000000
00000000
00001000
00000000
00000000
00000000
00020000
00000000
00000000
00000000
00000000
,
00031000
00010000
00001000
00010000
00001000
00000000
00000000
00000000
00011000
00000000
00000000
00000000
00010000
00000000
00000010
00000000
,
00010000
00000010
00000100
00000000
00000100
00000001
00000010
00000000
,
00000100
00000000
00010100
00000000
00001000
01000000
00001000
01000000
,
00100000
10000000
01000000
00000000
01000000
00100000
00010000
10000000
,
00000000
00100000
01000000
00000000
01100000
00000000
00001000
00010000
,
00001000
00010000
00000010
00000000
00000010
00000100
00000001
00000000
,
00000010
00000100
00000000
00000010
00000100
00010000
00001000
00100000
,
01000000
10000000
02000000
00000000
00000000
00000000
00000000
00000000
,
03000000
00000000
10000000
00100000
00000000
10000000
00100000
00000000
,
10000000
00100000
00000000
10000000
00100000
00000000
10000000
00100000
,
00000000
00000000
10000000
00001000
00000000
10000000
00001000
00000000
,
10000000
00001000
00000000
10000000
00001000
00000000
10000000
00001000
,
00000000
00000000
00010000
00000010
00000000
00000010
00000000
00000000
,
00000100
00000001
00000000
00000000
00000010
00000100
00000000
00000100
,
00000000
00000000
00001000
00010000
00100000
01000000
00000000
01000000
,
00000000
10000000
00010000
01000000
00010000
10000000
00010000
01000000
,
00010000
00000000
00100000
01000000
10000000
01000000
00100000
01000000
,
10000000
01000000
00200000
00000000
00000000
00000000
00000000
00000000
,
00300000
00000000
00001000
00010000
00000100
00010000
00001000
00010000
,
00000100
00010000
00002000
00000000
00000000
00000000
00000000
00000000
,
00003000
00000000
00010000
00000001
00000010
00000100
00000010
00000001
,
00000010
00000100
00010000
00000010
00010000
00000100
00010000
00000010
,
00010000
00000000
00001000
00100000
01000000
00100000
00001000
10000000
,
00100000
10000000
00001000
00000000
00010000
00000000
00011000
00000000
,
00000000
00000202
00000000
00000000
,
00000000
00000000
00000000
00000000
,
00000000
00000000
00000000
00000000
,
00000000
00000000
00000000
00000000
,
00000000
00000000
00000000
00000000
,
00000000
00000000
00000000
00000000
,
00000000
00000000
00000000
00000000
,
00000000
00000000
00000000
00000000
,
00000000
00000303
00000000
00000000
;

//---------------dance-double - ----------------
#NOTES:
     dance-double:
     :
     Challenge:
     15:
     0.786,1.000,0.424,0.104,0.097:
10000000
00010000
10000000
00010000
10000000
00010000
10000000
00010000
,
10000000
00000000
01000000
00000000
00100000
00010000
00100000
00000000
,
00001000
00000000
00010000
00000100
00000000
00000000
00000000
00000000
,
00002000
00000000
00000000
00000000
00000000
00000000
00000000
00003001
,
00000000
00000100
00000000
00000000
00000000
00000010
00000000
00000000
,
00001000
00000000
00000001
00000000
00000010
00000100
00000010
00000000
,
00000001
00000000
00000100
00000010
00000000
00000000
00010000
00000000
,
00002000
00000000
00000000
00000000
00000000
00103000
00000000
00000000
,
01000000
10000000
01000000
00000000
10000000
00100000
01000000
00100000
,
10000000
00000000
01000000
00000000
00100000
00001000
00100000
00000000
,
00001000
00000000
00010000
00000100
00000000
00000000
00000000
00000000
,
00000010
00000000
00000001
00000000
00000100
00000010
00000100
00000000
,
00000010
00000000
00010000
00001000
00000000
00000000
00000000
00000000
,
00100000
00000000
01000000
00000000
10000000
00100000
10000000
00000000
,
01000000
00000000
00100000
00000000
00001000
00010000
00001000
00000000
,
00010000
00000010
00010000
00000000
00000010
00000100
00000010
00000000
,
00001000
00000001
00001000
00000001
00000010
00000001
00000010
00000001
,
00000100
00000010
00010000
00001000
00100000
00000000
00100000
00000000
,
01000000
10000000
00100000
01000000
00001000
00000000
00001000
00000000
,
00010000
00000100
00000010
00000001
00000100
00000000
00000100
00000000
,
00000001
00001000
00000100
00010000
00001000
00000000
00001000
00000000
,
00100000
01000000
10000000
01000000
00100000
00000000
00100000
00000000
,
00001000
00010000
00000010
00000100
00000001
00000000
00000001
00000000
,
00000010
00000001
00000100
00000010
00010000
00000000
00010000
00000000
,
00001000
00100000
01000000
10000000
00010000
00100000
10000000
00100000
,
00010000
10000000
01000000
00100000
00001000
00000000
00001000
00000000
,
00010000
00000010
00000100
00000001
00000100
00000000
00000110
00000000
,
00000010
00000001
00000010
00000100
00010000
00000000
00010000
00000000
,
00001000
01000000
00100000
10000000
00010000
00000000
00010000
00000000
,
10000000
01000000
00100000
00001000
00010000
00000000
00010000
00000000
,
00000100
00000010
00000001
00000010
00000100
00000000
00000100
00000000
,
00010000
00001000
00010000
00001000
00100000
01000000
00100000
01000000
,
20000000
00000000
30000000
00000000
,
00100000
00000000
00100000
00000000
10000000
01000000
00000000
01100000
00000000
00000000
01100000
00000000
10000000
01000000
00100000
00001000
,
00010000
00000000
00010000
00000000
00000010
00000100
00000000
00000110
00000000
00000000
00000110
00000000
00000010
00000000
00000001
00000000
,
00000010
00000000
00000010
00000000
00000100
00010000
00000000
00011000
00000000
00000000
00011000
00000000
00100000
01000000
10000000
01000000
,
00100000
00000000
00100000
00000000
10000000
00001000
00000000
00011000
00000000
00000000
00000000
00000000
00010000
00000000
00010000
00000000
,
00000100
00000010
00000001
00000000
00000100
00000001
00000000
00000010
,
00000100
00000000
00000100
00000000
00010000
00001000
01000000
10000000
,
01000000
00001000
00010000
00000000
00000010
00000100
00000000
00000001
,
00000010
00000000
00000010
00000000
00000100
00010000
00001000
00000000
,
00100000
00010000
10000000
00000000
01000000
00100000
00000000
00010000
,
01000000
00000000
01000000
00000000
00010000
00100000
10000000
00100000
,
00001000
00010000
00000100
00000000
00000010
00000001
00000000
00000010
,
00000100
00001000
00000100
00001000
00000010
00000100
00000010
00010000
,
00001000
00000000
00011000
00000000
00010000
01000000
10000000
01000000
,
00000000
00001000
00010000
00000100
00001000
00000000
00000010
00000100
,
00000000
00000001
00000010
00000000
00000100
00000000
00010000
00001000
,
00000000
00100000
01000000
00000000
10000000
01000000
00100000
00000000
,
00010000
00100000
10000000
00100000
00001000
00010000
00000010
00000100
,
00000000
00000001
00000010
00000000
00000100
00000000
00000010
00000001
,
00000000
00000100
00000010
00000000
00010000
00000000
00001000
00010000
,
00001000
00100000
01000000
00100000
00001000
10000000
01000000
00000000
,
00100000
00010000
10000000
01000000
00010000
01000000
10000000
00001000
,
00000000
00010000
00000010
00000100
00000010
00000000
00000100
00000001
,
00000000
00000010
00000100
00000000
00010000
00001000
00100000
01000000
,
00000000
10000000
00100000
00000000
01000000
00100000
01000000
00000000
,
00001000
00010000
00000100
00000010
00000100
00010000
00000010
00000100
,
00000000
00000001
00000010
00000000
00000100
00000000
00000100
00010000
,
00001000
00100000
10000000
00100000
00001000
00010000
00000100
00000010
,
00000200
00000000
00000000
00000300
,
00001010
00000000
00000000
00001001
00000000
00000000
00010010
00000000
,
00000000
00011000
00000000
00000000
01001000
00000000
00000000
01100000
,
00000000
00000000
11000000
00000000
00000000
01100000
00000000
00000000
,
00110000
00000000
00000000
10010000
00000000
00000000
10100000
00000000
,
00000000
01001000
00000000
00000000
00011000
00000000
00000000
00010010
,
00000000
00000000
00000110
00000000
00000000
00001001
00000000
00000000
,
00000011
00000000
00000000
00010010
00000000
00000000
00011000
00000000
,
00000000
01001000
00000000
00000000
01100000
00000000
00000000
11000000
,
00000000
00000000
00110000
00000000
00000000
10001000
00000000
00000000
,
01001000
00000000
00000000
00011000
00000000
00000000
00010010
00000000
,
00000000
00000110
00000000
00000000
00000101
00000000
00000000
00010001
,
00000000
00000000
00010100
00000000
00000000
00011000
00000000
00000000
,
00001000
01000000
00100000
10100000
00000000
00000000
10000000
01000000
,
00100000
00101000
00000000
00000000
00010000
00000010
00000100
00000101
,
00000000
00000000
00000100
00000010
00000001
00001001
00000000
00000000
,
00000010
00010000
00001000
01001000
00000000
00000000
00100000
01000000
,
10000000
10010000
00000000
00000000
00100000
01000000
00001000
00011000
,
00000000
00000000
00010000
00000010
00000100
00000101
00000000
00000000
,
00000010
00000100
00010000
00101000
00000000
00000000
00100000
01000000
,
10000000
01001000
00000000
00000000
00010000
00000100
00000010
00000101
,
00000000
00000000
00000100
00000010
00010000
00101000
00000000
00000000
,
00010000
00100000
01000000
10100000
00000000
00000000
00100000
01000000
,
00001000
00010010
00000000
00000000
00000100
00000010
00000001
00001010
,
00000000
00000000
00000100
00000010
00000100
00000010
00010000
00001000
,
00010000
00001000
01000000
00100000
01000000
00100000
10000000
01000000
,
10000000
01000000
00100000
00001000
00100000
00001000
00010000
00000010
,
00010000
00000010
00000100
00000001
00000100
00000001
00000010
00000100
,
00010000
00000000
00001000
00000000
02000000
00000000
00000000
00000000
03100000
10000000
00000000
20000000
00000000
00000000
30000000
00000000
,
00001000
00100000
01000000
00100000
00001000
00000000
00000000
00000000
00010000
00000010
00000000
00000020
00000000
00000000
00000030
00000000
,
00000100
00000000
00000010
00000000
00000100
00000000
00000000
00000000
00000001
00001000
00000000
00002000
00000000
00000000
00003000
00000000
,
00000100
00000010
00000001
00000010
00000100
00000000
00000000
00000000
00010000
00001000
00000000
00002000
00000000
00000000
00003000
00000000
,
01000000
00100000
01000000
00100000
01000000
00000000
00100000
00000000
10000000
00000000
00000000
00000000
00010000
00000000
01000000
00000000
,
10000000
01000000
00001000
00000000
00001000
00010000
00000100
00000000
,
00000100
00000010
00000001
00000000
00001000
00000010
00000001
00000010
,
00010000
00001000
00100000
00000000
00100000
01000000
10000000
00010000
,
00000000
00010000
01000000
00100000
01000000
00000000
00010000
00100000
,
10000000
00100000
00001000
00000000
00001000
00010000
00000100
00000010
,
00000001
00000100
00000010
00000100
00000001
00000010
00000100
00010000
,
00001000
01000000
00200000
00000000
00000000
00000000
00000000
00000000
,
00300000
00000000
10000000
01000000
10000000
00010000
10000000
01000000
,
10000000
00010000
10000000
01000000
10000000
00010000
00100000
01000000
,
00100000
00000000
00001000
00010000
00000010
00000100
00000010
00010000
,
00000010
00000100
00000010
00010000
00000010
00000100
00000010
00010000
,
00000100
00000000
00000010
00000001
00000000
00000001
00000000
00000010
,
00000100
00001000
00000000
00010000
01000000
00100000
00000000
00100000
,
00000000
10000000
00100000
01000000
00010000
10000000
00000000
10000000
,
00000000
01000000
00100000
00001000
00010000
00000100
00000010
00000001
,
00000100
00000000
00000001
00000100
00000010
00000100
00000001
00000010
,
00000100
00010000
00001000
01000000
00100000
01000000
00001000
00000000
,
10000000
01000000
00100000
01000000
10000000
00010000
01000000
00001000
,
00010000
00000100
00000010
00000100
00010000
00000001
00000100
00000000
,
00000010
00001000
00000100
00000010
00000100
00010000
00001000
01000000
,
00100000
01000000
00001000
00100000
01000000
10000000
01000000
00100000
,
00001000
00010000
00000010
00000100
00000010
00010000
00000100
00000001
,
00000100
00010000
00001000
01000000
10000000
01000000
00002000
00020000
,
00033000
00020200
00000000
00000000
,
00000000
00000000
00000000
00000000
,
00000000
00000000
00000000
00000000
,
00000000
00000000
00000000
00000000
,
00000000
00000000
00000000
00000000
,
00000000
00000000
00000000
00000000
,
00000000
00000000
00000000
00000000
,
00000000
00000000
00000000
00000000
,
00000000
00030300
00000000
00000000
;

//---------------dance-single - ----------------
#NOTES:
     dance-single:
     :
     Beginner:
     3:
     0.112,0.173,0.045,0.000,0.000: // measure 1
0000
0000
0000
0000
,  // measure 2
1001
0000
0000
0000
,  // measure 3
0000
0000
0000
0000
,  // measure 4
0000
0000
0000
0000
,  // measure 5
0000
0000
0000
0000
,  // measure 6
1000
0000
0000
0000
,  // measure 7
0000
0000
0000
0000
,  // measure 8
0000
0000
0000
0000
,  // measure 9
0000
0000
0000
0000
,  // measure 10
1000
0000
0000
0000
,  // measure 11
0000
0000
0000
0000
,  // measure 12
0001
0000
0000
0000
,  // measure 13
0000
0000
0000
0000
,  // measure 14
1000
0000
0000
0000
,  // measure 15
0001
0000
0000
0000
,  // measure 16
1000
0000
0000
0000
,  // measure 17
0000
0000
0000
0000
,  // measure 18
0010
0000
0000
0000
,  // measure 19
0000
0000
0000
0000
,  // measure 20
0100
0000
0000
0000
,  // measure 21
0000
0000
0000
0000
,  // measure 22
0001
0000
0000
0000
,  // measure 23
0000
0000
0000
0000
,  // measure 24
0100
0000
0000
0000
,  // measure 25
0000
0000
0000
0000
,  // measure 26
0010
0000
0000
0000
,  // measure 27
0010
0000
0000
0000
,  // measure 28
0010
0000
0000
0000
,  // measure 29
0010
0000
0000
0000
,  // measure 30
1000
0000
0000
0000
,  // measure 31
1000
0000
0000
0000
,  // measure 32
1000
0000
0000
0000
,  // measure 33
0000
0000
0000
0000
,  // measure 34
1001
0000
0000
0000
,  // measure 35
0010
0000
0000
0000
,  // measure 36
0100
0000
0000
0000
,  // measure 37
0010
0000
0000
0000
,  // measure 38
0001
0000
0000
0000
,  // measure 39
1000
0000
0000
0000
,  // measure 40
0001
0000
0000
0000
,  // measure 41
1000
0000
0000
0000
,  // measure 42
0100
0000
0000
0000
,  // measure 43
1000
0000
0000
0000
,  // measure 44
0010
0000
0000
0000
,  // measure 45
0100
0000
0000
0000
,  // measure 46
1001
0000
0000
0000
,  // measure 47
0001
0000
0000
0000
,  // measure 48
0010
0000
0000
0000
,  // measure 49
0100
0000
0000
0000
,  // measure 50
0010
0000
0000
0000
,  // measure 51
0001
0000
0000
0000
,  // measure 52
1000
0000
0000
0000
,  // measure 53
0010
0000
0000
0000
,  // measure 54
0110
0000
0000
0000
,  // measure 55
0100
0000
0000
0000
,  // measure 56
0010
0000
0000
0000
,  // measure 57
0100
0000
0000
0000
,  // measure 58
0001
0000
0000
0000
,  // measure 59
1000
0000
0000
0000
,  // measure 60
0001
0000
0000
0000
,  // measure 61
1000
0000
0000
0000
,  // measure 62
0100
0000
0000
0000
,  // measure 63
0000
0000
0000
0000
,  // measure 64
0000
0000
0000
0000
,  // measure 65
0010
0000
0000
0000
,  // measure 66
0000
0000
0000
0000
,  // measure 67
0000
0000
0000
0000
,  // measure 68
0001
0000
0000
0000
,  // measure 69
0000
0000
0000
0000
,  // measure 70
0000
0000
0000
0000
,  // measure 71
0010
0000
0000
0000
,  // measure 72
0000
0000
0000
0000
,  // measure 73
0000
0000
0000
0000
,  // measure 74
0100
0000
0000
0000
,  // measure 75
0000
0000
0000
0000
,  // measure 76
0000
0000
0000
0000
,  // measure 77
1000
0000
0000
0000
,  // measure 78
0000
0000
0000
0000
,  // measure 79
0000
0000
0000
0000
,  // measure 80
0010
0000
0000
0000
,  // measure 81
0000
0000
0000
0000
,  // measure 82
0000
0000
0000
0000
,  // measure 83
0100
0000
0000
0000
,  // measure 84
0000
0000
0000
0000
,  // measure 85
0000
0000
0001
0000
,  // measure 86
0000
0000
0000
0000
,  // measure 87
0000
0000
0000
0000
,  // measure 88
0000
0000
0000
0000
,  // measure 89
0000
1001
0000
0000
,  // measure 90
0000
1000
0000
0000
,  // measure 91
0000
0001
0000
0000
,  // measure 92
0000
1000
0000
0000
,  // measure 93
0000
0010
0000
0000
,  // measure 94
0000
0010
0000
0100
,  // measure 95
0000
0010
0000
0000
,  // measure 96
0000
1000
0000
0001
,  // measure 97
0000
1000
0000
0000
,  // measure 98
0000
0001
0000
1000
,  // measure 99
0000
0001
0000
0000
,  // measure 100
0000
1000
0000
0000
,  // measure 101
0000
0010
0000
0010
,  // measure 102
0000
0010
0000
0010
,  // measure 103
0000
0010
0000
0010
,  // measure 104
0000
0010
0000
0010
,  // measure 105
0000
0010
0000
0010
,  // measure 106
0000
0000
0000
0000
,  // measure 107
0000
0100
0000
0100
,  // measure 108
0000
0100
0000
0000
,  // measure 109
0000
0001
0000
0001
,  // measure 110
0000
0001
0000
0001
,  // measure 111
0000
1000
0000
1000
,  // measure 112
0000
1000
0000
1000
,  // measure 113
0000
0001
0000
0001
,  // measure 114
0000
0100
0000
0100
,  // measure 115
0000
0010
0000
1000
,  // measure 116
0000
0010
0000
0000
,  // measure 117
0000
1001
0000
0000
;
