#TITLE:Foundation day;
#SUBTITLE:;
#ARTIST:mrSimon;
#TITLETRANSLIT:;
#SUBTITLETRANSLIT:;
#ARTISTTRANSLIT:;
#CREDIT:DigiMindAxel;
#BANNER:Foundation day.png;
#BACKGROUND:Foundation day-bg.png;
#LYRICSPATH:Foundation day.lrc;
#CDTITLE:DigiMindAxel original simfile.png;
#MUSIC:Foundation day.ogg;
#METERTYPE:DDR X;
#OFFSET:-11.831;
#SAMPLESTART:23.214;
#SAMPLELENGTH:12.000;
#SELECTABLE:YES;
#BPMS:0.000=168.000;
#STOPS:;
#BGCHANGES:;

//---------------dance-single - ----------------
#NOTES:
     dance-single:
     :
     Easy:
     5:
     0.258,0.276,0.084,0.126,0.000:
1000
0000
0001
0000
,
0000
1000
0100
0000
,
1000
0000
0001
0000
,
0000
1000
0100
0000
,
0010
0000
0001
0000
,
0000
0100
0010
0000
,
0100
0000
0001
0000
,
2002
0000
3003
0000
,
0001
1000
0001
1000
,
0001
1000
0100
0000
,
0010
0001
0010
0001
,
0010
0001
0100
0000
,
0010
0100
0010
0100
,
0010
0100
0001
0000
,
1000
0001
1000
0001
,
1000
0001
0010
0000
,
1001
0000
1000
0000
,
1000
0000
1000
0000
,
0001
0000
0001
0000
,
0001
0000
0001
0000
,
0010
0000
0100
0000
,
0010
0000
0100
0000
,
1000
0000
0010
0000
,
1000
0000
0001
0000
,
1001
0000
1000
0000
,
0001
1000
0001
0000
,
1001
0000
0001
0000
,
1000
0100
1000
0000
,
0010
0100
0010
0000
,
0100
0010
0100
0000
,
0001
1000
0100
0010
,
0001
1000
0001
0000
,
1001
0000
1000
0000
,
0001
0010
0100
0000
,
1001
0000
0001
0000
,
1000
0100
0010
0000
,
0001
0100
0001
0100
,
0001
1000
0001
1000
,
0100
0010
0100
0010
,
0002
0000
0000
0000
,
1003
0000
0000
0000
,
0001
0100
0010
0000
,
2001
0000
0000
0000
,
3001
1000
0100
0000
,
1002
0000
0000
0000
,
0013
0100
1000
0000
,
2001
0000
0000
0000
,
3010
0100
0001
0000
,
2002
0000
0000
0000
,
0000
0000
0000
3003
,
0001
1000
0001
1000
,
0100
1000
0100
1000
,
0001
0010
0100
1000
,
0001
0010
0100
0000
,
0010
0001
0010
0001
,
1000
0010
1000
0010
,
1000
0100
0010
0001
,
1000
0100
0010
0000
,
0001
0100
0001
0100
,
0001
1000
0001
1000
,
0001
0100
0010
1000
,
0001
0100
0010
0000
,
1000
0001
1000
0001
,
0100
0010
0100
0010
,
1000
0100
0010
0001
,
1000
0100
0010
0001
,
2000
0000
0000
0000
,
3200
0000
0000
0000
,
2300
0000
0000
0000
,
3020
0000
0000
0000
,
0230
0000
0000
0000
,
0302
0000
0000
0000
,
2003
0000
0000
0000
,
3000
0000
0000
0000
;

//---------------dance-single - ----------------
#NOTES:
     dance-single:
     :
     Medium:
     8:
     0.452,0.490,0.512,0.252,0.000:
1000
0000
1001
0000
,
0000
0100
1100
0000
,
0010
0000
0000
0000
0110
0000
0000
0100
,
0000
0001
0101
0000
,
0001
0000
0000
0100
0110
0000
0000
0000
,
0000
1000
1100
0000
,
0010
0110
0010
0110
,
2002
0000
3003
0000
1000
0001
0100
0001
,
1000
0100
0010
0000
0100
0010
0001
0000
,
1000
0100
0010
0000
0001
0000
0100
0000
,
0010
1000
0100
0000
0010
0001
0100
0000
,
0010
1000
0100
0000
0010
0000
0001
0000
,
1000
0100
0010
0000
0100
0010
0001
0000
,
1000
0100
0010
0000
0001
0000
1000
0000
,
0001
0100
0001
0000
1000
0100
1000
0000
,
0001
1000
0001
0000
1000
0100
1000
0000
,
1002
0000
0103
0000
,
0110
0010
0110
0000
,
1010
0000
1001
0000
,
0021
0000
0031
0000
,
1001
0000
1100
0000
,
0011
0000
1001
0000
,
0120
0000
0130
0000
,
0010
1000
0001
0000
,
2001
0000
3100
0000
,
1001
0000
0101
0000
,
1100
0000
1002
0000
,
0013
0000
1001
0000
,
1200
0000
1300
0010
,
0100
0001
0010
0000
,
1002
0000
0013
0100
,
1000
0010
0100
0000
,
1001
0001
1001
0100
,
1100
1000
1001
0001
,
0011
0010
0110
0100
,
1001
1000
1010
0000
,
0010
0100
0010
0100
0001
0000
1001
0000
,
1000
0100
1000
0100
0010
0000
0110
0000
,
0100
0010
0001
1000
0200
0000
2300
0000
,
3001
0100
0010
0000
0100
0010
1000
0000
,
1001
0000
0000
1001
0000
0000
1001
0000
,
1020
0000
0000
0100
0130
0000
0000
0000
,
1001
0000
0000
1001
0000
0000
1001
0000
,
0021
0000
0000
0100
0130
0000
0000
0000
,
1001
0000
0000
1001
0000
0000
1001
0000
,
0102
0000
0000
1000
1003
0000
0000
0000
,
1001
0000
0000
1001
0000
0000
1001
0000
,
2100
0000
0000
0001
3001
0000
0000
0000
,
0200
0000
0000
0000
,
0000
0000
0000
0000
0301
1000
0100
1000
,
0001
0010
0100
0000
0010
0100
1000
0000
,
0001
0010
0100
0000
0010
0001
1000
0000
,
0010
1000
0010
1000
0001
0010
0001
0010
,
0100
1000
0100
1000
0001
0100
0001
0000
,
1000
0010
0100
0000
0010
0100
0001
0000
,
0010
0100
1000
0000
0001
0010
0100
0000
,
1000
0001
1000
0001
0100
0001
0100
0001
,
1000
0100
1000
0100
0010
0001
0010
0000
,
0001
1000
0100
0000
0010
0001
1000
0000
,
0010
0100
0001
0000
0100
0010
1000
0000
,
0100
0010
0100
0010
0001
0100
0001
0100
,
0010
1000
0010
1000
0100
0010
0100
0000
,
1000
0001
0100
0000
0010
1000
0001
0000
,
0010
0100
1000
0001
0010
0000
0010
0000
,
0001
1000
0100
0000
0010
0100
1000
0000
,
0001
1000
0010
0000
1000
0010
0100
0000
,
2002
0000
0000
3003
,
0022
0000
0000
0033
,
0220
0000
0000
0330
,
2200
0000
0000
3300
,
2002
0000
0000
3003
,
2020
0000
0000
3030
,
0202
0000
0000
0000
,
0303
0000
0000
0000
;

//---------------dance-single - ----------------
#NOTES:
     dance-single:
     :
     Hard:
     12:
     0.604,0.674,0.504,0.420,0.214: // measure 1
1020
0000
0130
0000
,  // measure 2
0000
0110
1001
0000
,  // measure 3
0021
0000
0000
0000
0031
0000
0000
0011
,  // measure 4
0000
0110
1001
0000
,  // measure 5
1020
0000
0000
0100
0130
0000
0000
0000
,  // measure 6
0000
0110
1001
0000
,  // measure 7
0001
1000
0100
0000
0010
0001
1000
0000
,  // measure 8
2002
0000
0000
0000
3003
0000
0000
0000
0001
0000
1000
0010
1000
0000
0001
0100
,  // measure 9
0001
1000
0100
1000
0001
1000
0100
1000
,  // measure 10
0001
0000
1000
0000
0100
0000
1000
0000
0001
0000
0000
0100
0000
0000
0010
0000
,  // measure 11
1000
0001
0010
0001
1000
0001
0010
0001
,  // measure 12
1000
0000
0001
0000
0010
0000
0001
0000
1000
0000
0000
0010
0000
0000
0100
0000
,  // measure 13
0001
1000
0010
0001
0010
1000
0010
0001
,  // measure 14
0010
0000
1000
0000
0010
0000
0001
0000
0010
0000
0000
1000
0000
0000
0001
0000
,  // measure 15
1000
0001
0100
1000
0100
0001
0100
1000
,  // measure 16
0100
0000
0001
0000
1000
0000
0010
0000
0100
0000
0000
0001
0000
0000
1000
0000
,  // measure 17
2200
3300
0022
0033
,  // measure 18
1001
0001
0202
0303
,  // measure 19
2002
0000
0000
0000
3003
0000
0000
0000
1000
0000
0000
0010
0000
0000
0100
0000
,  // measure 20
0202
0303
2020
3030
,  // measure 21
2002
0000
3003
0001
0100
0000
0100
0000
,  // measure 22
0220
0330
2002
3003
,  // measure 23
1100
0000
1000
0000
1010
0000
0010
0100
,  // measure 24
0000
0001
1000
0000
2002
0000
3003
0000
,  // measure 25
1020
0000
0130
0000
,  // measure 26
0001
0000
0000
0100
0000
0000
0001
0000
2000
0000
0000
0000
3000
0000
0000
0000
,  // measure 27
2002
0000
0000
0000
3003
0000
0000
0000
1000
0000
0000
0001
0000
0000
0100
0000
,  // measure 28
0002
0000
1003
0000
,  // measure 29
2001
0000
0000
0000
3100
1000
0001
0000
,  // measure 30
0101
0100
0110
0000
,  // measure 31
1100
0000
0100
0000
0100
0000
0100
0010
,  // measure 32
0000
0001
0010
0100
1000
0000
1000
0000
,  // measure 33
1010
0000
0000
0000
0010
0000
0100
0000
0001
0000
0000
0010
0000
0000
0100
0000
,  // measure 34
1100
0000
0000
0000
1000
0000
0001
0000
0100
0000
0000
0001
0000
0000
0010
0000
,  // measure 35
0110
0000
0000
0000
0100
0000
1000
0000
0001
0000
0000
0100
0000
0000
0010
0000
,  // measure 36
1010
0000
0000
0000
1000
0000
0001
0000
0100
0000
0000
0001
0000
0000
1000
0000
,  // measure 37
0100
0100
0100
0010
0001
0100
0110
0000
,  // measure 38
0010
0010
0010
1000
0100
0010
1001
0000
,  // measure 39
0001
0000
0001
0000
1000
0001
1000
0000
0001
0100
0001
0100
0001
0100
0001
0000
,  // measure 40
1000
0001
0000
0100
0000
1000
0000
0001
0000
0010
0000
1000
0000
0001
0000
0100
,  // measure 41
0001
0000
0000
0101
0000
0000
0101
0000
0000
1010
0000
0000
1010
0000
0000
0000
,  // measure 42
1001
1000
0001
0200
0002
0000
0303
0000
,  // measure 43
1001
0000
0000
0011
0000
0000
0011
0000
0000
1100
0000
0000
1100
0000
0000
0000
,  // measure 44
1001
0010
0100
2000
0002
0000
3003
0000
,  // measure 45
1010
0000
0000
1010
0000
0000
0110
0000
0000
0101
0000
0000
0101
0000
0000
0000
,  // measure 46
1001
1000
0010
0200
0002
0000
0303
0000
,  // measure 47
1001
0000
0000
0011
0000
0000
0011
0000
0000
1100
0000
0000
1100
0000
0000
0000
,  // measure 48
1001
0100
0010
0002
0200
0000
0303
0000
,  // measure 49
0002
0000
0000
0000
,  // measure 50
0000
0000
0000
0000
0000
0000
0000
0000
1003
0100
1000
0000
0001
1000
0001
1000
,  // measure 51
0001
0000
0100
0000
0001
0000
1000
0100
0010
0000
0001
0000
0001
0000
1000
0010
,  // measure 52
0100
0000
0010
0000
0010
0000
1000
0001
0010
0000
0100
0000
0100
0000
0000
0000
,  // measure 53
1000
0010
0001
0010
0100
0001
1000
0100
,  // measure 54
0001
0000
0100
0000
0010
0000
0001
1000
0001
0000
0100
0000
0010
0000
0100
0000
,  // measure 55
0001
0000
0010
0000
0001
0000
1000
0010
0100
0000
0001
0000
0001
0000
1000
0100
,  // measure 56
0010
0000
0100
0000
0100
0000
1000
0001
0100
0000
0001
0000
0001
0000
0000
0000
,  // measure 57
1000
0100
0001
0100
0010
0001
1000
0010
,  // measure 58
0001
0000
0010
0000
0100
0000
0001
1000
0001
0000
1000
0000
0100
0000
0010
0000
,  // measure 59
0001
0000
0100
0000
0001
0000
1000
0100
0010
0000
0100
0000
0100
0000
1000
0001
,  // measure 60
0100
0000
0001
0000
0001
0000
0010
0100
1000
0000
0010
0000
0010
0000
0100
0000
,  // measure 61
0001
0100
1000
0100
0010
1000
0001
0010
,  // measure 62
1000
0000
0010
0000
0100
0000
1000
0001
1000
0000
0010
0000
0100
0000
0001
0000
,  // measure 63
0010
0000
0100
0000
1000
0000
0001
1000
0010
0000
1000
0000
1000
0000
0100
0010
,  // measure 64
0001
0000
0100
0010
0100
0000
0100
0000
0001
0000
0001
0000
1000
0000
1000
0000
,  // measure 65
0001
0010
1000
0010
0002
1000
1003
0000
,  // measure 66
0001
0100
1000
0100
0002
1000
1003
0000
,  // measure 67
2020
0000
0000
3000
,  // measure 68
0200
0000
0000
0030
,  // measure 69
0002
0000
0000
0300
,  // measure 70
2000
0000
0000
0003
,  // measure 71
0200
0000
0000
3000
,  // measure 72
0020
0000
0000
0300
,  // measure 73
0002
0000
0000
0000
,  // measure 74
0033
0000
0000
0000
;

//---------------dance-single - ----------------
#NOTES:
     dance-single:
     :
     Beginner:
     2:
     0.090,0.153,0.084,0.000,0.000:
1000
0000
0000
0000
,
0000
0000
0000
0000
,
0001
0000
0000
0000
,
0000
0000
0000
0000
,
1000
0000
0000
0000
,
0000
0000
0000
0000
,
0100
0000
0000
0000
,
0000
0000
0000
0000
,
1000
0000
0001
0000
,
1000
0000
0000
0000
,
0001
0000
1000
0000
,
0001
0000
0000
0000
,
1000
0000
0001
0000
,
1000
0000
0000
0000
,
0001
0000
1000
0000
,
0001
0000
0000
0000
,
1001
0000
0000
0000
,
0000
0000
0000
0000
,
0010
0000
0000
0000
,
0000
0000
0000
0000
,
0100
0000
0000
0000
,
0000
0000
0000
0000
,
0010
0000
0000
0000
,
0000
0000
0000
0000
,
1001
0000
0000
0000
,
0000
0000
0000
0000
,
1000
0000
0000
0000
,
0000
0000
0000
0000
,
0001
0000
0000
0000
,
0000
0000
0000
0000
,
1000
0000
0000
0000
,
0000
0000
0000
0000
,
1001
0000
0000
0000
,
0001
0000
0000
0000
,
1001
0000
0000
0000
,
1000
0000
0000
0000
,
0001
0000
0000
0000
,
0001
0000
0000
0000
,
0001
0000
0000
0000
,
0100
0000
0000
0000
,
1001
0000
0000
0000
,
0001
0000
0000
0000
,
1001
0000
0000
0000
,
1000
0000
0000
0000
,
1001
0000
0000
0000
,
0001
0000
0000
0000
,
1001
0000
0000
0000
,
1000
0000
0000
0000
,
0100
0000
0000
0000
,
0000
0000
0000
0000
,
1001
0000
0000
0000
,
1000
0000
0000
0000
,
0010
0000
0000
0000
,
1000
0000
0000
0000
,
0001
0000
0000
0000
,
1000
0000
0000
0000
,
0001
0000
0000
0000
,
0100
0000
0000
0000
,
0010
0000
0000
0000
,
0100
0000
0000
0000
,
0010
0000
0000
0000
,
1000
0000
0000
0000
,
0001
0000
0000
0000
,
0010
0000
0000
0000
,
0001
0000
0000
0000
,
0001
0000
0000
0000
,
1001
0000
0000
0000
,
1000
0000
0000
0000
,
1000
0000
0000
0000
,
1000
0000
0000
0000
,
1000
0000
0000
0000
,
1000
0000
0000
0000
,
1000
0000
0000
0000
,
1000
0000
0000
0000
;
