#TITLE:FREEDOM DiVE;
#SUBTITLE:;
#ARTIST:xi;
#TITLETRANSLIT:;
#SUBTITLETRANSLIT:;
#ARTISTTRANSLIT:;
#CREDIT:DigiMindAxel;
#BANNER:FREEDOM DiVE.png;
#BACKGROUND:FREEDOM DiVE-bg.png;
#LYRICSPATH:;
#CDTITLE:DigiMindAxel original simfile.png;
#MUSIC:FREEDOM DiVE.ogg;
#METERTYPE:DDR X;
#OFFSET:-0.028;
#SAMPLESTART:63.740;
#SAMPLELENGTH:12.000;
#SELECTABLE:YES;
#BPMS:0.000=222.222;
#STOPS:;
#BGCHANGES:2.000=FREEDOM DiVE.avi=1.000=1=1=0,
99999=-nosongbg-=1.000=0=0=0 // don't automatically add -songbackground-
;

//---------------dance-single - ----------------
#NOTES:
     dance-single:
     :
     Easy:
     8:
     0.416,0.395,0.016,0.155,0.000:
0000
0000
0000
0000
,
0000
0000
0000
0000
,
0000
0000
0000
0000
,
0000
0000
0000
0000
,
0000
0000
0000
0000
,
0000
0000
0000
0000
,
0000
0000
0000
0000
,
1000
0000
1000
0000
,
1000
0001
1000
0001
,
1000
0000
0010
0000
,
0100
0000
0001
0000
,
1000
0010
0100
0001
,
1000
0010
0100
0001
,
0010
0000
0100
0000
,
1000
0000
0001
0000
,
0100
0010
0100
0000
,
0010
0100
0001
0010
,
0100
1000
0100
0000
,
1000
0001
1000
0000
,
0100
1000
0100
0000
,
1000
0001
1000
0000
,
0001
0100
0001
0000
,
1000
0001
1000
0000
,
0100
1000
0010
0100
,
0001
0100
0010
1000
,
0002
0000
2003
0000
,
3002
0000
0023
0000
,
0230
0000
2300
0000
,
3200
0000
1300
0100
,
0020
0000
0032
0000
,
0103
0010
0100
0010
,
2000
0000
3002
0000
,
0023
0000
0230
0000
,
1300
0100
1000
0100
,
0010
0000
0000
0000
,
0001
0100
0001
0100
,
0010
0000
0000
0000
,
1000
0001
1000
0001
,
1000
0100
1000
0100
,
0010
0001
0010
0001
,
0100
0010
1000
0100
,
0010
0010
0010
0010
,
0001
0001
0001
0001
,
1000
0100
0010
0000
,
0001
0001
0001
1000
,
0100
0010
0001
0100
,
0010
0010
0010
0010
,
1000
0100
1000
0001
,
1000
0100
1000
0001
,
0100
0010
0100
0001
,
1000
0100
0010
0001
,
1000
0100
1000
0001
,
0100
0100
0100
0100
,
0001
0010
0100
1000
,
0010
0010
0010
0010
,
1000
0100
0010
0001
,
0100
0010
0100
0001
,
1000
0001
0010
0100
,
1000
0001
0010
0100
,
1000
1000
0001
0001
,
1000
1000
0001
0001
,
0010
0010
0100
0100
,
1000
1000
0001
0010
,
0100
0100
1000
1000
,
0010
0100
0001
1000
,
0010
0100
0001
1000
,
0100
0010
0001
1000
,
0100
0100
0100
0100
,
1000
0010
0100
0001
,
1000
1000
1000
1000
,
0001
0010
0100
1000
,
0010
0010
0100
0100
,
0010
0010
0100
0100
,
0001
1000
0100
0010
,
0001
0001
1000
1000
,
1002
0000
0000
0000
,
0000
0000
0000
0000
,
2003
0000
0000
0000
,
0000
0000
0000
0000
,
3002
0000
0000
0000
,
0000
0000
0000
0000
,
2003
0000
0000
0000
,
3001
1000
0001
1000
,
0001
0010
0001
0010
,
0001
1000
0001
1000
,
0100
1000
0100
1000
,
0010
0100
0010
0100
,
0001
0010
0001
0010
,
0001
1000
0001
1000
,
0100
1000
0100
1000
,
0020
0000
0000
0000
,
0130
0010
0100
0001
,
1000
1000
0001
0001
,
0010
0100
1000
0010
,
1000
1000
0001
0001
,
1000
0100
0010
0001
,
0100
0100
0010
0010
,
1000
1000
0100
0100
,
1000
0001
0010
0100
,
1000
1000
0001
0001
,
0010
0100
0010
0001
,
1000
1000
0100
0100
,
1000
0010
0100
0001
,
1000
1000
0001
0001
,
0100
0100
0010
0100
,
0010
1000
0100
0010
,
0001
0001
1000
1000
,
0001
1000
0001
1000
,
0100
1000
0100
1000
,
0001
0010
0100
1000
,
0010
0100
0010
0100
,
2002
0000
0000
0000
,
0000
0000
0000
0000
,
3003
0000
0000
0000
;

//---------------dance-single - ----------------
#NOTES:
     dance-single:
     :
     Medium:
     12:
     0.619,0.658,0.334,0.373,0.000:
0000
0000
0000
0000
,
0000
0000
0000
0000
,
0000
0000
0000
0000
,
0000
0000
0000
0000
,
0000
0000
0000
0000
,
0000
0000
0000
0000
,
0000
0000
0000
0000
,
1001
0000
1001
0000
,
1001
0001
1000
0001
,
1000
0010
1000
0000
0010
1000
0010
0000
,
1000
0001
1000
0000
0001
1000
0001
0000
,
0110
0100
0010
0100
,
0010
1001
1100
0000
,
1001
0000
0001
0000
1000
0000
0001
1000
,
0000
0010
0100
0000
0110
0000
0000
0000
,
0101
0001
1001
1000
,
1100
0100
0110
0010
,
0001
0010
0001
0000
1000
0001
1000
0000
,
0100
1000
0100
0000
1000
0001
1000
0000
,
0001
0100
0001
0000
0100
0010
0100
0000
,
0001
1001
1100
0000
,
0110
0000
0001
0000
0010
0000
0100
1000
,
0010
0100
0110
0000
,
0102
0023
0230
2300
,
3002
0023
0230
2300
,
3020
0000
0230
0000
,
0320
0000
2030
0000
,
3002
0000
0203
0000
,
0302
0000
0000
0000
1003
0100
0010
0000
,
0002
0000
0203
0000
,
0301
1000
0100
0010
,
0002
0000
0203
0000
,
0320
0000
0230
0000
,
0301
0010
0100
1000
,
0001
1000
0001
0000
0010
0000
0100
0000
,
1000
0001
0100
0010
,
1000
0001
1000
0000
0100
0000
0010
0000
,
1001
0001
1000
0001
,
0110
0010
0100
0010
,
1000
0010
0100
0001
,
1000
0100
0010
0001
,
1000
0001
1000
0001
1000
0001
1000
0000
,
0010
0100
0010
0100
0010
0100
0010
0000
,
1000
0000
0001
0100
0001
0000
1000
0000
,
0020
0230
0320
0230
,
0301
0000
1000
0100
0010
0000
0001
0000
,
2000
3002
2003
3002
,
1003
0001
0110
0110
,
1000
0001
0110
0110
,
0001
0000
1000
0010
1000
0000
0001
0000
,
0110
0110
1001
1001
,
1000
0000
0001
0010
0001
0000
1000
0000
,
0002
2003
3002
2003
,
3001
0000
1000
0100
0010
0000
0001
0000
,
0200
0320
0230
0320
,
0130
0001
0110
0110
,
1000
0001
0110
0110
,
1000
0010
1000
0000
0010
0100
0001
0000
,
0100
0010
0100
0000
0001
0010
0100
0000
,
1000
0000
1000
0000
0100
0010
0001
0000
,
0100
0000
0100
0000
0010
1000
0001
0000
,
0010
0100
0010
0000
0100
0010
0100
0000
,
1000
0100
1000
0000
0010
0100
0010
0100
,
0001
0000
0001
0000
0100
0010
1000
0000
,
0001
1000
0001
1000
0001
1000
0001
0000
,
1000
0100
0010
0001
,
0100
0010
0100
0010
0100
0010
0100
0000
,
0001
0100
0001
0000
0100
0010
1000
0000
,
0010
0100
0010
0100
0010
0100
0010
0000
,
1000
0100
1000
0000
0100
0010
0001
0000
,
0100
0010
0100
0010
0100
0010
0100
0000
,
0001
0000
0001
0000
0010
0100
1000
0000
,
0001
0000
0001
0000
0100
0010
1000
0000
,
0010
0100
0001
0000
0100
0010
1000
0000
,
1001
1001
0110
0110
,
1002
0000
0000
0000
,
2003
0000
0000
0000
,
3002
0000
0000
0000
,
2003
0000
0000
0000
,
3020
0000
0000
0000
,
0230
0000
0000
0000
,
0320
0000
0000
0000
,
1030
0100
0010
0001
,
1000
0100
0010
0001
,
1000
0010
0100
0001
,
1000
0010
0100
0001
,
1000
0001
1000
0001
,
0010
0100
0010
0000
0100
0010
0100
0000
,
1000
0001
1000
0000
0001
1000
0001
0000
,
0100
0010
0100
0000
0010
0100
0010
0000
,
2002
0000
0000
3003
,
1001
0000
1000
0000
0010
0100
0001
0000
,
0100
0000
0100
0000
0010
1000
0100
0000
,
1000
0100
1000
0000
0010
0100
0010
0000
,
0100
0001
0100
0000
0010
0100
0010
0100
,
0001
0000
0001
0000
0010
0100
1000
0000
,
0001
1000
0001
1000
0001
1000
0001
0000
,
0100
0010
1000
0001
,
0010
0100
0010
0100
0010
0100
0010
0000
,
0001
0000
0001
0000
0100
0001
0010
0000
,
0100
1000
0010
1000
0100
0000
0010
0000
,
0001
0000
0001
0000
1000
0001
0100
0000
,
0001
0010
0100
0010
0001
0000
1000
0000
,
0100
1000
0100
0000
0010
0100
0010
0000
,
0001
1000
0010
0000
1000
0001
1000
0001
,
0010
0000
0010
0000
0100
1000
0010
0000
,
0100
0010
0100
0010
0100
0010
0100
0000
,
0001
0100
1000
0100
,
0001
0100
1000
0100
,
0001
0010
0100
1000
,
1001
1001
0110
0110
,
2002
0000
0000
0000
,
0000
0000
0000
0000
,
3003
0000
0000
0000
;

//---------------dance-single - ----------------
#NOTES:
     dance-single:
     :
     Hard:
     15:
     0.776,0.746,0.311,0.085,0.140:
0000
0000
0000
0000
,
0000
0000
0000
0000
,
0000
0000
0000
0000
,
0000
0000
0000
0000
,
0000
0000
0000
0000
,
0000
0000
0000
0000
,
0000
0000
0000
0000
,
1001
0100
1001
0100
,
1001
1001
0110
0110
,
1000
0100
0010
0000
0001
1000
0010
0000
,
1000
0100
0010
0000
0001
1000
0010
0000
,
0200
0001
0000
0001
0000
0010
0000
0310
,
0000
0000
0000
1000
0000
0000
1001
0000
0000
0000
0000
0000
0100
0000
0000
0000
1000
0000
0000
0000
0001
0000
0000
0000
,
1001
0000
0001
0000
0100
0000
0001
0001
,
0000
1000
1000
0100
0010
0001
0100
0000
,
0010
0100
0010
0000
1010
0000
0010
0000
,
1001
1001
0110
0110
,
0010
0001
0010
0000
0001
1000
0010
0000
,
0100
0010
0100
0000
0001
0010
0100
0000
,
0010
0001
0010
0001
0100
0010
0100
0010
,
1000
0000
0000
1001
0000
0000
1100
0000
0100
0000
1000
0000
,
1001
0000
0001
0000
0100
0000
0010
0010
,
0000
1000
1000
0100
0010
0001
1000
0000
,
0001
0100
0001
0100
1000
0100
1000
0100
,
0001
0010
1000
0010
0001
0010
0100
1000
,
0010
0000
0000
0010
0000
0000
0010
0000
0100
0000
0000
0100
0000
0000
0100
0000
,
0010
0000
0000
0010
0000
0000
0010
0000
0100
0000
0000
0100
0000
0000
0100
0000
,
0001
0000
0000
0001
0000
0000
0001
0000
0010
0000
0000
0010
0000
0000
0010
0000
,
0001
0000
0000
0001
0000
0000
0001
0000
1000
0000
0100
0000
0010
0000
0001
0000
,
1000
0000
0000
1000
0000
0000
1000
0000
0010
0000
0000
0010
0000
0000
0010
0000
,
1000
0001
0010
0100
1000
0001
0010
0100
,
1000
0010
1000
0010
0100
0001
0100
0001
,
1000
0000
0000
1000
0000
0000
1000
0000
0010
0000
0000
0010
0000
0000
0010
0000
,
1000
0100
0010
0001
0100
0010
1000
0000
,
0002
0000
0000
0000
1003
0000
0001
0000
0010
0000
0000
0010
0000
0000
0010
0000
,
0001
0010
0100
1000
0001
0010
0100
0000
,
2000
0000
3001
1000
0100
0010
0100
0000
,
1001
0000
0000
0001
0000
0000
0001
0000
0100
0000
0010
0000
0100
0000
0000
0000
,
1001
0000
0000
1000
0000
0000
1000
0000
0100
0000
0010
0000
0100
0000
0000
0000
,
1000
0010
1000
0000
0001
0100
0001
0000
,
1000
0100
0010
0001
1000
0100
0010
0001
,
1000
0100
1000
0100
0001
0100
0001
0100
,
1000
0010
1000
0010
0001
0010
0001
0010
,
1000
0000
0100
0010
0001
0000
0011
0000
,
1010
1010
1001
1001
,
0001
0100
0010
0000
0100
0001
0010
0000
,
0011
0011
1001
1001
,
1000
0001
0100
0000
0100
0001
1000
0000
,
0100
0010
0001
0000
0001
0010
0100
0000
,
1000
0001
0100
0010
0100
0001
1000
0000
,
1100
1100
0101
0101
,
0001
0000
0001
0100
0010
0000
0110
0000
,
1100
1100
0101
0101
,
0001
1000
0100
0000
0100
0010
0001
0000
,
0010
0001
0100
0000
0100
0001
1000
0000
,
0100
0010
0001
0000
0001
1000
0010
0000
,
1000
0001
0010
0000
0010
0100
1000
0000
,
0001
0010
1000
0010
0001
0100
0001
1000
,
0001
0100
1000
0100
0001
0010
0100
1000
,
0001
0000
0000
0001
0000
0000
0001
0000
0100
0000
0010
0000
1000
0000
0000
0000
,
0100
0000
0000
0100
0000
0000
0100
0000
0010
0000
0001
0000
0100
0000
0000
0000
,
0010
0000
0000
0010
0000
0000
0010
0000
1000
0000
0100
0000
0010
0000
0000
0000
,
0001
0000
0000
0001
0000
0000
0001
0000
1000
0000
0100
0000
0001
0000
0100
0000
,
1000
0000
0000
1000
0000
0000
1000
0000
0010
0000
0000
0010
0000
0000
0010
0000
,
1000
0100
0001
0100
1000
0100
0001
0100
,
1000
0001
0010
0100
0010
0001
0100
0001
,
1000
0010
0001
0010
1000
0010
0001
0010
,
1000
0100
0010
0001
1000
0100
0010
0000
,
0001
0010
1000
0010
0001
0100
0010
0100
,
0001
0010
0100
1000
0001
0010
0100
0000
,
1000
0100
0001
0100
1000
0100
0001
0100
,
2000
0000
3001
0000
0010
0100
1000
0100
,
0020
0000
0031
0000
0100
0010
1000
0100
,
0020
0000
0031
0000
0100
0010
1000
0001
,
0010
1000
0010
0001
0100
1000
0100
0001
,
1000
0100
0010
0100
,
1000
0100
0010
0100
,
1000
0001
0100
0010
,
1000
0001
0100
0010
,
1000
0001
0010
1000
,
0010
0001
0100
1000
,
0100
0001
0010
0100
,
1001
0000
0001
0010
0001
0000
1000
0001
,
1000
0000
0001
0010
0001
0000
1000
0001
,
1000
0000
0001
0100
0001
0000
1000
0001
,
1000
0000
0001
0100
0001
0000
1000
0001
,
1000
0100
0010
0000
0001
0010
0100
0000
,
1000
0001
0100
0000
0010
1000
0001
0000
,
0010
0100
1000
0000
0001
1000
0100
0000
,
1000
0001
0100
0000
0001
0010
0100
1000
,
2002
0000
0000
3003
,
1001
0000
0000
1000
0000
0000
1000
0000
0010
0000
0000
0100
0000
0000
0001
0000
,
0010
0000
0000
0010
0000
0000
0010
0000
0100
0000
0000
1000
0000
0000
0010
0000
,
1000
0000
0000
1000
0000
0000
1000
0000
0010
0000
0000
0100
0000
0000
0001
0000
,
0010
0000
0000
0010
0000
0000
0010
0000
0100
0000
1000
0000
0001
0000
0100
0000
,
0001
0000
0000
0001
0000
0000
0001
0000
0010
0000
0000
0100
0000
0000
1000
0000
,
0001
0010
1000
0010
0001
0010
1000
0010
,
0001
1000
0010
1000
0100
0010
0001
1000
,
0001
0100
1000
0100
0001
0100
1000
0100
,
0001
0010
0100
1000
0001
0100
0001
1000
,
0200
0000
0310
0100
1000
0100
0010
0000
,
0001
1000
0100
0010
0001
1000
0001
0100
,
0001
1000
0100
0001
0100
1000
0010
0000
,
0100
0000
0000
0100
0000
0000
0100
0000
0001
0000
0010
0000
0100
0000
1000
0000
,
0001
0010
0001
0000
1000
0100
0010
0001
,
0100
0000
0000
0100
0000
0000
0100
0000
0001
0000
0000
0001
0000
0000
0001
0000
,
1000
0010
0001
0010
1000
0010
0001
0010
,
1000
0100
0001
0100
1000
0010
0001
0010
,
1000
0001
0010
1000
0001
0010
0100
0001
,
1000
0100
0001
1000
0100
0010
1000
0001
,
0010
1000
0010
0001
0100
1000
0100
0001
,
2002
0000
0000
0000
,
0000
0000
0000
0000
,
3003
0000
0000
0000
;

//---------------dance-single - ----------------
#NOTES:
     dance-single:
     :
     Challenge:
     18:
     1.000,1.000,0.287,0.140,0.668: // measure 1
0000
0000
0000
0000
,  // measure 2
0000
0000
0000
0000
,  // measure 3
0000
0000
0000
0000
,  // measure 4
0000
0000
0000
0000
,  // measure 5
0000
0000
0000
0000
,  // measure 6
0000
0000
0000
0000
,  // measure 7
0000
0000
0000
0000
,  // measure 8
1000
0100
1000
0000
0001
0010
0001
0000
,  // measure 9
0100
0000
0010
0000
0100
0000
0001
0000
0010
0000
0100
1000
0100
1000
0100
1000
,  // measure 10
0010
0100
0001
0100
0010
0100
0001
1000
,  // measure 11
0100
1000
0001
1000
0100
1000
0001
1000
,  // measure 12
1001
0001
0100
1000
0100
0001
1000
0010
,  // measure 13
0001
0000
0000
0010
0000
0000
1010
0000
0000
0000
0000
0000
1001
0000
0000
0000
1100
0000
0000
0000
0011
0000
0000
0000
,  // measure 14
1001
1000
0010
0100
0010
1000
0001
0011
,  // measure 15
0000
1100
1000
0100
0010
0001
0100
0010
,  // measure 16
1000
0000
0001
0100
0001
0000
1000
0000
0100
1000
0100
0000
0010
0000
0001
0000
,  // measure 17
1001
0000
1000
0000
0100
0000
0001
0000
0100
0000
1000
0010
1000
0010
1000
0010
,  // measure 18
0100
0001
0100
0000
0001
1000
0001
0000
,  // measure 19
0010
0100
1000
0100
0010
0001
0100
0000
,  // measure 20
1001
1000
0001
0100
0001
1000
0100
0001
,  // measure 21
0100
0000
0000
1000
0000
0000
1001
0000
0000
0000
0000
0000
1001
0000
0000
0000
0101
0000
0000
0000
1010
0000
0000
0000
,  // measure 22
1001
1000
0001
0010
0100
1000
0010
1010
,  // measure 23
0000
0000
0101
0000
0100
0000
0001
0000
0010
0000
0100
0000
1000
0000
0010
1000
,  // measure 24
0001
0001
0010
0010
0100
0100
1000
1000
,  // measure 25
0010
0000
0010
0000
1000
0000
1000
0000
0001
0000
1000
0100
1000
0000
0010
0100
,  // measure 26
0020
0000
0000
1000
0000
0000
1030
0000
0002
0000
0000
0010
0000
0000
0013
0000
,  // measure 27
0200
0000
0000
0010
0000
0000
0310
0000
0002
0000
0000
1000
0000
0000
1003
0000
,  // measure 28
0200
0000
0000
1000
0000
0000
1300
0000
0020
0000
0000
0100
0000
0000
0130
0000
,  // measure 29
0002
0000
0000
0010
0000
0000
0013
0000
0001
0000
0100
0000
0010
0000
1000
0000
,  // measure 30
0200
0000
0000
0010
0000
0000
0310
0000
0002
0000
0000
1000
0000
0000
1003
0000
,  // measure 31
0001
0010
0100
1000
0001
0010
0100
1000
,  // measure 32
0010
1000
0100
0010
0001
1000
0100
0010
,  // measure 33
0002
0000
0000
0010
0000
0000
0013
0000
0200
0000
0000
0010
0000
0000
0310
0000
,  // measure 34
1000
0100
0001
0100
1000
0001
0010
0100
,  // measure 35
1000
0000
0000
0000
0001
0000
0000
0000
0100
0000
0000
0000
0001
0000
0000
0000
0000
0000
1000
0000
0000
0000
0000
0000
0100
0000
0000
0000
0000
0000
0000
0000
0000
0100
0000
0000
0000
0000
0000
0000
0000
0000
0100
0000
0000
0000
0000
0000
,  // measure 36
1000
0100
0001
0100
1000
0001
0010
0100
,  // measure 37
1000
0001
1000
0000
0001
0100
0001
0000
0010
0000
0100
0000
0010
0000
0001
0000
,  // measure 38
0200
0000
0000
0010
0000
0000
0310
0000
1000
0000
0100
0000
0010
0000
0001
1000
,  // measure 39
0002
0000
0000
0010
0000
0000
0013
0000
0200
0000
0000
1000
0000
0000
1300
0000
,  // measure 40
0020
0000
0000
0100
0000
0000
0130
0000
0002
0000
0000
1000
0000
0000
1003
0000
,  // measure 41
0001
0100
0010
1000
0001
0100
0010
1000
,  // measure 42
0001
0010
1000
0010
0001
0010
1000
0010
,  // measure 43
0001
0000
1000
0000
0100
0000
1000
0100
1000
0000
0001
0100
0001
0100
0010
0100
,  // measure 44
0010
1000
0100
0010
0001
0100
0101
0000
,  // measure 45
1000
0100
1100
0000
0010
0001
0011
0000
,  // measure 46
0010
0001
0100
1000
0100
0001
1000
0000
,  // measure 47
0010
1000
1010
0000
0100
0001
0101
0000
,  // measure 48
0100
0001
0010
1000
0010
0001
1000
0000
,  // measure 49
0100
0010
0001
0100
1000
0100
0001
0000
,  // measure 50
0010
0100
1000
0001
1000
0100
0010
0000
,  // measure 51
0001
0100
0110
0010
1000
0001
1001
0000
,  // measure 52
1000
0010
0001
0010
1000
0100
1100
0000
,  // measure 53
0010
0001
0011
0000
0100
0010
0110
0000
,  // measure 54
1000
0100
0010
1000
0010
0100
1100
0000
,  // measure 55
0010
0001
0101
0000
0010
1000
1001
0000
,  // measure 56
0001
0100
0010
0001
0010
0100
0101
0000
,  // measure 57
0001
0010
0011
0000
0100
1000
1100
0000
,  // measure 58
1000
0000
0010
0000
0001
0000
0010
0000
0100
0000
0001
1000
0001
0000
0100
0000
,  // measure 59
1000
0000
0100
0000
0001
1000
0001
0000
1000
0100
1000
0000
0001
0010
0001
0010
,  // measure 60
0001
0000
0100
0010
0100
0000
0001
0000
1000
0000
0100
1000
0100
0000
1000
0000
,  // measure 61
0001
0000
0100
0001
0100
0000
0001
0000
1000
0000
0100
1000
0100
0000
1000
0000
,  // measure 62
0001
0000
0100
0010
0100
0000
0001
0000
1000
0000
0100
1000
0100
0000
0010
0000
,  // measure 63
0001
0000
0100
0010
0100
0000
0010
0000
1000
0000
0100
0000
0001
0000
0100
0000
,  // measure 64
1000
0000
0001
0100
0001
0000
1000
0000
0010
0000
0100
0010
0100
0000
0010
0000
,  // measure 65
1000
1000
0100
0100
0010
0010
0001
0001
,  // measure 66
1000
1000
0010
0010
0100
0100
0001
0001
,  // measure 67
1000
0000
1000
0000
0001
0000
0010
0001
0010
0000
0001
1000
0001
0000
1000
0100
,  // measure 68
1000
0010
0001
0010
1000
0100
0010
0001
,  // measure 69
1000
0000
0000
0000
0010
0000
0000
0000
1000
0000
0000
0000
0001
0000
0000
0000
0000
0000
0010
0000
0000
0000
0000
0000
0100
0000
0000
0000
0000
0000
1000
0000
0000
0010
0000
0000
1000
0000
0000
0000
0000
0000
0010
0000
0000
0000
0000
0000
,  // measure 70
0001
0010
0100
0001
0010
0100
0010
0001
,  // measure 71
0100
0010
0100
0000
0001
0100
0001
0000
1000
0100
1000
0000
0100
0000
0010
0000
,  // measure 72
0001
1000
0001
1000
0001
0000
0010
0000
0100
0000
1000
0000
0001
0000
0100
0000
,  // measure 73
0010
0100
0010
0100
0010
0000
1000
0000
0001
0000
0010
0001
0010
0000
0001
0000
,  // measure 74
1000
0010
1000
0010
1000
0000
0001
0000
0010
0000
0100
0000
1000
0000
0001
0000
,  // measure 75
0101
0000
0100
0000
0110
0000
0010
0000
1000
0000
0100
0010
0100
0010
0100
0010
,  // measure 76
0001
0000
1000
0100
0010
0001
1000
0010
,  // measure 77
1000
0000
0001
0010
0100
1000
0001
0100
,  // measure 78
0001
0010
0100
0010
0001
0010
0100
0010
,  // measure 79
0001
1000
0010
1000
0001
1000
0010
1000
,  // measure 80
0001
0000
0010
0100
1000
0100
0010
0001
,  // measure 81
1000
0010
0001
0010
1000
0100
0010
0001
,  // measure 82
1000
0000
0010
0000
0001
0000
0010
0000
1000
0000
0100
0000
0010
0000
0001
1000
,  // measure 83
0001
0000
0000
0001
0100
0000
0000
0100
0010
0000
0000
0010
0100
0000
0000
0100
,  // measure 84
0001
0000
0000
0001
1000
0000
0000
1000
0100
0000
0000
0100
1000
0000
0000
1000
,  // measure 85
0100
0000
0000
0100
0010
0000
0000
0010
0001
0000
0000
0001
0100
0000
0000
0100
,  // measure 86
0010
0000
0000
0010
0100
0000
0000
0100
0001
0000
0000
0001
1000
0000
0100
0000
,  // measure 87
1000
0000
0001
0100
0001
0100
0001
0000
1000
0000
0100
1000
0100
1000
0100
0000
,  // measure 88
0010
0000
0001
1000
0001
1000
0001
0000
0100
0000
0010
0100
0010
0100
0010
0000
,  // measure 89
1000
0000
0100
1000
0100
1000
0100
0000
0010
0000
0001
1000
0001
1000
0001
0000
,  // measure 90
0010
0000
0100
0010
0100
0010
0100
0000
1000
0000
0001
0010
0001
0010
0001
0010
,  // measure 91
0200
0000
0000
0310
,  // measure 92
0001
0100
0001
0100
0010
0000
1000
0000
0100
1000
0100
1000
0010
0000
0100
0000
,  // measure 93
0001
1000
0001
1000
0100
0000
0010
0000
0001
0100
0001
0100
0010
0000
0100
0000
,  // measure 94
0001
1000
0001
1000
0100
0000
0010
0000
0001
0100
0001
0100
0010
0000
1000
0000
,  // measure 95
0001
1000
0001
1000
0010
0000
0100
0000
0001
0000
0010
0000
0100
0000
1000
0000
,  // measure 96
0001
0100
0010
0100
0001
0000
1000
0000
0100
0010
0100
0010
0001
0000
0100
0000
,  // measure 97
0001
0001
0010
0010
0100
0100
1000
1000
,  // measure 98
0001
0001
1000
1000
0100
0100
1000
1000
,  // measure 99
0010
0000
0100
0010
0100
0000
0001
0100
0001
0000
1000
0100
1000
0100
1000
0100
,  // measure 100
0010
0001
0100
1000
0100
0001
0010
0100
,  // measure 101
1000
0000
0000
0000
0010
0000
0000
0000
0100
0000
0000
0000
0010
0000
0000
0000
0000
0000
1000
0000
0000
0000
0000
0000
0001
0000
0000
0010
0000
0000
0001
0000
0000
0010
0000
0000
0100
0000
0000
0000
0000
0000
1000
0000
0000
0000
0000
0000
,  // measure 102
0001
0001
0100
0100
0001
0001
1000
0100
,  // measure 103
0010
0001
0010
0001
0100
0000
0010
0000
1000
0001
1000
0001
0010
0000
0100
0000
,  // measure 104
1000
0010
0100
0010
1000
0000
0001
0000
0010
0000
1000
0000
0010
0000
0001
0000
,  // measure 105
0100
0001
0010
0001
0100
0000
0010
0000
1000
0001
1000
0001
0010
0000
0100
0000
,  // measure 106
1000
0010
1000
0010
0100
0000
0001
0000
1000
0100
1000
0100
0010
0000
0001
0000
,  // measure 107
1001
1000
0010
0010
0101
0001
1000
1000
,  // measure 108
0001
0100
0001
0000
1000
0001
1000
0000
0100
1000
0100
0000
0010
0100
0010
0000
,  // measure 109
0001
0100
0001
1000
0100
1000
0001
0000
1000
0100
1000
0001
0010
0100
0010
0000
,  // measure 110
0001
0100
0001
1000
0100
1000
0001
0000
1000
0100
1000
0001
0010
0100
0010
0000
,  // measure 111
0001
0100
0001
1000
0100
1000
0100
0010
0100
0010
0001
0100
0001
1000
0010
0100
,  // measure 112
0020
0000
0000
0000
,  // measure 113
0000
0000
0000
0000
,  // measure 114
0030
0000
0000
0000
;

//---------------dance-double - ----------------
#NOTES:
     dance-double:
     :
     Easy:
     8:
     0.416,0.395,0.016,0.155,0.000:
00000000
00000000
00000000
00000000
,
00000000
00000000
00000000
00000000
,
00000000
00000000
00000000
00000000
,
00000000
00000000
00000000
00000000
,
00000000
00000000
00000000
00000000
,
00000000
00000000
00000000
00000000
,
00000000
00000000
00000000
00000000
,
10000000
00000000
00010000
00000000
,
10000000
00010000
10000000
00010000
,
10000000
00000000
01000000
00000000
,
00100000
00000000
00010000
00000000
,
10000000
00100000
01000000
00001000
,
00010000
00000010
00000100
00000001
,
00000010
00000000
00000100
00000000
,
00000010
00000000
00000100
00000000
,
00010000
00001000
00010000
00000000
,
00001000
01000000
00001000
00100000
,
01000000
10000000
00100000
00000000
,
10000000
00010000
10000000
00000000
,
01000000
10000000
01000000
00000000
,
10000000
00010000
10000000
00000000
,
00001000
01000000
00001000
00000000
,
00010000
00001000
00010000
00000000
,
00000100
00001000
00000010
00000100
,
00000001
00000100
00000010
00010000
,
00002000
00000000
20003000
00000000
,
30020000
00000000
00230000
00000000
,
02300000
00000000
23000000
00000000
,
32000000
00000000
13000000
00001000
,
00200000
00000000
00302000
00000000
,
00013000
00000010
00010000
00000010
,
00000200
00000000
00000302
00000000
,
00000023
00000000
00000230
00000000
,
00010300
00001000
00010000
00001000
,
00100000
00000000
00000000
00000000
,
00010000
01000000
00010000
01000000
,
00100000
00000000
00000000
00000000
,
10000000
00010000
10000000
00010000
,
10000000
01000000
10000000
01000000
,
00100000
00001000
00100000
00001000
,
00010000
00000010
00000100
00000001
,
00000010
00000010
00000010
00000010
,
00000100
00000100
00000100
00000100
,
00001000
00010000
00100000
00000000
,
01000000
01000000
01000000
00100000
,
00010000
01000000
00100000
01000000
,
00001000
00001000
00001000
00001000
,
00010000
00000010
00010000
00000001
,
00010000
00000010
00010000
00000100
,
00000010
00000001
00000010
00000100
,
00010000
00001000
00100000
00010000
,
10000000
01000000
10000000
00010000
,
01000000
01000000
01000000
01000000
,
00010000
00100000
01000000
10000000
,
00001000
00001000
00001000
00001000
,
00010000
00000100
00000010
00000001
,
00000100
00000010
00000100
00000001
,
00000010
00000001
00000100
00000010
,
00010000
00001000
01000000
00100000
,
10000000
10000000
00010000
00010000
,
10000000
10000000
00010000
00010000
,
00100000
00100000
01000000
01000000
,
10000000
10000000
00001000
00010000
,
00000010
00000010
00000100
00000100
,
00000001
00000010
00000100
00000010
,
00000001
00001000
00000010
00010000
,
00001000
01000000
00100000
10000000
,
01000000
01000000
01000000
01000000
,
10000000
00100000
01000000
00010000
,
10000000
10000000
10000000
10000000
,
00010000
00100000
00001000
00010000
,
00000100
00000100
00000010
00000010
,
00000001
00000001
00000100
00000100
,
00000001
00000010
00000100
00010000
,
00001000
00001000
01000000
01000000
,
10020000
00000000
00000000
00000000
,
00000000
00000000
00000000
00000000
,
20030000
00000000
00000000
00000000
,
00000000
00000000
00000000
00000000
,
30020000
00000000
00000000
00000000
,
00000000
00000000
00000000
00000000
,
20030000
00000000
00000000
00000000
,
30010000
10000000
00010000
10000000
,
00001000
00100000
00001000
00100000
,
00001000
00010000
00001000
00010000
,
00000010
00001000
00000010
00001000
,
00000001
00000010
00000001
00000010
,
00000100
00010000
00000100
00010000
,
00001000
10000000
00001000
10000000
,
01000000
10000000
01000000
10000000
,
00200000
00000000
00000000
00000000
,
01300000
00100000
01000000
00010000
,
10000000
10000000
00010000
00010000
,
00100000
01000000
10000000
00100000
,
01000000
01000000
00001000
00001000
,
00010000
00000100
00000010
00000001
,
00000100
00000100
00000001
00000001
,
00010000
00010000
00000100
00000100
,
00010000
00001000
00100000
01000000
,
10000000
10000000
00010000
00010000
,
00100000
01000000
00100000
00010000
,
10000000
10000000
01000000
01000000
,
10000000
00100000
01000000
00010000
,
00100000
00100000
00001000
00001000
,
00010000
00010000
00000100
00000010
,
00000100
00001000
00000010
00000100
,
00000001
00000001
00000010
00000010
,
00000001
00000100
00000001
00000100
,
00000010
00000100
00000010
00000100
,
00001000
00010000
00100000
01000000
,
10000000
01000000
00100000
01000000
,
20020000
00000000
00000000
00000000
,
00000000
00000000
00000000
00000000
,
30030000
00000000
00000000
00000000
;

//---------------dance-double - ----------------
#NOTES:
     dance-double:
     :
     Medium:
     12:
     0.609,0.658,0.319,0.249,0.000:
00000000
00000000
00000000
00000000
,
00000000
00000000
00000000
00000000
,
00000000
00000000
00000000
00000000
,
00000000
00000000
00000000
00000000
,
00000000
00000000
00000000
00000000
,
00000000
00000000
00000000
00000000
,
00000000
00000000
00000000
00000000
,
10010000
00000000
10010000
00000000
,
10010000
00010000
10000000
00010000
,
10000000
01000000
10000000
00000000
00100000
01000000
00100000
00000000
,
01000000
00001000
01000000
00000000
00001000
00010000
00001000
00000000
,
00010000
00000100
00000000
00000010
00000000
00000001
00000000
00000010
,
00000100
00001001
00000110
00000000
,
00000110
00000000
00000010
00000000
00000100
00000000
00010000
00001000
,
00000000
00010000
00001000
00000000
00100000
00000000
00000000
00000000
,
01100000
10000000
10010000
00010000
,
10010000
10000000
10010000
10010000
,
00100000
10000000
00100000
00000000
01000000
00100000
01000000
00000000
,
00001000
01000000
00001000
00000000
00010000
00001000
00010000
00000000
,
00000100
00010000
00000100
00000000
00000010
00000100
00000010
00000000
,
00000001
00000101
00000110
00000000
,
00000110
00000000
00000100
00000000
00000010
00000000
00010000
00001000
,
00000000
00010000
00001000
00000000
01000000
00000000
00000000
00000000
,
01200000
20300000
32000000
03200000
,
00320000
00032000
00003200
00000320
,
00000032
00000000
00002003
00000000
,
00003020
00000000
00020030
00000000
,
00032000
00000000
00203000
00000000
,
02300000
00000000
00000000
00000000
13000000
00010000
10000000
00000000
,
00200000
00000000
02300000
00000000
,
03010000
01000000
00100000
10000000
,
00002000
00000000
00023000
00000000
,
00030200
00000000
00000320
00000000
,
00000031
00000010
00000100
00001000
,
01000000
00100000
01000000
00000000
00010000
00000000
00010000
00000000
,
10000000
01000000
00100000
00010000
,
00000010
00000100
00000010
00000000
00000100
00000000
00000100
00000000
,
00001001
00000010
00000100
00010000
,
00011000
00001000
01000000
00100000
,
01000000
00001000
00100000
01000000
,
10000000
01000000
00100000
00001000
,
00010000
00001000
00010000
00001000
00010000
00001000
00010000
00000000
,
00000010
00010000
00000010
00010000
00000010
00010000
00000010
00000000
,
00000100
00000000
00000001
00000010
00000001
00000000
00000100
00000000
,
00000001
00000100
00001000
00000100
,
00000001
00000000
00001000
00000010
00001000
00000000
00000001
00000000
,
00001000
00000010
00000001
00000010
,
00001000
00000100
00011000
00011000
,
01000000
00100000
10010000
10010000
,
00100000
00000000
01000000
10000000
01000000
00000000
00100000
00000000
,
10010000
10010000
01100000
01100000
,
01000000
00000000
00100000
10000000
00100000
00000000
01000000
00000000
,
00010000
00100000
10000000
00100000
,
00010000
00000000
01000000
00100000
01000000
00000000
00010000
00000000
,
10000000
01000000
00010000
01000000
,
10000000
01000000
00011000
00011000
,
00001000
00010000
00000110
00000110
,
00000100
00000001
00000100
00000001
00000100
00000001
00000100
00000000
,
00000001
00001000
00000001
00001000
00000001
00001000
00000001
00000000
,
00010000
00000000
00010000
00000000
00001000
01000000
00100000
00000000
,
01000000
00000000
01000000
00000000
00010000
00100000
01000000
00000000
,
10000000
00010000
10000000
00000000
00010000
10000000
00010000
00000000
,
01000000
00010000
01000000
00000000
00001000
00010000
00001000
00010000
,
00000100
00000000
00000100
00000000
00000010
00000001
00000100
00000000
,
00000001
00001000
00000001
00001000
00000001
00001000
00000001
00000000
,
00000010
00000100
00010000
00001000
,
01000000
00100000
01000000
00100000
01000000
00100000
01000000
00000000
,
00010000
00100000
00010000
00000000
00100000
01000000
10000000
00000000
,
00001000
01000000
00001000
01000000
00001000
01000000
00001000
00000000
,
00010000
00001000
00010000
00000000
00000010
00000100
00000001
00000000
,
00000100
00000010
00000100
00000010
00000100
00000010
00000100
00000000
,
00000001
00000000
00000001
00000000
00000010
00000100
00010000
00000000
,
00001000
00000000
00001000
00000000
00100000
01000000
10000000
00000000
,
01000000
10000000
00100000
00000000
01000000
00001000
00010000
00000000
,
00011000
00011000
00010010
00010010
,
00000120
00000000
00000000
00000000
,
00000230
00000000
00000000
00000000
,
00000302
00000000
00000000
00000000
,
00002003
00000000
00000000
00000000
,
00003002
00000000
00000000
00000000
,
00000023
00000000
00000000
00000000
,
00000230
00000000
00000000
00000000
,
00001300
00000010
00010000
00001000
,
01000000
00010000
10000000
01000000
,
10000000
00100000
01000000
00001000
,
00010000
00000010
00000100
00000001
,
00000010
00000100
00001000
00010000
,
01000000
00010000
01000000
00000000
00100000
10000000
00100000
00000000
,
01000000
00100000
01000000
00000000
00010000
10000000
00010000
00000000
,
10000000
01000000
10000000
00000000
00010000
00100000
00010000
00000000
,
20020000
00000000
00000000
30030000
,
01100000
00000000
01000000
00000000
10000000
00010000
00100000
00000000
,
00001000
00010000
00001000
00000000
00010000
00000010
00000100
00000000
,
00000001
00001000
00000001
00000000
00000010
00000001
00000010
00000000
,
00000100
00001000
00000100
00000000
00010000
00001000
00010000
00001000
,
00100000
00000000
00100000
00000000
00010000
00100000
01000000
00000000
,
10000000
00100000
10000000
00100000
01000000
00010000
01000000
00000000
,
00001000
00010000
00001000
00010000
00000010
00001000
00000010
00000000
,
00001000
00000001
00001000
00000001
00000010
00000001
00000010
00000000
,
00000100
00001000
00000100
00000000
00010000
00001000
01000000
00000000
,
00010000
00100000
01000000
00100000
00010000
00000000
10000000
00000000
,
00100000
01000000
00100000
00000000
10000000
01000000
00100000
00000000
,
00001000
01000000
00100000
01000000
00001000
00000000
00010000
00000000
,
00000100
00000010
00000100
00000000
00001000
00000010
00001000
00000000
,
00000100
00000010
00000001
00000000
00000100
00000001
00000100
00000001
,
00010000
00000000
00001000
00000000
00100000
01000000
10000000
00000000
,
00010000
10000000
00010000
10000000
00010000
10000000
00010000
00000000
,
00100000
01000000
10000000
00010000
,
00100000
00001000
00010000
00000100
,
00000010
00000001
00000010
00000100
,
00011000
00011000
01001000
01001000
,
02200000
00000000
00000000
00000000
,
00000000
00000000
00000000
00000000
,
03300000
00000000
00000000
00000000
;

//---------------dance-double - ----------------
#NOTES:
     dance-double:
     :
     Hard:
     15:
     0.770,0.790,0.303,0.078,0.136:
00000000
00000000
00000000
00000000
,
00000000
00000000
00000000
00000000
,
00000000
00000000
00000000
00000000
,
00000000
00000000
00000000
00000000
,
00000000
00000000
00000000
00000000
,
00000000
00000000
00000000
00000000
,
00000000
00000000
00000000
00000000
,
11000000
00000000
00110000
00000000
,
01100000
01100000
10010000
10010000
,
10000000
01000000
10000000
00000000
00100000
01000000
00100000
00000000
,
01000000
00010000
01000000
00000000
00001000
00010000
00001000
00000000
,
00010000
00000010
00010000
00000010
00000100
00000001
00000100
00000001
,
00000010
00000000
00000000
00000100
00000000
00000000
00001001
00000000
00000000
00000000
00000000
00000000
00001000
00000000
00000000
00000000
00000010
00000000
00000000
00000000
00010000
00000000
00000000
00000000
,
00011000
00000000
00001000
00000000
01000000
00000000
00100000
10000000
,
00000000
00100000
10000000
01000000
00100000
00001000
00010000
00000000
,
00000010
00000100
00000010
00000000
00000110
00000000
00000000
00000000
,
00000101
00000101
00001001
00001001
,
00000001
00000100
00000001
00000000
00000100
00000001
00001000
00000000
,
00000100
00010000
00000100
00000000
00010000
00001000
00100000
00000000
,
01000000
10000000
01000000
10000000
00010000
00100000
00010000
00100000
,
01000000
00000000
00000000
10010000
00000000
00000000
00010000
00000000
00100000
00000000
00001000
00000000
,
00011000
00000000
00010000
00000000
00000100
00000000
00000010
00000001
,
00000000
00000010
00000001
00000100
00000010
00001000
00000100
00000000
,
00010000
00001000
00010000
00001000
01000000
00010000
01000000
00010000
,
10000000
01000000
00010000
01000000
10000000
00100000
01000000
00001000
,
00010000
00000000
00000000
00010000
00000000
00000000
00010000
00000000
00000010
00000000
00000000
00000010
00000000
00000000
00000010
00000000
,
00000100
00000000
00000000
00000100
00000000
00000000
00000100
00000000
00000001
00000000
00000000
00000001
00000000
00000000
00000001
00000000
,
00000010
00000000
00000000
00000010
00000000
00000000
00000010
00000000
00000100
00000000
00000000
00000100
00000000
00000000
00000100
00000000
,
00010000
00000000
00000000
00010000
00000000
00000000
00010000
00000000
00001000
00000000
00100000
00000000
01000000
00000000
10000000
00000000
,
00100000
00000000
00000000
00100000
00000000
00000000
00100000
00000000
10000000
00000000
00000000
10000000
00000000
00000000
10000000
00000000
,
00010000
00100000
10000000
00100000
00010000
01000000
00001000
00010000
,
00000100
00000010
00000100
00000010
00000001
00000100
00000001
00000100
,
00000010
00000000
00000000
00000010
00000000
00000000
00000010
00000000
00010000
00000000
00000000
00010000
00000000
00000000
00010000
00000000
,
00001000
00100000
10000000
00100000
00001000
01000000
00100000
00000000
,
20000000
00000000
31000000
00100000
00001000
00000000
00001000
00000000
,
00010000
00000010
00000001
00000010
00010000
00000100
00000010
00000000
,
00000002
00000000
00000013
00000100
00010000
00001000
00010000
00000000
,
01001000
00000000
00000000
01000000
00000000
00000000
01000000
00000000
00100000
00000000
10000000
00000000
01000000
00000000
00000000
00000000
,
11000000
00000000
00000000
10000000
00000000
00000000
10000000
00000000
00010000
00000000
01000000
00000000
00010000
00000000
00000000
00000000
,
01000000
00100000
01000000
00000000
00001000
00010000
00001000
00000000
,
00010000
00000100
00000010
00000001
00000010
00000100
00010000
00000001
,
00000100
00000001
00000100
00000001
00010000
00000010
00010000
00000010
,
00001000
00010000
00001000
00010000
00100000
01000000
00100000
01000000
,
10000000
00000000
01000000
10000000
00010000
00000000
10010000
00000000
,
11000000
11000000
01100000
01100000
,
00001000
00010000
00001000
00000000
00010000
00000010
00000100
00000000
,
00000110
00000110
00000101
00000101
,
00000010
00000100
00000010
00000000
00010000
00001000
01000000
00000000
,
00100000
10000000
00100000
00000000
10000000
01000000
00100000
00000000
,
00010000
01000000
10000000
01000000
00010000
00100000
01000000
00000000
,
11000000
11000000
00101000
00101000
,
00010000
00000000
00010000
00000100
00000010
00000000
00000110
00000000
,
00000101
00000101
00010100
00010100
,
00010000
00001000
00010000
00000000
00001000
01000000
00100000
00000000
,
10000000
01000000
00100000
00000000
00010000
00100000
01000000
00000000
,
10000000
00100000
10000000
00000000
00100000
01000000
00001000
00000000
,
00010000
00001000
00010000
00000000
00001000
00010000
00000010
00000000
,
00000100
00000001
00000010
00001000
00000010
00000001
00000100
00000010
,
00000100
00000001
00000010
00000100
00010000
00001000
00100000
01000000
,
00100000
00000000
00000000
00100000
00000000
00000000
00100000
00000000
00001000
00000000
10000000
00000000
01000000
00000000
00000000
00000000
,
00100000
00000000
00000000
00100000
00000000
00000000
00100000
00000000
00001000
00000000
00010000
00000000
00000100
00000000
00000000
00000000
,
00000010
00000000
00000000
00000010
00000000
00000000
00000010
00000000
00000001
00000000
00000100
00000000
00000010
00000000
00000000
00000000
,
00010000
00000000
00000000
00010000
00000000
00000000
00010000
00000000
00001000
00000000
00100000
00000000
01000000
00000000
00100000
00000000
,
00001000
00000000
00000000
00001000
00000000
00000000
00001000
00000000
00010000
00000000
00000000
00010000
00000000
00000000
00010000
00000000
,
00000100
00000010
00000001
00000010
00000100
00000010
00000001
00000010
,
00000100
00010000
00001000
00010000
00000100
00010000
00001000
00100000
,
01000000
10000000
00100000
10000000
01000000
10000000
00100000
10000000
,
01000000
00100000
00010000
00001000
00000100
00000010
00000001
00001000
,
00000020
00000000
00000100
00000000
00000130
00000001
00001000
00000000
,
00000001
00000010
00000100
00001000
00010000
00100000
01000000
00000000
,
10000000
00010000
00100000
00010000
10000000
00010000
00100000
00010000
,
20000000
00000000
01000000
00000000
31000000
00000000
00100000
00001000
,
00020000
00001000
00031000
00000010
,
00000100
00000010
00000100
00000000
00000001
00001000
00000100
00000010
,
00000001
00000100
00001000
00000100
00000001
00000010
00000100
00010000
,
00001000
00100000
01000000
10000000
,
00001000
00100000
01000000
10000000
,
00100000
01000000
00001000
00010000
,
00000010
00000100
00000001
00001000
,
00000001
00000010
00000100
00000010
,
00000001
00010000
00000100
00010000
,
00000001
00001000
00010000
01000000
,
01100000
00000000
00100000
10000000
00100000
00000000
01000000
00100000
,
01000000
00000000
00100000
10000000
00100000
00000000
01000000
00100000
,
01000000
00000000
00001000
00100000
00001000
00000000
01000000
00100000
,
01000000
00000000
00001000
00100000
00001000
00000000
01000000
00100000
,
01000000
00001000
00010000
00000000
00001000
00010000
00000010
00000000
,
00000100
00000001
00000010
00000000
00000001
00000010
00000100
00000000
,
00000010
00000100
00010000
00001000
01000000
00100000
10000000
00100000
,
01000000
00001000
00010000
00000010
00000100
00000001
00000010
00000100
,
00002002
00000000
00000000
00003003
,
00000101
00000000
00000000
00000100
00000000
00000000
00000100
00000000
00000010
00000000
00000000
00010000
00000000
00000000
00001000
00000000
,
10000000
00000000
00000000
10000000
00000000
00000000
10000000
00000000
00010000
00000000
00000000
01000000
00000000
00000000
00001000
00000000
,
00010000
00000000
00000000
00010000
00000000
00000000
00010000
00000000
00000100
00000000
00000000
00000010
00000000
00000000
00000001
00000000
,
00000100
00000000
00000000
00000100
00000000
00000000
00000100
00000000
00000001
00000000
00000010
00000000
00000100
00000000
00010000
00000000
,
00001000
00000000
00000000
00001000
00000000
00000000
00001000
00000000
01000000
00000000
00000000
00010000
00000000
00000000
01000000
00000000
,
00100000
10000000
01000000
10000000
00100000
01000000
00010000
00100000
,
00001000
00010000
00000010
00000001
00000010
00010000
00000100
00000010
,
00000001
00001000
00000010
00001000
00000001
00001000
00000010
00000000
,
00001000
00000100
00000010
00000001
00010000
00001000
00100000
01000000
,
20000000
00000000
00010000
00000000
30010000
10000000
00010000
00000000
,
01000000
00100000
10000000
00100000
01000000
00010000
00001000
00000010
,
00000100
00000001
00000010
00000100
00001000
00000010
00010000
00000000
,
00001000
00000000
00000000
00001000
00000000
00000000
00001000
00000000
00100000
00000000
10000000
00000000
00100000
00000000
00001000
00000000
,
01000000
00100000
01000000
00000000
00001000
00010000
00000100
00000010
,
00000001
00000000
00000000
00000001
00000000
00000000
00000001
00000000
00000100
00000000
00000000
00000100
00000000
00000000
00000100
00000000
,
00000001
00000010
00000100
00001000
00010000
00100000
01000000
10000000
,
00010000
00100000
00010000
10000000
01000000
10000000
00001000
00100000
,
00001000
00010000
00000010
00010000
00000100
00000010
00000100
00010000
,
00001000
00100000
01000000
10000000
00100000
00001000
00100000
10000000
,
01000000
00100000
00001000
00010000
00000100
00000010
00000001
00000100
,
00000220
00000000
00000000
00000000
,
00000000
00000000
00000000
00000000
,
00000330
00000000
00000000
00000000
;

//---------------dance-double - ----------------
#NOTES:
     dance-double:
     :
     Challenge:
     18:
     1.000,1.000,0.241,0.124,0.493:
00000000
00000000
00000000
00000000
,
00000000
00000000
00000000
00000000
,
00000000
00000000
00000000
00000000
,
00000000
00000000
00000000
00000000
,
00000000
00000000
00000000
00000000
,
00000000
00000000
00000000
00000000
,
00000000
00000000
00000000
00000000
,
10000000
00010000
10000000
00000000
01000000
10000000
01000000
00000000
,
00100000
00000000
01000000
00000000
00100000
00000000
00001000
00000000
00010000
00000000
00000010
00010000
00000010
00010000
00000010
00010000
,
00000001
00000100
00000010
00001000
00000100
00001000
00000010
00000100
,
00000001
00010000
00000100
00010000
00000001
00010000
00000100
00010000
,
00000001
00000010
00000100
00001000
00010000
00100000
01000000
10000000
,
00100000
00000000
00000000
01000000
00000000
00000000
01010000
00000000
00000000
00000000
00000000
00000000
01100000
00000000
00000000
00000000
00101000
00000000
00000000
00000000
00011000
00000000
00000000
00000000
,
00010010
00000010
00000100
00000010
00010000
00000010
00000100
00000101
,
00000000
00001001
00001000
00000100
00000010
00000001
00000010
00000100
,
00010000
00001000
00100000
01000000
10000000
01000000
00100000
00001000
,
01000000
00000000
10000000
00000000
01000000
00000000
00100000
00000000
10000000
00000000
00001000
01000000
00001000
01000000
00001000
01000000
,
00001000
00010000
00001000
00000000
00010000
00000100
00010000
00000000
,
00000100
00000010
00000001
00000100
00000010
00000100
00000001
00000000
,
00000010
00000100
00001000
00010000
00100000
01000000
10000000
00100000
,
01000000
00000000
00000000
00001000
00000000
00000000
00011000
00000000
00000000
00000000
00000000
00000000
00010010
00000000
00000000
00000000
00000110
00000000
00000000
00000000
00000101
00000000
00000000
00000000
,
00001001
00001000
00000010
00010000
00001000
00010000
00000001
00000101
,
00000000
00000000
00000110
00000000
00000010
00000000
00000100
00000000
00010000
00000000
00001000
00000000
01000000
00000000
00100000
01000000
,
00100000
10000000
00100000
10000000
01000000
10000000
00100000
10000000
,
01000000
00000000
00100000
00000000
00001000
00000000
00010000
00000000
00000010
00000000
00000100
00000001
00000100
00000000
00000001
00001000
,
00000002
00000000
00000000
00000010
00000000
00000000
00000013
00000000
00000200
00000000
00000000
00000010
00000000
00000000
00000310
00000000
,
00000002
00000000
00000000
00001000
00000000
00000000
00001003
00000000
00000200
00000000
00000000
00010000
00000000
00000000
00010300
00000000
,
00002000
00000000
00000000
00100000
00000000
00000000
00103000
00000000
02000000
00000000
00000000
10000000
00000000
00000000
13000000
00000000
,
00200000
00000000
00000000
01000000
00000000
00000000
01300000
00000000
00010000
00000000
00100000
00000000
01000000
00000000
00100000
00000000
,
00002000
00000000
00000000
00010000
00000000
00000000
00013000
00000000
00000200
00000000
00000000
00000010
00000000
00000000
00000310
00000000
,
00000001
00000100
00000010
00001000
00000100
00010000
00001000
00100000
,
00010000
01000000
10000000
01000000
00010000
00100000
01000000
10000000
,
00200000
00000000
00000000
01000000
00000000
00000000
01300000
00000000
00002000
00000000
00000000
00010000
00000000
00000000
00013000
00000000
,
00000100
00000010
00000001
00000010
00000100
00010000
00001000
00000000
,
01000000
00000000
00000000
00000000
00100000
00000000
00000000
00000000
01000000
00000000
00000000
00000000
00100000
00000000
00000000
00000000
00000000
00000000
10000000
00000000
00000000
00000000
00000000
00000000
01000000
00000000
00000000
00000000
00000000
00000000
00000000
00000000
00000000
01000000
00000000
00000000
00000000
00000000
00000000
00000000
00000000
00000000
01000000
00000000
00000000
00000000
00000000
00000000
,
10000000
00100000
01000000
00001000
00010000
00000010
00000100
00000000
,
00000001
00001000
00000001
00000000
00000010
00000000
00000100
00000000
00000010
00000000
00000001
00000000
00000100
00000000
00000010
00000000
,
00020000
00000000
00000000
00001000
00000000
00000000
00031000
00000000
01000000
00000000
00100000
00000000
01000000
00000000
00010000
10000000
,
00020000
00000000
00000000
10000000
00000000
00000000
10030000
00000000
00002000
00000000
00000000
01000000
00000000
00000000
01003000
00000000
,
00000010
00000000
00000000
00000100
00000000
00000000
00000001
00000000
00000010
00000000
00000000
00000001
00000000
00000000
00000010
00000000
,
00000100
00010000
00001000
01000000
00100000
10000000
00100000
01000000
,
00010000
00001000
00000100
00000010
00000100
00001000
00000100
00000010
,
00000001
00000000
00000100
00000000
00000010
00000000
00000100
00000001
00000100
00000000
00000001
00001000
00000001
00001000
00000100
00001000
,
00000100
00010000
00001000
00100000
01000000
10000000
10010000
00000000
,
01000000
00010000
01010000
00000000
00100000
01000000
01100000
00000000
,
10000000
00100000
00010000
00100000
01000000
00001000
00010000
00000000
,
00000010
00000100
00000110
00000000
00000001
00000010
00000011
00000000
,
00000001
00000100
00001000
00000100
00000010
00010000
00001000
00000000
,
10000000
00100000
10100000
00000000
01000000
00100000
01100000
00000000
,
01000000
10000000
00010000
01000000
00010000
10000000
01000000
00000000
,
00100000
00001000
00011000
00000000
00000100
00000010
00000011
00000000
,
00001001
00001000
00000010
00000100
00000010
00010000
00011000
00000000
,
00100000
01000000
01100000
00000000
10000000
00010000
10010000
00000000
,
01000000
00010000
10000000
01000000
10000000
00010000
01000000
00000000
,
00001000
00010000
00010010
00000000
00000100
00000001
00001001
00000000
,
00001000
00000001
00000010
00000001
00001000
00000001
00000010
00000000
,
00000100
00010000
00011000
00000000
00100000
01000000
01100000
00000000
,
10000000
01000000
00010000
01000000
10000000
00100000
10000000
00010000
,
00100000
00001000
00010000
00000010
00000100
00000001
00000010
00000100
,
00001000
00000000
00000001
00000100
00000001
00000000
00010000
00000000
00001000
00000000
01000000
00100000
01000000
00000000
00010000
00000000
,
10000000
00000000
01000000
10000000
01000000
00000000
00100000
00000000
00001000
00000000
00010000
00000010
00010000
00000000
00000010
00000000
,
00000100
00000000
00000001
00001000
00000001
00000000
00000010
00000000
00000100
00000000
00010000
00001000
00010000
00000000
00001000
00000000
,
01000000
00000000
00010000
10000000
00010000
00000000
10000000
00000000
01000000
00000000
00010000
00000000
01000000
00000000
10000000
00000000
,
00010000
00000000
00100000
00010000
00100000
00000000
00001000
00000000
00010000
00000000
00000010
00001000
00000010
00000000
00000100
00000000
,
00000001
00000010
00001000
00000010
00000001
00000100
00001000
00000100
,
00000001
00000010
00000100
00010000
00001000
00100000
01000000
10000000
,
00010000
00000000
01000000
00000000
00001000
00000000
00010000
00001000
00010000
00000000
00000010
00001000
00000010
00000000
00000100
00000010
,
00000100
00000001
00001000
00000010
00000001
00000010
00001000
00000100
,
00010000
00000000
00000000
00000000
00001000
00000000
00000000
00000000
00100000
00000000
00000000
00000000
01000000
00000000
00000000
00000000
00000000
00000000
10000000
00000000
00000000
00000000
00000000
00000000
00010000
00000000
00000000
00000000
00000000
00000000
01000000
00000000
00000000
00010000
00000000
00000000
01000000
00000000
00000000
00000000
00000000
00000000
00010000
00000000
00000000
00000000
00000000
00000000
,
10000000
01000000
00010000
01000000
10000000
00010000
00100000
00001000
,
00010000
00000010
00010000
00000000
00000010
00000000
00000100
00000000
00000001
00000000
00000100
00000000
00001000
00000000
00000100
00000000
,
00000001
00001000
00000001
00001000
00000001
00000000
00000010
00000000
00000100
00000000
00010000
00000000
00001000
00000000
00100000
00000000
,
01000000
10000000
01000000
10000000
01000000
00000000
00100000
00000000
00010000
00000000
00000000
01000000
00000000
00000000
00001000
00000000
,
00010000
00001000
00010000
00001000
00010000
00000000
00001000
00000000
00100000
00000000
01000000
00000000
00100000
00000000
00001000
00000000
,
00010000
00000000
00010000
00000000
00000010
00000000
00000010
00000000
00000100
00000000
00000001
00001000
00000001
00001000
00000001
00001000
,
00000001
00000000
00001000
00000100
00000010
00000100
00010000
00001000
,
00100000
00000000
01000000
00100000
00010000
01000000
10000000
01000000
,
00001000
01000000
00100000
01000000
00001000
01000000
00100000
01000000
,
00001000
00010000
00000100
00000010
00000001
00000010
00000100
00010000
,
00001000
00000000
00100000
01000000
00100000
00001000
00010000
00000100
,
00000001
00000100
00010000
00000010
00000100
00000010
00010000
00001000
,
00100000
00000000
10000000
00000000
00100000
00000000
00001000
00000000
01000000
00000000
00100000
00000000
10000000
00000000
01000000
00100000
,
01000000
00000000
00000000
01000000
10000000
00000000
00000000
00000000
00010000
00000000
00000000
00010000
00100000
00000000
00000000
00000000
,
00001000
00000000
00000000
00001000
00010000
00000000
00000000
00000000
00000100
00000000
00000000
00000100
00000010
00000000
00000000
00000000
,
00000001
00000000
00000000
00000001
00000100
00000000
00000000
00000000
00000001
00000000
00000000
00000001
00001000
00000000
00000000
00000000
,
00000100
00000000
00000000
00000100
00010000
00000000
00000000
00000000
00001000
00000000
00000000
00001000
01000000
00000000
00100000
00000000
,
10000000
00000000
00010000
00100000
00010000
00000000
00100000
00000000
00001000
00000000
00010000
00001000
00010000
00000000
00000010
00000000
,
00000100
00000000
00000001
00000100
00000001
00000000
00001000
00000000
00000100
00000000
00010000
00000100
00010000
00000000
00001000
00000000
,
00100000
00000000
01000000
10000000
01000000
00000000
00100000
00000000
00010000
00000000
10000000
00100000
10000000
00000000
00100000
00000000
,
01000000
00000000
00001000
00010000
00001000
00000000
00010000
00000100
00010000
00000000
00000010
00000100
00000010
00000100
00000010
00000100
,
00000020
00000000
00000000
00000130
,
00000001
00000000
00000010
00000001
00000010
00000000
00000100
00000000
00010000
00000000
00001000
01000000
00100000
00000000
10000000
00000000
,
01000000
00000000
00100000
00010000
00100000
00000000
00001000
00000000
00010000
00000000
00000100
00001000
00000010
00000000
00000100
00000000
,
00000001
00000000
00000010
00000001
00000010
00000000
00000100
00000000
00010000
00000000
00001000
00100000
01000000
00000000
10000000
00000000
,
00010000
00000000
01000000
00100000
01000000
00000000
00001000
00000000
00010000
00000000
00010000
00000000
00000010
00000000
00000010
00000000
,
00000100
00000000
00000001
00001000
00000001
00000000
00001000
00000000
00000100
00000000
00010000
00001000
01000000
00000000
00100000
00000000
,
10000000
10000000
00010000
00010000
00100000
00100000
00010000
00001000
,
00000010
00000010
00000100
00000100
00000001
00000001
00000010
00000100
,
00010000
00000000
00001000
00010000
00001000
00000000
01000000
00100000
01000000
00000000
00010000
10000000
00010000
10000000
00010000
10000000
,
00010000
00100000
10000000
01000000
10000000
00100000
00010000
01000000
,
00001000
00000000
00000000
00000000
00010000
00000000
00000000
00000000
00000100
00000000
00000000
00000000
00000010
00000000
00000000
00000000
00000000
00000000
00000001
00000000
00000000
00000000
00000000
00000000
00000100
00000000
00000000
00000000
00000000
00000000
00000010
00000000
00000000
00000100
00000000
00000000
00000010
00000000
00000000
00000000
00000000
00000000
00000100
00000000
00000000
00000000
00000000
00000000
,
00000001
00000001
00000100
00000100
00000010
00000010
00001000
00010000
,
00100000
00000000
01000000
10000000
01000000
00000000
10000000
00000000
00100000
00000000
01000000
00000000
00100000
00000000
10000000
00000000
,
00001000
00100000
00001000
00100000
00001000
00000000
00010000
00000000
00000100
00000000
00000010
00000000
00000100
00000000
00010000
00000000
,
00000001
00000010
00000001
00000010
00000001
00000000
00000000
00000000
00000100
00000000
00000010
00000100
00000010
00000000
00010000
00000000
,
00001000
01000000
00001000
01000000
00001000
00000000
01000000
00000000
00100000
00000000
10000000
00010000
10000000
00000000
01000000
00000000
,
00100000
00000000
00100000
00000000
00001000
00000000
00001000
00000000
00010000
00000000
00010000
00000000
00000100
00000000
00000010
00000001
,
00000010
00000100
00010000
00001000
01000000
00100000
01000000
00001000
,
00100000
00000000
01000000
10000000
01000000
10000000
00010000
00000000
01000000
00000000
00001000
00010000
00001000
00010000
00000010
00000000
,
00000100
00000000
00000001
00001000
00000001
00000000
00010000
00000100
00010000
00000000
00001000
10000000
00001000
10000000
00001000
10000000
,
01000000
00000000
10000000
01000000
10000000
01000000
00100000
00001000
00100000
00001000
00010000
00000100
00000010
00000001
00000010
00000100
,
00020000
00000000
00000000
00000000
,
00000000
00000000
00000000
00000000
,
00030000
00000000
00000000
00000000
;

//---------------dance-single - ----------------
#NOTES:
     dance-single:
     :
     Beginner:
     5:
     0.169,0.302,0.047,0.000,0.000:
0000
0000
0000
0000
,
0000
0000
0000
0000
,
0000
0000
0000
0000
,
0000
0000
0000
0000
,
0000
0000
0000
0000
,
0000
0000
0000
0000
,
0000
0000
0000
0000
,
0000
0000
0000
0000
,
0000
0000
0000
0000
,
1000
0000
0000
0000
,
0001
0000
0000
0000
,
1000
0000
0000
0000
,
0001
0000
0000
0000
,
0010
0000
0000
0000
,
0100
0000
0000
0000
,
1000
0000
0001
0000
,
1000
0000
0000
0000
,
0001
0000
1000
0000
,
0001
0000
0000
0000
,
1000
0000
0001
0000
,
1000
0000
0000
0000
,
0010
0000
1000
0000
,
0010
0000
0000
0000
,
0100
0000
0001
0000
,
0100
0000
0001
0000
,
1000
0000
0000
0000
,
0000
0000
0000
0000
,
0000
0000
0000
0000
,
0000
0000
0000
0000
,
0001
0000
0000
0000
,
0000
0000
0000
0000
,
0000
0000
0000
0000
,
0000
0000
0000
0000
,
1001
0000
0000
0000
,
1000
0000
0000
0000
,
0001
0000
0000
0000
,
0001
0000
0000
0000
,
1000
0000
0000
0000
,
1000
0000
0000
0000
,
0001
0000
0000
0000
,
1000
0000
0000
0000
,
1001
0000
0000
0000
,
0010
0000
0000
0000
,
0110
0000
0000
0000
,
0100
0000
1000
0000
,
0100
0000
0000
0000
,
0010
0000
0001
0000
,
0010
0000
0000
0000
,
0001
0000
1000
0000
,
0001
0000
0000
0000
,
0010
0000
0000
0000
,
0100
0000
1000
0000
,
0100
0000
0000
0000
,
0010
0000
0100
0000
,
0010
0000
0000
0000
,
0001
0000
0010
0000
,
0001
0000
0000
0000
,
1000
0000
0001
0000
,
1000
0000
0001
0000
,
0100
0000
0010
0000
,
0100
0000
0000
0000
,
0001
0000
0100
0000
,
0001
0000
0000
0000
,
1000
0000
0100
0000
,
1000
0000
0000
0000
,
0010
0000
0100
0000
,
0010
0000
0100
0000
,
0001
0000
1000
0000
,
0100
0000
0000
0000
,
0010
0000
0001
0000
,
0010
0000
0001
0000
,
0100
0000
0000
0000
,
0010
0000
1000
0000
,
0001
0000
0100
0000
,
0001
1000
0001
1000
,
0001
0000
0000
0000
,
0010
0000
0000
0000
,
0100
0000
0000
0000
,
1000
0000
0000
0000
,
0001
0000
0000
0000
,
0010
0000
0000
0000
,
0100
0000
0000
0000
,
1001
0000
0000
0000
,
0001
0000
0000
0000
,
1000
0000
0000
0000
,
0001
0000
0000
0000
,
1000
0000
0000
0000
,
0001
0000
0000
0000
,
1000
0000
0000
0000
,
0001
0000
0000
0000
,
1001
0000
0000
0000
,
1000
0000
0100
0000
,
1000
0000
0100
0000
,
0010
0000
0001
0000
,
0010
0000
0001
0000
,
0100
0000
0010
0000
,
0100
0000
0100
0000
,
0001
0000
0001
0000
,
1000
0000
1000
0000
,
0010
0000
1000
0000
,
0001
0000
0000
0000
,
0010
0000
0001
0000
,
0100
0000
0010
0000
,
1000
0000
0000
0000
,
0001
0000
1000
0000
,
0100
0000
0010
0000
,
0001
1000
0001
1000
,
0001
0000
1000
0000
,
0100
0000
0010
0000
,
0001
0000
0100
0000
,
0010
0100
0010
0100
,
1001
0000
0000
0000
;
