#TITLE:FEEL ALIVE;
#SUBTITLE:;
#ARTIST:ELEMENTAS feat. NAGISA;
#TITLETRANSLIT:;
#SUBTITLETRANSLIT:;
#ARTISTTRANSLIT:;
#CREDIT:DigiMindAxel;
#BANNER:FEEL ALIVE.png;
#BACKGROUND:FEEL ALIVE-bg.png;
#LYRICSPATH:;
#CDTITLE:maimai.png;
#MUSIC:FEEL ALIVE.ogg;
#METERTYPE:DDR X;
#OFFSET:-0.053;
#SAMPLESTART:56.237;
#SAMPLELENGTH:12.000;
#SELECTABLE:YES;
#BPMS:0.000=162.000;
#STOPS:;
#BGCHANGES:-0.500=FEEL ALIVE.avi=1.000=1=1=0,
99999=-nosongbg-=1.000=0=0=0 // don't automatically add -songbackground-
;

//---------------dance-single - ----------------
#NOTES:
     dance-single:
     :
     Easy:
     6:
     0.299,0.335,0.085,0.049,0.000: // measure 1
0000
0000
0000
0000
,  // measure 2
0000
0000
0000
0000
,  // measure 3
0000
0000
0000
0000
,  // measure 4
0000
0000
0000
0000
,  // measure 5
0001
0000
0001
0000
,  // measure 6
0001
0000
0001
0000
,  // measure 7
1000
0000
1000
0000
,  // measure 8
1000
0000
1000
0000
,  // measure 9
1001
0000
0001
1000
,  // measure 10
0001
0000
1000
0001
,  // measure 11
1000
0000
0100
1000
,  // measure 12
0100
0000
0010
0001
,  // measure 13
0120
0000
0130
0000
,  // measure 14
0210
0000
0310
0000
,  // measure 15
1000
0001
1000
0001
,  // measure 16
0100
0001
0100
0000
,  // measure 17
0010
1000
0010
1000
,  // measure 18
0001
1000
0001
1000
,  // measure 19
0001
0010
0001
0010
,  // measure 20
0100
0010
0100
0000
,  // measure 21
1000
0010
1000
0010
,  // measure 22
0100
0001
0010
0100
,  // measure 23
1000
0001
1000
0000
,  // measure 24
0100
1000
0100
0000
,  // measure 25
0010
0001
0010
0000
,  // measure 26
0001
1000
0001
0000
,  // measure 27
0100
0010
0100
0000
,  // measure 28
0001
1000
0001
0000
,  // measure 29
0010
0001
0010
0000
,  // measure 30
0100
0010
0100
1000
,  // measure 31
0001
1000
0001
1000
,  // measure 32
0001
0100
0001
0000
,  // measure 33
1000
0001
1000
0001
,  // measure 34
1000
0100
1000
0000
,  // measure 35
0010
0100
0010
0100
,  // measure 36
0001
0100
0001
0000
,  // measure 37
0010
0100
0010
0100
,  // measure 38
1000
0010
1000
0000
,  // measure 39
1001
1000
0001
0000
,  // measure 40
0010
0001
0010
0000
,  // measure 41
0100
0010
0100
1000
,  // measure 42
0001
0000
1000
0000
,  // measure 43
1001
1000
0001
0000
,  // measure 44
0010
0001
0010
0001
,  // measure 45
0100
0010
1000
0010
,  // measure 46
0100
0000
0100
0000
,  // measure 47
0110
0010
0100
0000
,  // measure 48
0001
1000
0100
0000
,  // measure 49
1000
0100
0010
0001
,  // measure 50
1000
1000
0001
0001
,  // measure 51
1000
0010
0100
0000
,  // measure 52
0010
0100
0001
0000
,  // measure 53
1000
1000
0001
0001
,  // measure 54
1000
0100
0010
0001
,  // measure 55
2002
0000
0000
0000
,  // measure 56
3003
0000
0000
0000
;

//---------------dance-single - ----------------
#NOTES:
     dance-single:
     :
     Medium:
     9:
     0.475,0.502,0.243,0.049,0.000:
0000
0000
0000
0000
,
0000
0000
0000
0000
,
0000
0000
0000
0000
,
0000
0000
0000
0000
,
0001
0000
0001
0000
,
0001
0000
0001
0000
,
1000
0000
1000
0000
,
1000
1000
0001
0001
,
1001
0000
1000
0010
1000
0000
0010
0000
,
0100
0001
0100
0000
0001
0000
1000
0000
,
0100
1000
0100
0000
1000
0000
0001
0000
,
0010
0001
0010
0000
0001
1000
0001
0000
,
0022
0000
0033
0010
,
1001
0000
0110
0000
,
0010
0001
0010
0000
0001
0000
1000
0000
,
0100
1000
0100
0000
1000
0010
1000
0000
,
0001
1000
0001
0000
0100
0001
0100
0000
,
0001
0010
0001
0010
0001
0100
0010
0000
,
1000
0100
1000
0000
0010
0000
0100
0000
,
0001
1000
0001
0000
0100
0000
0010
0000
,
1000
0001
1000
0000
0100
1000
0100
0000
,
1000
0100
1000
0001
1000
0001
1000
0100
,
1000
0100
1000
0100
,
1000
0001
1000
0001
,
0100
0001
0100
0001
,
0010
0100
1000
0010
,
0100
0001
0100
0001
,
1000
0001
1000
0001
,
0100
0001
0100
0001
,
1000
0100
0000
1000
0000
0100
1000
0000
,
1001
0000
0001
0100
0001
0000
0100
0000
,
0010
1000
0010
0000
1000
0001
1000
0000
,
0100
1000
0100
1000
0010
0100
0010
0000
,
1000
0100
0010
0001
,
1000
0100
1000
0100
1000
0010
0100
0000
,
0001
0100
0010
1000
,
0001
1000
0001
0000
0010
0000
0100
1000
,
0000
0001
0000
1000
0000
0001
1000
0000
,
1001
0000
1001
0000
1001
0000
1000
0001
,
0000
0010
0000
0100
0000
1000
0001
0000
,
1000
0010
1000
0010
0100
0000
0010
0000
,
0100
0001
0010
0000
0100
1000
0010
0000
,
1001
0000
1001
0000
1001
0000
0001
1000
,
0000
0100
0000
0010
0000
0001
1000
0000
,
0100
1000
0100
0000
0010
0100
0010
0000
,
0001
0010
0001
0010
0001
0010
0001
0000
,
1001
0000
1001
0000
1000
0100
1000
0000
,
1001
0000
1001
0000
0001
0010
0001
0000
,
0100
0010
0010
0000
1000
0001
1000
0000
,
0010
0100
0001
0100
0001
0100
0010
0000
,
1001
0000
1001
0000
1000
0010
1000
0000
,
1001
0000
1001
0000
0001
0100
0001
0000
,
0010
0100
0100
0000
1000
0100
0010
0000
,
0001
1000
0010
1000
0010
1000
0001
0000
,
2002
0000
0000
0000
,
3003
0000
0000
0000
;

//---------------dance-single - ----------------
#NOTES:
     dance-single:
     :
     Hard:
     12:
     0.650,0.736,0.304,0.134,0.329:
0000
0000
0000
0000
,
0000
0000
0000
0000
,
0000
0000
0000
0000
,
0000
0000
0000
0000
,
0001
0001
0001
0001
,
1000
1000
1000
1000
,
0100
0100
0100
0100
,
0010
0001
1000
0000
0100
1000
0001
1000
,
1001
0000
0000
0000
0001
0000
0000
1000
0100
0000
0000
0000
1000
0000
0000
0001
,
0100
0000
0000
0000
0001
0000
0000
0100
0010
0000
0000
0000
0100
0000
0000
0001
,
0010
0000
0000
0000
0100
0000
0000
1000
0001
0000
0000
0000
1000
0000
0000
0010
,
0100
0000
0001
0000
0010
0000
0100
0000
1000
0001
1000
0000
0001
0000
0100
0000
,
0101
0000
0000
0001
0000
0000
0001
0000
0000
0000
0010
0000
0100
0000
1000
0000
,
2200
3300
0022
0033
,
0001
0000
0000
0100
0000
0000
1000
0000
0100
0000
0000
0001
0100
0000
0010
0000
,
1000
0000
0000
0100
0000
0000
0001
0000
0100
0000
0000
1000
0010
0000
0100
0000
,
0001
1000
0001
0000
1000
0000
0000
0100
0000
1000
0000
0100
0000
1000
0001
0000
,
1000
0100
1000
0000
0001
0000
0100
0000
1000
0000
0100
0000
0001
0000
1000
0000
,
1001
0000
0000
0001
0000
0000
0001
0000
0100
0000
0000
0001
1000
0000
0100
0000
,
0010
0000
0000
0010
0000
0000
0010
0000
0100
0000
0000
1000
0001
0000
0100
0000
,
0010
1000
0010
0000
1000
0000
0000
0001
0000
0010
0000
0001
0000
0010
0100
0000
,
1000
0001
1000
0000
0010
0000
0100
0000
0001
1000
0001
0000
1000
0001
1000
0000
,
1001
0000
0001
0000
1000
0010
0100
0010
,
1000
0000
0001
0000
0010
0100
1000
0100
,
0020
0001
0000
0001
0000
0031
1000
0010
,
1000
0000
0100
0010
0001
0010
0100
0000
,
1100
0000
0100
1000
0100
0000
0010
0100
,
0010
0000
0001
1000
0010
1000
0001
0000
,
0200
0001
0000
0001
0000
0301
1000
0000
,
1010
0010
0000
0010
0000
0010
0110
0000
,
1001
1010
1001
0101
,
0001
1000
0100
0010
0100
1000
0001
0000
,
0100
0010
1000
0010
0100
0001
0000
0001
,
2000
0100
0000
0100
0000
3100
1000
0001
,
1001
0000
0010
0001
0100
0001
0010
0100
,
0000
0100
1000
0010
0100
0001
0010
0001
,
1000
0000
0100
0000
0010
0100
1000
1001
,
0000
0001
0000
0001
0000
0001
1001
0000
,
1100
0000
0011
0000
1100
0000
1000
0001
,
0100
1000
0100
0010
1000
0001
1000
0000
,
0001
0100
0001
0000
1000
0000
0100
0000
0010
0000
0001
0000
0100
0000
1000
0000
,
0100
0002
1000
1003
0000
0020
1000
1030
,
1001
0000
0101
0000
1010
0000
1000
0001
,
0010
1000
0010
0100
1000
0001
0100
0000
,
0001
1000
0001
0000
0100
0000
0010
0000
1000
0000
0010
0000
0100
0000
0001
0000
,
1000
0000
0100
1000
0100
1000
0100
0000
1000
0000
0001
0000
0100
0000
0001
0000
,
1001
0000
0000
1000
0000
0000
1000
0000
0010
0000
0000
0100
0001
0000
0010
0000
,
0100
0000
0000
0100
0000
0000
0100
0000
0010
0000
0000
0001
1000
0000
0010
0000
,
0100
0001
0100
0000
0001
0000
0000
1000
0000
0100
0000
1000
0000
0100
1000
0000
,
0001
0010
1000
0010
0001
0010
0100
1000
,
1001
0000
0000
0001
0000
0000
0001
0000
0010
0000
0000
0100
0010
0000
0001
0000
,
0100
0000
0000
0100
0000
0000
0100
0000
0010
0000
0000
1000
0001
0000
0010
0000
,
0100
1000
0100
0000
1000
0000
0000
0001
0000
0100
0000
0001
0000
0100
0001
0000
,
1000
0000
0010
0000
0001
0000
0010
0000
1000
0100
1000
0000
0001
0010
0001
0000
,
2002
0000
0000
0000
,
3003
0000
0000
0000
;

//---------------dance-single - ----------------
#NOTES:
     dance-single:
     :
     Challenge:
     15:
     0.857,0.970,0.207,0.085,0.797:
0000
0000
0000
0000
,
0000
0000
0000
0000
,
0000
0000
0000
0000
,
0000
0000
0000
0000
,
1000
0000
0001
0000
0000
0000
0010
0000
0000
0000
0100
0000
0000
0000
1000
0001
,
1000
0000
0001
0000
0000
0000
0100
0000
0000
0000
0010
0000
0000
0000
1000
0001
,
1000
0100
0000
1000
0000
0001
0000
0100
,
0001
1000
0000
1000
0010
0000
1000
0001
0000
0001
0010
0000
0001
1000
0001
0000
,
1000
0000
0100
0000
1000
0000
0100
1000
0001
0000
0010
0000
0001
0000
0010
0100
,
1000
0000
0010
0000
1000
0000
0010
1000
0001
0000
0100
0000
0001
0000
0100
0010
,
1000
0000
0001
0000
1000
0000
0001
0010
0100
0000
0010
0000
0001
0000
0010
0001
,
1000
0100
1000
0000
0001
0000
0100
0001
0100
0001
0010
0100
0010
0100
1000
0000
,
1001
0000
0000
0110
0000
0000
1001
0000
0000
0000
1000
0000
0100
0000
0010
0000
,
0110
0000
0000
0000
0100
0010
0100
0010
0002
0000
0000
0000
1003
0000
0000
0000
,
0001
0000
1000
0010
0000
0010
1000
0000
0100
0000
0010
0100
1000
0100
1000
0000
,
0001
0000
0100
0001
0000
0001
0100
0000
0001
0000
1000
0100
1000
0100
0010
0000
,
0001
1000
0010
0000
0010
0000
1000
0001
0000
0010
0000
0100
0000
1000
0001
0010
,
0001
0010
0001
0010
0100
1000
0100
1000
0100
1000
0010
0100
0010
0100
0010
0100
,
0001
0000
1000
0010
0000
0010
0100
0000
0001
0000
0100
0001
0100
0001
1000
0000
,
0010
0000
0100
0010
0000
0010
1000
0000
0001
0000
0010
0001
0010
0001
0100
0000
,
0010
1000
0100
0000
0100
0000
1000
0001
0000
0010
0000
0100
0000
1000
0001
0100
,
0001
0100
0001
0100
0010
1000
0010
1000
0010
0100
0010
0100
0010
0100
0010
0100
,
0010
1000
0100
0010
0100
1000
0001
0100
,
0001
0000
1000
0100
1000
0001
0100
0010
,
0200
0001
0000
0001
0000
0301
1000
0100
,
0001
0100
1000
0010
0100
0010
1000
0001
,
1001
0000
0001
0010
0100
0010
0001
1000
,
0010
0000
0100
0010
0100
0001
0010
0100
,
2000
0001
0000
0001
0000
3001
1000
0010
,
0110
0101
0000
0101
0000
0101
1001
0000
,
0001
0100
1000
0001
0010
1000
0001
0010
,
0001
1000
0010
1000
0001
0010
0100
0000
,
1000
0100
0001
1000
0010
0001
1000
0010
,
0200
0001
0000
0001
0000
0301
1000
1000
,
0001
0100
1000
0001
0010
1000
0001
0010
,
0100
0001
0100
0010
0001
1000
0001
0100
,
0001
0000
1000
0001
1000
0100
0010
0011
,
0000
0011
0000
0011
0000
0011
1001
0000
,
1000
0000
0100
0000
0001
0000
0100
0000
1000
0001
0010
0000
0001
0000
1000
0000
,
0020
0100
0000
0100
0000
0130
0001
0000
,
0010
0100
0010
0100
0010
0000
0001
0000
1000
0000
0010
0000
0001
0000
0010
0000
,
1000
0000
0001
0010
0100
0010
0001
0000
0000
0000
0100
0010
1000
0010
0100
0000
,
0110
0000
0000
0000
0001
0000
1000
0000
0010
1000
0001
0000
0010
0000
0100
0000
,
2000
0001
0000
0001
0000
3001
1000
0000
,
0100
0010
0100
0010
0100
0000
1000
0000
0001
0100
0010
0000
0100
0000
0001
0010
,
0001
0010
0100
1000
0010
1000
0010
0100
0001
0100
0001
1000
0100
1000
0100
0000
,
0110
0000
0010
0001
0000
0001
0100
0000
0010
0000
1000
0001
0100
0001
0100
0001
,
1000
0000
0100
1000
0000
1000
0001
0000
0010
0000
0001
1000
0010
1000
0010
1000
,
0001
0010
0100
0000
0100
0000
1000
0001
0000
0100
0000
0010
0000
1000
0010
1000
,
0010
0100
0001
0100
0001
0100
0001
0100
0010
0100
0010
1000
0100
1000
0100
1000
,
0100
0000
1000
0001
0000
0001
0010
0000
0001
0000
1000
0010
0100
0010
1000
0000
,
0100
0000
0010
0100
0000
0100
1000
0000
0001
0000
0010
0100
0010
0001
0100
0010
,
1000
0100
0010
0000
0010
0000
0001
1000
0000
0010
0000
0100
0000
0001
1000
0100
,
0010
0001
0010
0001
0100
0010
0100
0010
1000
0100
0010
0001
0010
0100
1000
0001
,
0200
0000
0000
0000
,
0300
0000
0000
0000
;

//---------------dance-single - ----------------
#NOTES:
     dance-single:
     :
     Beginner:
     2:
     0.132,0.197,0.122,0.000,0.000:
0000
0000
0000
0000
,
0000
0000
0000
0000
,
0000
0000
0000
0000
,
0000
0000
0000
0000
,
0001
0000
0000
0000
,
0000
0000
0000
0000
,
1000
0000
0000
0000
,
0000
0000
0000
0000
,
0001
0000
1000
0000
,
0001
0000
1000
0000
,
0001
0000
1000
0000
,
0001
0000
0001
0000
,
1001
0000
0000
0000
,
0100
0000
0000
0000
,
0010
0000
0100
0000
,
0010
0000
0000
0000
,
1000
0000
0100
0000
,
1000
0000
0000
0000
,
0001
0000
0010
0000
,
0001
0000
0000
0000
,
1000
0000
0010
0000
,
1000
0000
0000
0000
,
1001
0000
0000
0000
,
0001
0000
0000
0000
,
1000
0000
0000
0000
,
0001
0000
0000
0000
,
1001
0000
0000
0000
,
1000
0000
0000
0000
,
0001
0000
0000
0000
,
1000
0000
0000
0000
,
1001
0000
0000
0000
,
0001
0000
0000
0000
,
0010
0000
0000
0000
,
0100
0000
0000
0000
,
1001
0000
0000
0000
,
0100
0000
0000
0000
,
0010
0000
0000
0000
,
0001
0000
0000
0000
,
1001
0000
1000
0000
,
0001
0000
0000
0000
,
1001
0000
0001
0000
,
1000
0000
0000
0000
,
1001
0000
1000
0000
,
0001
0000
0000
0000
,
1001
0000
0001
0000
,
1000
0000
0000
0000
,
0010
0000
0100
0000
,
0010
0000
0000
0000
,
1000
0000
0100
0000
,
1000
0000
0000
0000
,
0001
0000
0010
0000
,
0001
0000
0000
0000
,
0100
0000
0010
0000
,
1000
0000
1000
0000
,
1001
0000
0000
0000
;
