#TITLE:F33L 1T;
#SUBTITLE:;
#ARTIST:DJ Noriken;
#TITLETRANSLIT:;
#SUBTITLETRANSLIT:;
#ARTISTTRANSLIT:;
#CREDIT:DigiMindAxel;
#BANNER:F33L 1T.png;
#BACKGROUND:F33L 1T-bg.png;
#LYRICSPATH:;
#CDTITLE:DigiMindAxel original simfile.png;
#MUSIC:F33L 1T.ogg;
#METERTYPE:DDR X;
#OFFSET:-8.525;
#SAMPLESTART:49.974;
#SAMPLELENGTH:12.000;
#SELECTABLE:YES;
#BPMS:0.000=170.000,40.000=85.000,72.000=170.000;
#STOPS:;
#BGCHANGES:;

//---------------dance-single - ----------------
#NOTES:
     dance-single:
     :
     Easy:
     5:
     0.198,0.255,0.117,0.072,0.000:
1000
0000
1000
0000
,
0001
0000
0001
0000
,
1000
0000
0001
0000
,
1000
0000
0001
0000
,
1000
0000
0100
0000
,
0010
0000
0001
0000
,
1000
0001
1000
0000
,
0001
1000
0001
0000
,
1000
0001
1000
0001
,
2000
0000
0000
0000
,
3010
0000
0000
0000
,
0010
0000
0000
0000
,
0010
0000
0000
0000
,
0200
0000
0000
0000
,
0301
0000
0010
0000
,
0100
0000
1000
0000
,
0001
0000
0010
0000
,
0100
0000
1000
0000
,
0100
0000
0000
0000
,
0100
0000
0000
0000
,
0100
0000
0000
0000
,
1001
0000
0000
0000
,
0001
0000
1000
0000
,
0100
0000
1000
0000
,
0001
0000
0001
0000
,
0010
0000
0100
0000
,
1000
0000
0010
0000
,
0100
0000
0010
0000
,
1000
0000
1000
0000
,
0001
0000
0001
0000
,
0100
0000
0010
1000
,
0010
0000
0100
0010
,
0100
0000
0001
0000
,
1000
0000
0100
0000
,
0010
0000
0001
1000
,
0001
0000
1000
0100
,
1000
0000
0001
0000
,
2002
0000
0000
3003
,
0001
0100
0001
0000
,
1000
0001
1000
0000
,
0100
1000
0100
0000
,
0010
0001
0010
0000
,
0100
0010
0100
0000
,
1000
0100
1000
0000
,
0001
1000
0001
0000
,
1000
0010
1000
0000
,
1001
0000
0001
0010
,
0100
0000
0010
0100
,
1000
0000
0001
1000
,
0001
0000
0000
0000
,
1000
0010
0100
0000
,
0010
0100
0001
0000
,
1000
0001
1000
0000
,
2002
0000
0000
3003
,
1001
0000
0001
0000
,
1001
0000
1000
0000
,
1001
0000
0001
0000
,
1001
0000
1000
0000
,
0110
0000
0001
0000
,
0110
0000
1000
0000
,
0110
0000
0110
0000
,
2002
0000
0000
0000
,
0000
0000
0000
0000
,
3003
0000
0000
0000
;

//---------------dance-single - ----------------
#NOTES:
     dance-single:
     :
     Medium:
     9:
     0.437,0.511,0.423,0.144,0.000:
2000
0000
3020
0000
,
0230
0000
0301
1001
,
1000
1000
0100
0100
,
1000
1000
0001
0001
,
0100
0100
0001
0001
,
1000
1000
0010
0010
,
0100
0010
0100
0010
0100
0010
0100
0000
,
0001
0100
0001
0100
0001
0100
0001
0000
,
1001
1001
0110
0110
,
2002
0000
0000
3003
,
1001
0000
0000
0000
,
0001
0000
0000
0000
,
0100
0000
0000
0000
,
0002
0000
0000
0000
,
1003
0010
1000
0010
0100
0001
0100
0001
,
1000
0100
1000
0100
0010
0001
0010
0001
,
0100
0010
0100
0010
1000
0001
1000
0001
,
0010
0100
0010
0100
1000
0010
1000
0010
,
1000
0010
0100
0010
,
1000
0010
0100
0010
,
1000
0001
0010
0001
,
2002
0000
0000
3003
,
1001
0000
1000
0000
0100
1000
0010
0000
,
0010
0000
0010
0000
0100
0001
0100
0010
,
1000
1000
0100
0100
,
0010
0001
0100
0010
1000
0000
1000
0000
,
0001
0000
0001
0000
0010
0100
1000
0000
,
1000
0000
1000
0000
0100
1000
0010
0100
,
0001
0001
0010
0010
,
0100
0010
0001
0010
0100
0000
0100
0000
,
1001
0000
0001
0000
0100
0010
1000
0010
,
0100
0000
0100
0000
0001
0010
0100
0010
,
0001
0001
0100
0010
,
1000
0100
0010
0001
1000
0000
1000
0000
,
1001
0000
0001
0000
1000
0100
0010
0100
,
1000
0000
1000
0000
0010
0100
0001
0100
,
0010
0010
1000
0001
,
2002
0000
0000
3003
,
0101
0101
0001
0010
,
1100
1100
0010
0001
,
0110
0110
1000
0100
,
0010
0001
0010
0100
1000
0000
0010
0000
,
0101
0101
0010
1000
,
1100
1100
0010
0001
,
1001
1001
0010
0100
,
1000
0100
0010
0001
1000
0000
0010
0000
,
1001
1001
0100
0010
,
0101
0101
0010
1000
,
1100
1100
0011
0110
,
1100
1100
0011
0110
,
1001
1001
0001
0100
,
0101
0101
0010
1000
,
1100
1100
0010
0001
,
2002
0000
0000
3003
,
1001
0000
1000
0000
0010
0000
0010
0100
,
0010
0000
0100
0000
0100
0000
0001
1000
,
0001
0000
1000
0000
1000
0000
0010
1000
,
0010
0100
0100
0110
,
1000
0001
1000
0001
1000
0001
1000
0000
,
0001
0100
0001
0100
0001
0100
0001
0000
,
1000
0100
1000
0100
1000
0100
1000
0000
,
2002
0000
0000
3003
,
0220
0000
0000
0000
,
0330
0000
0000
0000
;

//---------------dance-single - ----------------
#NOTES:
     dance-single:
     :
     Hard:
     13:
     0.606,0.737,0.315,0.180,0.248: // measure 1
1000
0000
0000
1000
0010
0000
0000
0000
0100
0000
0000
0100
0001
0000
0000
0000
,  // measure 2
0010
0000
0000
0010
0100
0000
0000
0000
1000
0000
0000
0000
1001
0000
0000
0000
,  // measure 3
0001
0000
1000
0100
1000
0000
0000
0000
0010
0000
0100
0010
0100
0000
0001
0000
,  // measure 4
1000
0000
0100
1000
0100
0000
0000
0000
0010
0000
0001
1000
0001
0000
0100
0000
,  // measure 5
0010
0000
1000
0010
1000
0000
0000
0000
0010
0000
0100
0001
0100
0000
0010
0000
,  // measure 6
1000
0000
0001
1000
0001
0000
0000
0000
1000
0000
0100
0010
0100
0000
1000
0000
,  // measure 7
0001
0010
0100
1000
0001
0010
0100
1000
,  // measure 8
0001
0100
1000
0100
0001
0100
1000
0100
,  // measure 9
0001
1000
0001
0000
1000
0100
1000
0000
0001
0100
0001
0000
1000
0001
1000
0000
,  // measure 10
1001
0000
0000
1001
0000
0000
0010
0000
0110
0000
0110
0000
0110
0000
0000
0000
,  // measure 11
2010
0000
3002
0000
,  // measure 12
0023
0000
0000
0230
,  // measure 13
2300
0000
3002
0000
,  // measure 14
0203
0000
0000
0000
,  // measure 15
0310
0000
1000
0000
0100
0010
0001
0010
0100
0000
1000
0000
0001
0010
0100
0010
,  // measure 16
0001
0000
0100
0000
0010
1000
0100
1000
0010
0000
0100
0001
0010
0100
1000
0100
,  // measure 17
0010
0000
0001
0000
0100
0010
1000
0010
0100
0000
0010
0000
1000
0100
0010
0100
,  // measure 18
1000
0000
0001
0000
0100
0010
1000
0010
0100
0000
0001
1000
0100
0010
0001
0010
,  // measure 19
0100
0000
0100
0000
1000
0100
0001
0100
,  // measure 20
1000
0000
1000
0000
0001
0100
1000
0100
,  // measure 21
0001
0000
0001
0000
1000
0010
0001
0010
,  // measure 22
2020
0000
0000
3030
,  // measure 23
1001
0000
1001
0000
0001
0100
0010
1000
,  // measure 24
0100
0000
1001
0000
1000
0001
0010
0100
,  // measure 25
1000
0000
1000
0100
0010
0001
1000
0000
,  // measure 26
0001
0010
1000
0010
0001
0100
0010
1000
,  // measure 27
0001
0000
1001
0000
0001
0100
0010
1000
,  // measure 28
0100
0000
1001
0000
1000
0010
0100
0001
,  // measure 29
1000
0000
1000
0010
0100
0001
1000
0000
,  // measure 30
0001
0100
1000
0100
0001
0010
0100
1000
,  // measure 31
0010
0000
1001
0000
0001
0100
1000
0100
,  // measure 32
0101
0000
1001
0000
1000
0100
0001
0100
,  // measure 33
1100
0000
1000
0001
0100
1000
0100
0000
,  // measure 34
0001
0100
1000
0100
0010
1000
0001
0100
,  // measure 35
0110
0000
1010
0000
1000
0010
0001
0010
,  // measure 36
1010
0000
1001
0000
0001
0010
1000
0010
,  // measure 37
0011
0000
0100
1000
0010
0100
0101
0000
,  // measure 38
2002
0000
0000
3003
,  // measure 39
1200
0010
1000
0010
,  // measure 40
1300
0000
0001
0010
1000
0010
0001
0010
,  // measure 41
0200
1000
0010
1000
,  // measure 42
0310
0000
0001
0100
1000
0100
0001
0100
,  // measure 43
0020
1000
0100
1000
,  // measure 44
0130
0000
0001
1000
0010
0001
0010
1000
,  // measure 45
0200
0010
0001
0010
,  // measure 46
0301
1000
0100
0001
0100
1000
0001
0010
,  // measure 47
0100
0000
1000
0000
1001
0000
0000
0000
0001
0000
1000
0010
1000
0000
0001
0000
,  // measure 48
0010
0000
0100
0000
0110
0000
0000
0000
1000
0000
0100
0010
0100
0000
1000
0000
,  // measure 49
1001
0000
0001
0100
1000
0100
0001
0000
,  // measure 50
1000
0000
0010
0000
0001
0000
0010
0000
0100
0000
0001
0000
1000
0001
1000
0000
,  // measure 51
1001
0100
0010
0000
0001
1000
0010
1000
,  // measure 52
1001
0010
0100
0000
1000
0001
0010
0001
,  // measure 53
1001
1000
0010
0100
0110
0010
0100
0001
,  // measure 54
0022
0000
0000
0033
,  // measure 55
1001
0000
0000
1000
0010
0000
0000
0000
0100
0000
0000
0100
0001
0000
1000
0000
,  // measure 56
0100
0000
0000
0100
0010
0000
0000
0000
0001
0000
0000
0001
0100
0000
0010
0000
,  // measure 57
1000
0000
0000
1000
0100
0000
0000
0000
0010
0000
0000
0010
0001
0000
0100
0000
,  // measure 58
0010
0000
0000
0010
1000
0000
0000
0000
0001
0000
0000
0001
1000
0000
0000
0000
,  // measure 59
0010
0000
1000
0000
0010
0000
0100
0000
0010
0000
1000
0100
0010
0000
0010
0000
,  // measure 60
0001
0000
0100
0000
0001
0000
1000
0000
0001
0000
0100
0010
1000
0000
1000
0000
,  // measure 61
0001
1000
0001
1000
0001
1000
0001
1000
0100
1000
0100
1000
0100
1000
0100
1000
,  // measure 62
0200
0000
0000
0300
,  // measure 63
2002
0000
0000
0000
,  // measure 64
3003
0000
0000
0000
;

//---------------dance-single - ----------------
#NOTES:
     dance-single:
     :
     Beginner:
     2:
     0.099,0.167,0.072,0.000,0.000:
0000
0000
0000
0000
,
0000
0000
0000
0000
,
1001
0000
0000
0000
,
1000
0000
0000
0000
,
0001
0000
0000
0000
,
1000
0000
0000
0000
,
0010
0000
0000
0000
,
0010
0000
0000
0000
,
0010
0000
0000
0000
,
0110
0000
0000
0000
,
1001
0000
0000
0000
,
0000
0000
0000
0000
,
0001
0000
0000
0000
,
0100
0000
0000
0000
,
0010
0000
0010
0000
,
0010
0000
0010
0000
,
1000
0000
1000
0000
,
1000
0000
1000
0000
,
0001
0000
0000
0000
,
1000
0000
0000
0000
,
0001
0000
0000
0000
,
1001
0000
0000
0000
,
1000
0000
0000
0000
,
0010
0000
0000
0000
,
1000
0000
0000
0000
,
0001
0000
0000
0000
,
0010
0000
0000
0000
,
0001
0000
0000
0000
,
0010
0000
0000
0000
,
0100
0000
0000
0000
,
1000
0000
0000
0000
,
0010
0000
0000
0000
,
1000
0000
0000
0000
,
0001
0000
0000
0000
,
0010
0000
0000
0000
,
0100
0000
0000
0000
,
0010
0000
0000
0000
,
0001
0000
0000
0000
,
1001
0000
0000
0000
,
1000
0000
0000
0000
,
0010
0000
0000
0000
,
0100
0000
0000
0000
,
0001
0000
0000
0000
,
1000
0000
0000
0000
,
0001
0000
0000
0000
,
0010
0000
0000
0000
,
0100
0000
0100
0000
,
0010
0000
0010
0000
,
0100
0000
0100
0000
,
0010
0000
0010
0000
,
0001
0000
0001
0000
,
1000
0000
1000
0000
,
1001
0000
0000
0000
,
1001
0000
0000
0000
,
0001
0000
0000
0000
,
0000
0000
0000
0000
,
0100
0000
0000
0000
,
0000
0000
0000
0000
,
0010
0000
0000
0000
,
1000
0000
0000
0000
,
0001
0000
1000
0000
,
0001
0000
0000
0000
,
1001
0000
0000
0000
;
