#TITLE:Entrapment;
#SUBTITLE:;
#ARTIST:Expander;
#TITLETRANSLIT:;
#SUBTITLETRANSLIT:;
#ARTISTTRANSLIT:;
#CREDIT:DigiMindAxel;
#BANNER:Entrapment.png;
#BACKGROUND:Entrapment-bg.png;
#LYRICSPATH:;
#CDTITLE:jubeat.png;
#MUSIC:Entrapment.ogg;
#METERTYPE:DDR X;
#OFFSET:-7.507;
#SAMPLESTART:39.480;
#SAMPLELENGTH:12.000;
#SELECTABLE:YES;
#BPMS:0.000=150.000;
#STOPS:;
#BGCHANGES:;

//---------------dance-single - ----------------
#NOTES:
     dance-single:
     :
     Easy:
     5:
     0.238,0.249,0.008,0.231,0.000:
2000
0000
3002
0000
,
0023
0000
0230
0000
,
2300
0000
3002
0000
,
0203
0000
0302
0000
,
2003
0000
3200
0000
,
0320
0000
0032
0000
,
2003
0000
3020
0000
,
0230
0000
0000
0000
,
0310
0100
0010
0000
,
1000
0010
1000
0000
,
0010
0100
0010
0000
,
1000
0010
1000
0000
,
0002
2000
3003
0000
,
0001
0100
0001
0000
,
0100
0010
0100
0000
,
0001
1000
0001
1000
,
0200
0000
0000
0000
,
0320
0000
0000
0000
,
0032
0000
0000
0000
,
2003
0000
0000
0000
,
3001
0100
0010
0100
,
0001
0000
0001
0000
,
1000
0100
0010
0100
,
1000
0000
1000
0000
,
0010
0100
0001
0100
,
0010
0000
0010
0000
,
1000
0100
0010
0100
,
1000
0000
1000
0000
,
0001
0100
0010
0100
,
0002
0000
2003
0000
,
3100
0010
0001
0010
,
0200
0000
0000
0300
,
1000
0010
0100
0010
,
1000
0000
0001
0000
,
0010
0100
1000
0100
,
0020
0000
0031
0000
,
0100
0000
0000
0000
,
0010
0000
0000
0000
,
0100
0000
0000
0000
,
0010
0000
0000
0000
,
1000
0000
0000
0000
,
0001
0000
0000
0000
,
1000
0000
0000
0000
,
0001
0000
0000
0000
,
2000
0000
0000
0000
,
3001
0010
0001
0010
,
0001
1000
0001
1000
,
0010
1000
0010
1000
,
0100
0010
0100
0000
,
1000
0010
1000
0010
,
1000
0001
1000
0001
,
0010
0001
0010
0001
,
0100
0010
0100
0000
,
0001
1000
0001
1000
,
0100
1000
0100
1000
,
0010
0100
0010
0100
,
0001
0010
0001
0000
,
1000
0001
1000
0001
,
0100
0001
0100
0001
,
0010
0100
0010
0100
,
1000
0010
1000
0000
,
0001
1000
0001
0000
,
0010
0001
0100
0000
,
0001
1000
0001
0000
,
0010
0100
1000
0010
,
0220
0000
0000
0000
,
0000
0000
0000
0000
,
0330
0000
0000
0000
;

//---------------dance-single - ----------------
#NOTES:
     dance-single:
     :
     Medium:
     10:
     0.486,0.498,0.239,0.223,0.000: // measure 1
1000
0010
0110
0010
,  // measure 2
1000
0100
0001
0100
,  // measure 3
1001
0001
0010
0001
,  // measure 4
1000
0010
0001
0010
,  // measure 5
1000
0100
0020
0001
,  // measure 6
0032
0000
1000
0000
1003
0000
0010
0100
,  // measure 7
0010
0100
0002
0010
,  // measure 8
0023
0100
0130
1000
,  // measure 9
0001
0010
0100
0010
0001
0000
0100
0000
,  // measure 10
0001
0100
0010
0100
0002
0000
1000
0000
,  // measure 11
1003
0010
0100
0010
1000
0000
0001
0000
,  // measure 12
1000
0100
0010
0100
1000
0000
0001
0000
,  // measure 13
0200
0000
0002
0000
0303
0000
0100
0010
,  // measure 14
1000
0001
2002
3003
,  // measure 15
1000
0100
1000
0100
0010
0000
0002
0000
,  // measure 16
1003
0002
0023
0230
,  // measure 17
1300
0001
1000
0001
1000
0001
0000
0100
,  // measure 18
0010
1000
0010
1000
0010
1000
0000
0100
,  // measure 19
0010
0001
0010
0001
0010
0001
0000
1000
,  // measure 20
0200
0010
0010
0310
,  // measure 21
0001
0100
0001
0100
0001
0010
0100
0000
,  // measure 22
1000
0010
1000
0010
1000
0100
0010
0000
,  // measure 23
0100
1000
0100
1000
0001
0100
0010
0000
,  // measure 24
1000
0001
1000
0001
0100
0010
1000
0000
,  // measure 25
0100
0010
0001
0010
0001
1000
0010
0000
,  // measure 26
1000
0010
0100
0010
0100
0001
0010
0000
,  // measure 27
0100
1000
0001
1000
0001
0010
0100
0000
,  // measure 28
0010
0001
0100
0001
0100
0010
1000
0000
,  // measure 29
0100
0010
0001
0010
0001
1000
0010
0000
,  // measure 30
1001
1001
1001
1001
,  // measure 31
1000
0010
1000
0010
0100
0001
0010
0000
,  // measure 32
2001
0001
0001
3001
,  // measure 33
1000
0001
0010
0001
0010
0100
1000
0000
,  // measure 34
0010
0100
0001
0100
0001
0010
0100
0000
,  // measure 35
1000
0001
0010
0001
0010
0100
1000
0000
,  // measure 36
0001
0100
0010
0100
0001
0000
0101
0000
,  // measure 37
0020
0100
0000
0130
,  // measure 38
2000
0010
0000
3010
,  // measure 39
0200
0010
0000
0310
,  // measure 40
2000
0001
0000
3001
,  // measure 41
0020
0100
0000
0130
,  // measure 42
2000
0010
0000
3010
,  // measure 43
0200
0001
0000
0301
,  // measure 44
2000
0001
0000
3001
,  // measure 45
2002
0000
0000
3003
,  // measure 46
1000
0010
1000
0100
0010
0001
1000
1000
,  // measure 47
0000
0001
0010
0100
0010
0001
0100
0001
,  // measure 48
0000
0010
1000
0010
0001
0100
0010
1000
,  // measure 49
0000
0010
0001
0010
1000
0100
0010
0000
,  // measure 50
0001
0100
0001
0010
0100
1000
0001
0001
,  // measure 51
0000
1000
0010
0100
0010
1000
0001
1000
,  // measure 52
0000
0100
0001
0100
1000
0100
0010
0001
,  // measure 53
0000
0010
1000
0010
0001
0100
0010
0000
,  // measure 54
1000
0010
0100
0010
1000
0001
0010
0000
,  // measure 55
0100
0010
0001
1000
0010
1000
0001
0000
,  // measure 56
0010
1000
0010
0001
0100
0010
1000
0001
,  // measure 57
0000
0010
1000
0010
0001
0100
0010
0000
,  // measure 58
1000
0001
0100
1000
0100
0001
0010
0100
,  // measure 59
0000
1000
0010
0001
0010
1000
1001
0000
,  // measure 60
0000
0001
0100
1000
0100
0001
0010
0100
,  // measure 61
0000
1000
0100
0001
0100
0000
1100
0000
,  // measure 62
1001
1001
0101
0101
,  // measure 63
1100
1100
1001
1001
,  // measure 64
0011
0011
1010
1010
,  // measure 65
1001
1001
0110
0110
,  // measure 66
2002
0000
0000
0000
,  // measure 67
0000
0000
0000
0000
,  // measure 68
3003
0000
0000
0000
;

//---------------dance-single - ----------------
#NOTES:
     dance-single:
     :
     Hard:
     13:
     0.651,0.608,0.206,0.149,0.380: // measure 1
1020
0000
0000
0000
0130
0001
1000
1000
,  // measure 2
0200
0000
0010
0000
0010
0000
0000
0000
0310
0000
0000
0001
0000
0000
1000
0000
,  // measure 3
0200
0000
0010
0000
0310
0000
0001
1000
,  // measure 4
0200
0000
1000
1000
0010
0310
0001
0000
,  // measure 5
0200
0000
0001
0000
0301
0001
0010
0010
,  // measure 6
0100
0100
1000
1000
1001
0000
0001
1000
,  // measure 7
0020
0000
0130
0001
1000
1000
0010
0010
,  // measure 8
0100
0100
0001
0001
0100
0010
0100
0000
,  // measure 9
0010
1000
0001
0010
0100
0010
0001
1000
,  // measure 10
0010
0000
0001
0000
0010
0000
1000
0000
0001
0200
0000
0000
0310
2000
0000
0000
,  // measure 11
3100
1000
0100
1000
1001
0000
0010
0100
,  // measure 12
0001
0010
0001
0010
0100
0100
1000
1000
,  // measure 13
0002
0000
0200
0303
1001
0000
1000
0010
,  // measure 14
0001
0010
1000
0100
2200
0000
3300
0000
,  // measure 15
1000
0000
0001
0100
0001
0000
1000
0000
1100
0000
0000
0000
0010
0000
0001
0000
,  // measure 16
0101
0110
1010
1001
,  // measure 17
0001
0100
0100
0001
0001
1000
0000
1000
,  // measure 18
0001
0010
0010
0100
0100
0010
0000
0010
,  // measure 19
0001
0100
0100
0010
0010
1000
0000
1000
,  // measure 20
0001
0000
0010
0000
0100
1000
0100
1000
0002
0000
0000
0000
0000
0000
0000
0000
,  // measure 21
1003
0000
0010
0100
0010
0000
1000
0000
0001
0000
0100
0000
1000
0000
0100
0000
,  // measure 22
0000
0000
0001
1000
0001
0000
1000
0000
0100
0000
0010
0000
0110
0000
0000
0000
,  // measure 23
0000
0000
0010
1000
0010
0000
0100
0000
0001
0010
0001
0000
1000
0000
0100
0000
,  // measure 24
0010
0000
0000
0000
0000
0000
0001
0000
0000
0100
0000
0000
0001
0000
0000
0000
0000
0000
0001
0000
0000
0000
0000
0000
0010
0000
0000
0000
0100
0000
0000
0000
1000
0000
0000
0000
0100
0000
0000
0000
0000
0000
0000
0000
0000
0000
0000
0000
,  // measure 25
1000
0000
0001
0010
0001
0000
1000
0000
0010
0000
0001
0000
0010
0000
1000
0000
,  // measure 26
0100
0000
1000
0000
0010
0000
0100
0001
1000
0000
0100
0000
0110
0000
0000
0000
,  // measure 27
0000
0000
0001
0010
0100
0000
1000
0000
0001
0100
0001
0000
1000
0100
1000
0000
,  // measure 28
0001
0000
0000
0010
0000
0000
1000
0000
0000
0010
0000
0000
0001
0000
1000
0000
0100
0000
1000
0000
0000
0000
0000
0000
,  // measure 29
0001
0000
0100
0010
0100
0000
0001
0000
1000
0000
0100
0000
0001
0000
0100
0000
,  // measure 30
1100
1100
1100
1100
,  // measure 31
1000
0000
0001
0010
0001
0000
1000
0000
0100
0000
0001
0000
0100
0000
1000
0000
,  // measure 32
0010
0000
0010
0100
0001
0010
0100
1000
0001
1000
0000
0000
,  // measure 33
0001
0000
1000
0100
1000
0000
0001
0000
1000
0000
0010
0000
0001
0000
0010
0000
,  // measure 34
1000
0000
0001
0000
0010
0000
0001
0000
0100
0010
0000
0010
1000
0000
0000
0000
,  // measure 35
0000
0000
0100
0010
0001
0000
1000
0000
0001
0100
0001
0000
1000
0100
1000
0000
,  // measure 36
0001
0000
0000
0100
0000
0000
0001
0000
0000
0000
0000
0000
1000
0000
0000
0100
0000
0000
1000
0000
0000
0000
0000
0000
0001
0000
0000
0000
0010
0000
0000
0000
0100
0000
0000
0000
0010
0000
0000
0000
0000
0000
0000
0000
0000
0000
0000
0000
,  // measure 37
0001
0000
0100
0000
1000
1000
0100
0100
,  // measure 38
0001
0000
1000
0000
0010
0010
0100
0100
,  // measure 39
0001
0000
0010
0000
0100
0100
0010
0010
,  // measure 40
0001
0000
0010
0000
1000
1000
0010
0010
,  // measure 41
0001
0000
0100
0000
0010
0010
1000
1000
,  // measure 42
0100
0000
0010
0000
0100
0100
1000
1000
,  // measure 43
0001
0000
0100
0000
1000
1000
0100
0100
,  // measure 44
0001
0000
0010
0000
1000
1000
0010
0010
,  // measure 45
0002
2003
3002
1003
,  // measure 46
0001
0000
0010
0100
1000
0000
1000
0000
0001
0100
0010
0000
0100
0010
0100
0010
,  // measure 47
0000
0000
1000
0100
0010
0000
0001
0000
1000
0100
0010
0000
0100
0010
0100
0010
,  // measure 48
0000
0000
0001
0000
0001
0000
0100
0000
0100
0010
1000
0000
0001
0010
0001
0010
,  // measure 49
0000
0000
0000
0000
0000
0000
0100
0000
0000
0000
0000
0000
0100
0000
0000
0000
0000
0000
1000
0000
0000
0000
0000
0000
1000
0000
0000
0000
0001
0000
0000
0000
0100
0000
0000
0000
0001
0000
0000
0000
0000
0000
1000
0000
0000
0100
0000
0000
,  // measure 50
0010
0000
0100
1000
0010
0000
0010
0000
0100
0001
0010
0000
0100
1000
0100
1000
,  // measure 51
0000
0000
0010
0100
0001
0000
1000
0000
0001
0010
0100
0000
0010
0001
0010
0001
,  // measure 52
0000
0000
1000
0000
1000
0000
0010
0000
0010
0100
0001
0000
1000
0100
1000
0100
,  // measure 53
0000
0000
0010
0000
0010
0000
0001
0000
0001
0100
0010
0000
1000
0001
1000
0001
,  // measure 54
1000
0000
0001
0100
0010
0000
1000
0000
0100
0010
0100
0000
1000
0010
1000
0010
,  // measure 55
0000
0000
0100
0001
1000
0000
0100
0000
0010
0001
0000
0001
0100
0000
0000
0000
,  // measure 56
0001
0000
1000
0000
1000
0000
0010
0000
0010
0100
0001
0000
0010
0100
0010
0100
,  // measure 57
0000
0000
0000
0000
0000
0000
1000
0000
0000
0010
0000
0000
0100
0000
0000
0000
0000
0000
0010
0000
0000
0000
0000
0000
1000
0000
0000
0000
0001
0000
0000
0000
0010
0000
0000
0000
0001
0000
0000
0000
0000
0000
0000
0000
0000
0000
0000
0000
,  // measure 58
0010
0000
0100
1000
0100
1000
0010
0000
0100
0010
0100
0000
0001
0010
0100
0000
,  // measure 59
0000
0000
0010
0000
0001
0100
0001
0100
0010
0100
0010
0000
1001
0000
0000
0000
,  // measure 60
0000
0000
1000
0000
0010
0000
0100
0000
0001
1000
0100
0000
0010
0100
0010
0100
,  // measure 61
0000
0000
0000
0000
0000
0000
1000
0000
0000
0000
0000
0000
0001
0000
0000
0010
0000
0000
0100
0000
0000
0000
0000
0000
0010
0000
0000
0000
0001
0000
0000
0000
0100
0000
0000
0000
0110
0000
0000
0000
0000
0000
0000
0000
0000
0000
0000
0000
,  // measure 62
1000
0001
0100
0001
1000
0001
0101
0000
,  // measure 63
0010
0000
0010
0000
0100
0000
1000
0000
0010
0000
0010
0100
0010
0000
0000
0000
,  // measure 64
1000
0001
0010
0001
1000
0001
0011
0000
,  // measure 65
1100
0110
0011
0110
,  // measure 66
2002
0000
0000
0000
,  // measure 67
0000
0000
0000
0000
,  // measure 68
3003
0000
0000
0000
;

//---------------dance-single - ----------------
#NOTES:
     dance-single:
     :
     Challenge:
     16:
     0.903,0.829,0.594,0.446,0.805:
1001
0000
1000
0000
0001
0000
0000
0000
0010
0000
0100
1000
0100
1000
0100
1000
,
0020
0000
0100
0000
0130
0001
0010
0000
0100
0000
1000
0001
0000
1000
0001
0000
,
0010
0000
0100
1000
0100
1000
0001
0000
0100
0001
0100
0001
1000
0100
1000
0000
,
0001
0000
0001
0000
0010
0100
1000
0100
0010
0000
0001
0000
0101
0000
0000
0000
,
1001
1000
0001
0000
0011
0010
0110
0100
,
1100
0000
1000
0000
1010
0000
0010
0000
0110
0000
0000
0000
0100
0010
0100
0010
,
1000
0000
0001
1000
0001
1000
0001
0000
0101
0000
0100
0000
0110
0000
0010
0000
,
1010
0000
1000
0000
1001
0000
0001
0000
0010
0100
1000
0100
0010
0000
0000
0000
,
1001
0000
0001
0000
0100
0000
0100
0000
0110
0000
0010
1000
0100
0010
0001
1000
,
0010
0100
0010
0000
0100
0001
0100
0001
1000
0100
0010
0001
0010
0100
1000
0001
,
0200
0000
0010
0000
0010
0000
0310
0000
1001
0000
0000
0000
0001
0100
0001
0100
,
0001
0000
1000
0000
0100
0010
0100
0000
1010
0000
1000
0000
1001
0000
0001
0000
,
0021
0000
0000
0000
0200
0000
0330
0000
1001
0000
0000
0000
1000
0010
1000
0010
,
1000
0000
0100
0010
0000
0100
0010
0000
0011
0000
0001
0000
1001
0000
0000
0000
,
1000
0010
0100
0010
1000
0000
0010
0000
0110
0000
0100
0000
0001
0010
0100
0000
,
0022
0033
0220
0330
2200
3300
2002
3003
,
1001
0100
1001
0100
1001
1001
0000
0110
,
1001
0100
1001
0100
1001
1001
0000
0110
,
1001
0010
1001
0010
1001
1001
0000
0110
,
1001
0000
0001
0000
0010
0100
1000
0100
0020
0000
0001
0000
0031
0000
0000
0000
,
1001
0000
1000
0000
1010
0000
0010
0000
0100
0001
0010
0001
0100
0001
0010
0100
,
0000
0000
1000
0001
1000
0000
0100
0000
0010
0001
0000
0001
0100
0000
0110
0000
,
0000
0000
0001
1000
0001
0000
0010
0000
0100
1000
0010
1000
0100
1000
0010
0000
,
0100
0000
0000
0000
0000
0000
0100
0000
0000
0001
0000
0000
1000
0000
0000
0000
0000
0000
0100
0000
0000
0000
0000
0000
0010
0000
0000
0000
0010
0000
0000
0000
0001
0000
0000
0000
0001
0000
0000
0000
0000
0000
1000
0000
0001
0000
0100
0000
,
0001
0000
1000
0001
1000
0000
0100
0000
0010
0001
0100
0001
0010
0001
0100
0020
,
0000
0000
1030
0000
0001
0000
0001
0000
0010
0100
0000
0100
1000
0000
1001
0000
,
0000
0000
0001
1000
0001
0000
0100
0000
0010
1000
0100
1000
0010
1000
0100
0000
,
0010
0000
0000
0001
0000
0000
0010
0000
0000
0100
0000
0000
0010
0000
0000
0001
0000
0000
0100
0000
0000
0010
0000
0000
0100
0000
0000
0000
0100
0000
0000
0000
0010
0000
0000
0000
1000
0000
0000
0000
0000
0000
0000
0000
0000
0000
0000
0000
,
1001
0000
1000
0010
1000
0000
0001
0000
0010
0100
1000
0100
0010
0100
1000
0000
,
2002
3003
2002
3003
2002
3003
1001
0010
,
1001
0000
0001
0100
0001
0000
1000
0000
0100
0010
0001
0010
0100
0010
0001
0000
,
1001
0000
0000
0000
1000
0000
0010
0000
0010
0000
0100
0000
0001
0000
0001
0000
0010
0000
0100
0000
0000
1000
0001
0100
,
0001
0000
1000
0100
1000
0000
0001
0000
0100
0010
0100
0001
0100
0010
0100
0002
,
0000
0000
1003
0000
0100
0000
0100
0000
0010
0001
0000
0001
1000
0000
1001
0000
,
0000
0000
0001
0010
0100
0000
0010
0000
0001
1000
0010
1000
0001
1000
0010
0000
,
0100
0000
0000
0001
0000
0000
0010
0000
0000
0001
0000
0000
0100
0000
0000
0001
0000
0000
0010
0000
0000
0001
0000
0000
0100
0000
0000
0000
0100
0000
0000
0000
0001
0000
0000
0000
2000
0000
0000
0000
0000
0000
0000
0000
0000
0000
0000
0000
,
3002
1000
2003
0000
3100
0100
0010
0010
,
0002
1000
2003
0000
3010
0010
0100
0100
,
0002
0000
2003
0000
3100
0100
0010
0010
,
0002
0000
2003
0000
3010
0010
0100
0100
,
0002
2003
3002
0000
0013
0010
0100
0100
,
2000
3020
2030
3002
0103
0100
0010
0010
,
2000
3002
2003
0000
3010
0010
0100
0100
,
0002
2003
3002
0023
0130
0100
1000
1000
,
0001
0100
0010
1001
,
1000
0000
0100
1000
0010
0100
0001
0000
1000
0001
1000
0001
0100
0001
0100
0001
,
0000
0000
0010
0100
1000
0100
0010
0000
0001
0100
0001
0100
0001
1000
0001
1000
,
0000
0000
0100
0000
0010
0001
1000
0000
1000
0001
0010
0100
0010
0100
1000
0010
,
0000
0000
0000
0000
0000
0000
1000
0000
0000
0000
0000
0000
0100
0000
0000
0010
0000
0000
0001
0000
0000
0000
0000
0000
0100
0000
0000
0000
0001
0000
0000
0000
1000
0000
0000
0000
0100
0000
0000
0000
0000
0000
0010
0000
0100
0000
0010
0000
,
0100
0000
1000
0100
0010
0001
1000
0000
0001
0100
0001
0100
0010
1000
0010
1000
,
0000
0000
0010
0100
0001
0000
0001
1000
0100
1000
0001
0100
0010
0100
0010
1000
,
0000
0000
0010
0000
0010
1000
0001
0000
0001
1000
0010
0100
0001
0010
0001
0010
,
0000
0000
0100
1000
0100
1000
0010
0000
0010
0100
0001
0010
0100
0010
0001
0000
,
1000
0000
0100
1000
0010
0100
0001
0000
0100
0010
0100
0010
1000
0001
0010
0001
,
0000
0000
1000
0100
0010
0100
1000
0000
0001
0100
0010
0100
0010
1000
0000
0000
,
0001
0000
0100
0001
0100
0001
1000
0100
0010
0100
1000
0010
0100
0001
0100
0001
,
0000
0000
0000
0000
0000
0000
0010
0000
0000
0100
0000
0000
1000
0000
0000
0100
0000
0000
0010
0000
0000
0001
0000
0000
0100
0000
0000
0000
0100
0000
0000
0000
0010
0000
0000
0000
1000
0000
0000
0000
0000
0000
0000
0000
0000
0000
0000
0000
,
0001
0000
1000
0010
0100
0010
1000
0000
0100
0010
0001
1000
0010
1000
0001
0010
,
0000
0000
0100
1000
0100
1000
0001
0010
0100
1000
0010
0000
0110
0000
0000
0000
,
0100
0000
0010
0001
0010
0001
1000
0010
0100
0010
1000
0001
0010
0100
0010
0100
,
0000
0000
0000
0000
0000
0000
1000
0000
0000
0000
0000
0000
0100
0000
0000
0010
0000
0000
0001
0000
0000
0010
0000
0000
0100
0000
0000
0000
0100
0000
0000
0000
1000
0000
0000
0000
1010
0000
0000
0000
0000
0000
0000
0000
0000
0000
0000
0000
,
0100
0001
1001
1000
1100
0100
0110
0000
,
1001
0000
0001
0000
1001
0000
0100
0000
0110
0000
0010
0001
1000
0000
0000
0000
,
1001
1000
1010
0010
0110
0100
0101
0000
,
2200
3300
0220
0330
0022
0033
2002
3003
,
0220
0000
0000
0000
,
0000
0000
0000
0000
,
0330
0000
0000
0000
;

//---------------dance-single - ----------------
#NOTES:
     dance-single:
     :
     Beginner:
     3:
     0.111,0.161,0.058,0.000,0.000:
1000
0000
0001
0000
,
1000
0000
0000
0000
,
0001
0000
1000
0000
,
0001
0000
0000
0000
,
1000
0000
0001
0000
,
1000
0000
0001
0000
,
1000
0000
0100
0000
,
0010
0000
0000
0000
,
0001
0000
1000
0000
,
0001
0000
1000
0000
,
0100
0000
0010
0000
,
0100
0000
0010
0000
,
0001
0000
0000
0000
,
1000
0000
0001
0000
,
1000
0000
0100
0000
,
0010
0000
0000
0000
,
0001
0000
0000
0000
,
1000
0000
0000
0000
,
0001
0000
0000
0000
,
1001
0000
0000
0000
,
1000
0000
0000
0000
,
0010
0000
0000
0000
,
0100
0000
0000
0000
,
0010
0000
0000
0000
,
1000
0000
0000
0000
,
0001
0000
0000
0000
,
0010
0000
0000
0000
,
0001
0000
0000
0000
,
1000
0000
0000
0000
,
1001
0000
0000
0000
,
0001
0000
0000
0000
,
1001
0000
0000
0000
,
0001
0000
0000
0000
,
1000
0000
0000
0000
,
0100
0000
0000
0000
,
1000
0000
0000
0000
,
0001
0000
0000
0000
,
0010
0000
0000
0000
,
0001
0000
0000
0000
,
0010
0000
0000
0000
,
0001
0000
0000
0000
,
1000
0000
0000
0000
,
0001
0000
0000
0000
,
1000
0000
0000
0000
,
0010
0000
0000
0000
,
0110
0000
0000
0000
,
0100
0000
0000
0000
,
0001
0000
0000
0000
,
1000
0000
0000
0000
,
0001
0000
0000
0000
,
1000
0000
0000
0000
,
0100
0000
0000
0000
,
0010
0000
0000
0000
,
1001
0000
1000
0000
,
0001
0000
1000
0000
,
0001
0000
0100
0000
,
0001
0000
0100
0000
,
0010
0000
0100
0000
,
0010
0000
1000
0000
,
0010
0000
0010
0000
,
1000
0000
1001
0000
,
0001
0000
0001
0000
,
0001
0000
0000
0000
,
1000
0000
1000
0000
,
1000
0000
0000
0000
,
1001
0000
0000
0000
;
