#TITLE:Energy Drive;
#SUBTITLE:;
#ARTIST:kevin energy;
#TITLETRANSLIT:;
#SUBTITLETRANSLIT:;
#ARTISTTRANSLIT:;
#CREDIT:DigiMindAxel;
#BANNER:Energy Drive.png;
#BACKGROUND:Energy Drive-bg.png;
#LYRICSPATH:;
#CDTITLE:beatmania IIDX.png;
#MUSIC:Energy Drive.ogg;
#METERTYPE:DDR X;
#OFFSET:-6.029;
#SAMPLESTART:85.074;
#SAMPLELENGTH:12.000;
#SELECTABLE:YES;
#BPMS:0.000=170.000,128.000=85.000,160.000=170.000;
#STOPS:;
#BGCHANGES:;

//---------------dance-single - ----------------
#NOTES:
     dance-single:
     :
     Easy:
     5:
     0.206,0.267,0.072,0.312,0.000:
1000
0000
0001
0000
,
1000
0000
0100
0000
,
1000
0000
0001
0000
,
2002
0000
0000
3003
,
1001
1000
1000
0000
,
0001
0001
0001
0000
,
1000
1000
1000
0000
,
2002
0000
0000
3003
,
1001
0001
0001
0000
,
1000
1000
1000
0000
,
0220
0000
0000
0000
,
0000
0000
0000
0330
,
0001
1000
0001
0000
,
1000
0001
1000
0000
,
0100
1000
0100
0000
,
0010
0001
0010
0000
,
0001
1000
0001
0000
,
1000
0001
1000
0000
,
0100
1000
0100
0000
,
0020
0000
0000
0000
,
0032
0000
0000
0000
,
0203
0000
0000
0000
,
0320
0000
0000
0000
,
0230
0000
0000
0000
,
0302
0000
1000
0000
,
1000
0000
1000
0000
,
1003
0000
0000
0000
,
0000
0000
0000
0000
,
0000
0000
0000
0000
,
0000
0000
0000
0000
,
0000
0000
0000
0000
,
0000
0000
0000
0000
,
1002
0000
0000
0000
,
0203
0000
0000
0000
,
0320
0000
0000
0000
,
2030
0000
0000
0000
,
3001
0000
0100
0000
,
0010
0000
1000
0000
,
0001
0000
0100
0000
,
0010
0000
1000
0000
,
0001
1000
0001
0000
,
1000
0100
1000
0000
,
0001
1000
0001
0000
,
1000
0100
1000
0000
,
0001
1000
0001
0000
,
0100
0001
0100
0000
,
0001
1000
0001
0000
,
2002
0000
0000
3003
,
0001
0100
0001
0000
,
1000
0100
0010
0000
,
0001
0100
0001
0000
,
1000
0100
0010
0000
,
0100
1000
0100
0000
,
0010
0001
0100
0000
,
0010
0100
0010
0000
,
2002
0000
0000
3003
,
2000
0000
0000
0000
,
3200
0000
0000
0000
,
0320
0000
0000
0000
,
0230
0000
0000
0000
,
2300
0000
0000
0000
,
3002
0000
0000
0000
,
0203
0000
0000
0000
,
0310
0000
0000
0000
,
2000
0000
3002
0000
,
0203
0000
0302
0000
,
0000
0000
0000
0000
,
2003
0000
0000
0000
,
3020
0000
0230
0000
,
0302
0000
2003
0000
,
3200
0000
1000
0000
,
1300
0000
0000
0000
,
2002
0000
0000
0000
,
0000
0000
0000
0000
,
3003
0000
0000
0000
;

//---------------dance-single - ----------------
#NOTES:
     dance-single:
     :
     Medium:
     8:
     0.358,0.415,0.120,0.465,0.008: // measure 1
1001
0001
1000
0001
,  // measure 2
0100
0001
0100
0001
,  // measure 3
0010
0100
0010
0100
,  // measure 4
2002
0000
0000
3003
,  // measure 5
1000
1000
1000
0000
0010
0100
0010
0000
,  // measure 6
1000
1000
1000
0000
0010
0100
0010
0000
,  // measure 7
1000
1000
1000
0000
0010
0100
0010
0000
,  // measure 8
2002
0000
0000
3003
,  // measure 9
0001
0001
0001
0000
0010
0100
0010
0000
,  // measure 10
0001
0001
0001
0000
0010
0100
0010
0000
,  // measure 11
2002
0000
0000
0000
,  // measure 12
0000
0000
0000
3003
,  // measure 13
0001
0100
0001
0000
1000
0100
1000
0000
,  // measure 14
0001
0100
0001
0000
1000
0100
1000
0000
,  // measure 15
0001
1000
0100
0000
0010
0100
0010
0000
,  // measure 16
0001
1000
0100
0000
0010
0100
0010
0000
,  // measure 17
0001
0010
0001
0000
1000
0010
1000
0000
,  // measure 18
0001
0010
0001
0000
1000
0010
1000
0000
,  // measure 19
0001
1000
0010
0000
0100
0010
0100
0000
,  // measure 20
2002
0000
0000
3003
,  // measure 21
2000
0000
0000
0000
,  // measure 22
3020
0000
0000
0000
0000
0000
0130
0002
,  // measure 23
0000
0000
0000
0000
,  // measure 24
0023
0000
0000
0230
,  // measure 25
2300
0000
0001
0000
,  // measure 26
0001
0000
0001
0000
,  // measure 27
3002
0000
0000
0000
0000
0000
0000
0000
0000
0000
0000
0000
0000
0000
0000
0203
,  // measure 28
0000
0000
0000
0000
0000
0000
0000
0000
0320
0000
0000
0200
0000
0000
0000
0000
,  // measure 29
0000
0000
0000
0000
,  // measure 30
0000
0000
0000
0000
,  // measure 31
0000
0000
0000
0000
,  // measure 32
0000
0000
0000
0000
,  // measure 33
0330
0000
0000
0000
,  // measure 34
2000
0000
3002
0000
,  // measure 35
2003
0000
3020
0000
,  // measure 36
0230
0000
0302
0000
,  // measure 37
1003
0001
1000
0000
0100
1000
0100
0000
,  // measure 38
0010
0001
0010
0000
0001
1000
0001
0000
,  // measure 39
0010
0001
0010
0000
0100
0010
0100
0000
,  // measure 40
1000
0100
1000
0000
0001
1000
0001
0000
,  // measure 41
1001
1000
0100
0010
,  // measure 42
0001
0010
0001
0010
,  // measure 43
1001
0100
0010
1000
,  // measure 44
0001
0010
0001
0010
,  // measure 45
1001
1000
0100
0010
,  // measure 46
1001
1000
0001
1000
,  // measure 47
0110
0100
1001
0100
,  // measure 48
0220
0000
0000
0330
,  // measure 49
1001
0000
1000
0100
0000
1000
0100
0000
,  // measure 50
0010
0000
0001
0100
0000
0001
0100
0000
,  // measure 51
0001
0000
1000
0100
0000
1000
0100
0000
,  // measure 52
0010
0000
0100
1000
0000
0100
1000
0000
,  // measure 53
0010
0000
0100
0001
0000
0100
0001
0000
,  // measure 54
1000
0000
0100
0010
0000
0100
0010
0000
,  // measure 55
0001
0000
1000
0010
0000
1000
0010
0000
,  // measure 56
0220
0000
0000
0330
,  // measure 57
0200
0000
0000
0302
0000
1000
0000
0000
,  // measure 58
2003
0000
0000
3200
0000
0000
0320
0000
,  // measure 59
0100
0000
0100
0000
,  // measure 60
0230
0000
0320
2030
,  // measure 61
3200
0000
0000
0320
0000
0001
0000
0000
,  // measure 62
0032
0000
0000
0023
0000
0000
0032
0000
,  // measure 63
2000
0003
0000
0000
0001
0000
0000
0000
,  // measure 64
3001
0000
0000
0000
,  // measure 65
2000
0000
3010
0200
0000
0302
0000
0000
,  // measure 66
2003
0000
0000
3020
0000
0000
0230
0000
,  // measure 67
0001
0000
0001
0000
,  // measure 68
0302
0000
1000
1003
,  // measure 69
0002
0000
0103
0020
0000
2030
0000
0000
,  // measure 70
3200
0000
0000
0320
0000
0000
0032
0000
,  // measure 71
0203
0000
0010
0000
,  // measure 72
0310
0000
0000
0000
,  // measure 73
2200
0000
0000
0000
,  // measure 74
0000
0000
0000
0000
,  // measure 75
3300
0000
0000
0000
;

//---------------dance-single - ----------------
#NOTES:
     dance-single:
     :
     Hard:
     13:
     0.625,0.770,0.136,0.344,0.316: // measure 1
1000
0010
1000
0010
0100
0010
0100
0000
,  // measure 2
0001
1000
0001
1000
0100
0010
0100
0000
,  // measure 3
1000
0010
1000
0010
0100
0001
0010
0000
,  // measure 4
0220
0000
0000
0000
0000
0000
0000
0330
,  // measure 5
1000
0001
0010
0001
1000
1000
1000
0001
,  // measure 6
1000
0010
1000
0001
0010
0010
0010
0100
,  // measure 7
0010
0001
1000
0001
0010
0010
0010
0100
,  // measure 8
2002
0000
0000
0000
0000
0000
0000
3003
,  // measure 9
0001
0010
1000
0010
0001
0001
0001
1000
,  // measure 10
0100
0001
0100
1000
0100
0100
0100
1000
,  // measure 11
0010
0000
0200
0000
0000
0302
0000
0000
0203
0000
0000
0310
0000
2000
0000
0000
,  // measure 12
0000
0000
0000
0000
0000
0000
0000
0000
3001
0000
1000
0002
0000
0000
0000
0000
,  // measure 13
1003
0010
0100
0001
0010
1000
0010
0001
,  // measure 14
1000
0010
0100
0001
0100
1000
0100
0001
,  // measure 15
1000
0000
0001
0100
0001
0000
1000
0000
0100
0000
0001
0000
0100
0000
1000
0000
,  // measure 16
0001
0000
1000
0100
1000
0000
0001
0000
0100
0001
0100
0000
0010
0000
1000
0000
,  // measure 17
0001
0000
1000
0100
1000
0000
0001
0000
0100
0000
1000
0000
0100
0000
0001
0000
,  // measure 18
1000
0000
0100
0010
0100
0000
1000
0000
0100
0000
0001
0000
0100
0000
1000
0000
,  // measure 19
0001
0000
1000
0010
1000
0000
0001
0000
0010
0100
0010
0000
0001
0000
1000
0000
,  // measure 20
2002
0000
0000
0000
0000
0000
3003
0001
,  // measure 21
1000
0100
1000
0001
1000
0100
1000
0000
,  // measure 22
0010
0100
0010
1000
0010
0100
0010
1000
,  // measure 23
0001
0000
0100
0001
0100
0000
0010
1000
0010
0000
1000
0000
0100
0000
0010
0001
,  // measure 24
0010
0000
0100
1000
0100
0000
0010
0000
0001
0000
1000
0010
1000
0000
0001
0000
,  // measure 25
0100
0000
0010
0100
0000
0000
0010
0000
1000
0000
0100
0000
0010
0000
0001
0000
,  // measure 26
0100
0000
0010
0100
0000
0000
0010
0000
1000
0000
0100
0000
0010
0000
0001
0000
,  // measure 27
1000
0000
0020
0000
0000
2030
0000
0000
3002
0000
0000
0103
0000
0010
0000
2000
,  // measure 28
0000
0000
0000
0000
0000
0000
0000
0000
3001
0000
0200
0020
0000
0000
0000
0000
,  // measure 29
0000
0000
0000
0000
,  // measure 30
0000
0000
0000
0000
,  // measure 31
0000
0000
0000
0000
,  // measure 32
0000
0000
0000
0000
0000
0000
0000
0330
,  // measure 33
1002
0000
0000
0000
,  // measure 34
0203
0000
0000
0000
0020
0000
0000
0330
,  // measure 35
2002
0000
0000
3000
0023
0000
0000
0000
,  // measure 36
0200
0000
0000
0000
0000
0000
0000
0330
,  // measure 37
1001
0000
1000
0010
0000
1000
0001
0010
0001
0000
0010
0100
0000
0010
0100
1000
,  // measure 38
0100
0000
1000
0001
0000
1000
0001
0100
0001
0000
0100
0010
0000
0100
0010
1000
,  // measure 39
0100
0000
0010
0001
0000
0010
0001
1000
0010
0000
0100
0001
0000
0100
0001
1000
,  // measure 40
0001
0000
0010
0100
0000
0010
0100
1000
0100
0000
1000
0001
0000
1000
0001
0100
,  // measure 41
0001
0000
1001
0000
1000
0100
0010
0001
,  // measure 42
1000
0000
1001
0000
0001
0100
0010
1000
,  // measure 43
0001
0000
1001
0000
1000
0010
0100
0001
,  // measure 44
1000
0000
1001
0000
0001
0010
0100
1000
,  // measure 45
0002
0000
0000
0000
0100
0000
0100
0000
0103
0010
1000
0000
0001
0000
0010
0000
,  // measure 46
0200
0000
0000
0000
1000
0000
1000
0000
1300
0001
0100
0000
0010
0000
1000
0000
,  // measure 47
0100
0000
0010
0100
0010
0000
0001
0000
1000
0010
1000
0000
0001
0000
0100
0010
,  // measure 48
0200
0000
0000
0300
,  // measure 49
0001
0000
1000
0100
1000
0000
0001
0000
1000
0100
1000
0000
0001
0000
0010
0000
,  // measure 50
0100
0000
1000
0010
1000
0000
0100
0000
1000
0010
1000
0000
0001
0000
0010
0000
,  // measure 51
0100
0000
0010
0001
0010
0000
0100
0000
1000
0010
1000
0000
0010
0000
0100
0000
,  // measure 52
0001
0000
0010
0001
0010
0000
0100
0000
1000
0010
1000
0000
0001
0000
0100
0000
,  // measure 53
0010
0000
1000
0001
1000
0000
0001
0000
0010
0001
0010
0001
0100
0000
0010
0000
,  // measure 54
1000
0000
0001
0010
0001
0000
0100
0000
0010
1000
0010
1000
0001
0000
0010
0000
,  // measure 55
0100
0000
1000
0010
1000
0000
0001
0000
0010
0100
0010
0100
1000
0000
0010
0000
,  // measure 56
0210
0000
0302
2003
,  // measure 57
3001
0010
0001
1000
0010
0001
0010
1000
,  // measure 58
0100
0010
0100
1000
0010
0100
0001
0010
,  // measure 59
0002
0000
0010
0010
0000
1000
1003
0000
,  // measure 60
0020
0000
0000
0000
0100
0000
0130
0000
0001
0010
0100
0000
1000
0000
0010
0000
,  // measure 61
1000
0001
1000
0010
0001
0010
1000
0100
,  // measure 62
0010
0001
1000
0001
0010
0001
1000
0010
,  // measure 63
2000
0000
0010
0010
0000
0001
3001
0000
,  // measure 64
2002
0000
0000
0000
0000
0000
0000
3003
,  // measure 65
0001
0000
1000
0100
1000
0000
0010
0000
0001
0000
0010
0000
1000
0000
0001
0000
,  // measure 66
1000
0000
0001
0100
0001
0000
0010
0000
1000
0000
0010
0000
0001
0000
1000
0000
,  // measure 67
0100
0000
0010
0100
1000
0000
0001
0000
0100
0001
0100
0001
1000
0000
0100
0000
,  // measure 68
2002
0000
0000
0000
0000
0000
0000
3003
,  // measure 69
1010
0000
0010
0000
1000
0000
0001
0000
1000
0100
0010
0100
1000
0000
0001
0000
,  // measure 70
0011
0000
0010
0000
0100
0000
1000
0000
0001
0100
0010
0100
0001
0000
1000
0000
,  // measure 71
2002
0003
0200
0300
,  // measure 72
0002
0000
0000
0000
0000
0000
0000
3003
,  // measure 73
0220
0000
0000
0000
,  // measure 74
0000
0000
0000
0000
,  // measure 75
0330
0000
0000
0000
;

//---------------dance-single - ----------------
#NOTES:
     dance-single:
     :
     Beginner:
     2:
     0.090,0.173,0.072,0.000,0.000:
1000
0000
0000
0000
,
0000
0000
0000
0000
,
0010
0000
0000
0000
,
1000
0000
0000
0000
,
0001
0000
0000
0000
,
0100
0000
0000
0000
,
0010
0000
0000
0000
,
1001
0000
0000
0000
,
0001
0000
0000
0000
,
0010
0000
0000
0000
,
0100
0000
0000
0000
,
0000
0000
0000
0000
,
1000
0000
0000
0000
,
0010
0000
0000
0000
,
0100
0000
0000
0000
,
0001
0000
0000
0000
,
1000
0000
0000
0000
,
0010
0000
0000
0000
,
0100
0000
0000
0000
,
1001
0000
0000
0000
,
0001
0000
0000
0000
,
0010
0000
0000
0000
,
0100
0000
0000
0000
,
1000
0000
0000
0000
,
1001
0000
0000
0000
,
0000
0000
0000
0000
,
0001
0000
0000
0000
,
0000
0000
0000
0000
,
0000
0000
0000
0000
,
0000
0000
0000
0000
,
0000
0000
0000
0000
,
0000
0000
0000
0000
,
1001
0000
0000
0000
,
1000
0000
0000
0000
,
1001
0000
0000
0000
,
0001
0000
0000
0000
,
1001
0000
1000
0000
,
1000
0000
1000
0000
,
0001
0000
0001
0000
,
0001
0000
0001
0000
,
1000
0000
0000
0000
,
0010
0000
0000
0000
,
0100
0000
0000
0000
,
0001
0000
0000
0000
,
1000
0000
0000
0000
,
1001
0000
0000
0000
,
0001
0000
1000
0000
,
0001
0000
0000
0000
,
0100
0000
0000
0000
,
0010
0000
0000
0000
,
0100
0000
0000
0000
,
0001
0000
0000
0000
,
1000
0000
0000
0000
,
0100
0000
0000
0000
,
1000
0000
0000
0000
,
1001
0000
0000
0000
,
0001
0000
0000
0000
,
0100
0000
0000
0000
,
0001
0000
0000
0000
,
1000
0000
0000
0000
,
0100
0000
0000
0000
,
1000
0000
0000
0000
,
0100
0000
0000
0000
,
0010
0000
0000
0000
,
0001
0000
0000
0000
,
0100
0000
0000
0000
,
0001
0000
0000
0000
,
1000
0000
0000
0000
,
0100
0000
0000
0000
,
0010
0000
0000
0000
,
0100
0000
0000
0000
,
1000
0000
0000
0000
,
1001
0000
0000
0000
;
