#TITLE:Ending;
#SUBTITLE:(4thMIX ~ complete MIX2);
#ARTIST:Takehiko Fujii;
#TITLETRANSLIT:;
#SUBTITLETRANSLIT:(4thMIX ~ complete MIX2);
#ARTISTTRANSLIT:;
#CREDIT:DigiMindAxel;
#BANNER:Ending (4thMIX ~ complete MIX2).png;
#BACKGROUND:Ending (4thMIX ~ complete MIX2)-bg.png;
#LYRICSPATH:;
#CDTITLE:Konami original.png;
#MUSIC:Ending (4thMIX ~ complete MIX2).ogg;
#METERTYPE:DDR X;
#OFFSET:-0.440;
#SAMPLESTART:15.186;
#SAMPLELENGTH:12.000;
#SELECTABLE:YES;
#BPMS:0.000=130.000;
#STOPS:;
#BGCHANGES:-2.500=Ending (4thMIX ~ complete MIX2).avi=1.000=1=1=0,
99999=-nosongbg-=1.000=0=0=0 // don't automatically add -songbackground-
;

//---------------dance-single - ----------------
#NOTES:
     dance-single:
     :
     Easy:
     3:
     0.194,0.227,0.000,0.016,0.000:
0000
0000
0000
0000
,
0000
0000
0000
0000
,
0000
0000
0000
0000
,
0000
0000
0000
0000
,
1000
0000
1000
0000
,
0100
0000
0010
0000
,
0001
0001
1000
1000
,
0001
0001
0000
0000
,
1000
0100
0010
0000
,
0001
0000
0100
0000
,
0001
0000
1000
0000
,
0100
0000
1000
0010
,
0100
0001
0100
0010
,
1000
0000
1000
0000
,
0100
0010
0100
0000
,
1000
0000
0001
0000
,
0100
0001
0100
0001
,
1000
0100
1000
0100
,
0010
0001
0010
0001
,
2000
0000
3000
0000
,
0010
1000
0010
1000
,
0100
0000
0010
0000
,
0001
0100
0001
0100
,
0010
0000
1000
0000
,
0100
0010
0100
0010
,
0001
0000
1000
0000
,
0100
1000
0100
1000
,
0010
0000
0100
0000
,
0001
1000
0001
1000
,
0100
1000
0100
1000
,
0010
0100
0010
0100
,
0001
0010
0001
0010
,
0100
0000
0000
0000
;

//---------------dance-single - ----------------
#NOTES:
     dance-single:
     :
     Medium:
     8:
     0.356,0.385,0.079,0.079,0.110:
0000
0000
0000
0000
,
0000
0000
0000
0000
,
0000
0000
0000
0000
,
0000
0000
0000
0000
,
0100
0100
0100
0100
,
1100
0000
0000
0110
0000
0000
0002
0000
,
1003
1000
1000
1000
,
0001
0001
0001
0001
,
1001
0100
0010
0001
,
1000
0100
0010
0000
0001
0100
0100
0000
,
0001
2000
0100
0000
,
3100
0000
0010
0000
0001
0100
0010
0000
,
1001
0010
0100
0001
,
0010
0100
1000
0000
0001
0100
0100
0000
,
0002
1000
0000
1003
,
0001
0000
0100
0000
0010
1000
0100
0000
,
0000
0000
0010
0000
0000
0010
0000
0000
0010
0000
0000
0001
0000
1000
0000
0001
,
0000
0000
0010
0000
0000
0010
0000
0000
0010
0000
0000
0001
0000
1000
0000
0001
,
0000
0000
0010
0000
0000
0010
0000
0000
0010
0000
0000
0001
0000
1000
0000
0001
,
0000
0000
1001
0000
,
1000
0100
1000
0000
0001
1000
0001
0000
,
1000
0100
0010
0000
0001
0100
0100
0000
,
0001
1000
0001
0000
1000
0100
1000
0000
,
0001
0100
0010
0000
1000
0100
0100
0000
,
0010
0001
0010
0000
0001
1000
0001
0000
,
1000
0100
0010
0000
0100
1000
1000
0000
,
0010
0100
0010
0000
1000
0010
1000
0000
,
0010
0100
0001
0000
1000
0100
0100
0000
,
0010
0001
0010
0000
0001
2000
0000
3010
,
0100
0001
0010
0100
0010
0000
0001
0000
,
1000
0020
0000
0130
0001
1000
0001
0000
,
1000
0010
1000
0001
1000
0100
0010
0001
,
0000
0000
1000
0000
1000
0000
0000
0001
0000
0100
0000
0000
0000
0000
0000
0000
;

//---------------dance-single - ----------------
#NOTES:
     dance-single:
     :
     Hard:
     11:
     0.525,0.540,0.300,0.221,0.615: // measure 1
0000
0000
0000
0000
,  // measure 2
0000
0000
0000
0000
,  // measure 3
0000
0000
0000
0000
,  // measure 4
0000
0000
0000
0000
,  // measure 5
2000
0000
0000
0000
3002
0000
0000
0000
0103
0000
0001
0000
0000
1000
0000
0000
,  // measure 6
0001
0000
0000
0010
0000
0000
1000
0000
0000
0010
0000
0000
0001
0000
0000
0000
,  // measure 7
0200
0302
0203
0302
,  // measure 8
2003
0001
0001
3001
,  // measure 9
1001
0001
0100
1000
0100
0001
0010
0100
,  // measure 10
0020
0000
0000
0001
0000
0000
0001
0000
0000
0100
0000
0000
0130
0000
0000
0000
,  // measure 11
1000
0100
1000
0010
0001
0010
1000
0001
,  // measure 12
0020
0000
0000
0001
0000
0000
0001
0000
0000
0100
0000
0000
0130
0000
0000
0000
,  // measure 13
1001
1000
0001
0010
1000
0010
0001
1000
,  // measure 14
0020
0000
0000
0100
0000
0000
0100
0000
0000
1000
0000
0000
1030
0000
0000
0000
,  // measure 15
0001
0010
1000
0010
0001
1000
0010
0100
,  // measure 16
0020
0000
0000
0100
0000
0000
0100
0000
0000
1000
0000
0000
1030
0000
0000
0000
,  // measure 17
0000
0000
0011
0000
0000
0011
0000
0000
0011
0000
0000
0100
0000
1000
0000
0010
,  // measure 18
0000
0000
0101
0000
0000
0101
0000
0000
0101
0000
0000
0010
0000
1000
0000
0100
,  // measure 19
0000
0000
0011
0000
0000
0011
0000
0000
0011
0000
0000
0100
0000
1000
0000
0010
,  // measure 20
0000
0100
0000
0000
0100
0000
0000
0001
0000
0000
0001
0000
0000
0000
0000
0000
2002
0000
0000
0000
0000
0000
0000
0000
3003
0000
0000
0000
0000
0000
0000
0000
,  // measure 21
1000
0000
0100
0000
1000
0001
0010
0100
0000
2000
0000
0000
3010
0000
0000
0000
,  // measure 22
1000
0000
0100
0000
0001
0000
0100
0000
1000
0000
0001
0100
0001
0100
0000
0001
,  // measure 23
1000
0100
0001
1000
0010
0001
1000
0000
,  // measure 24
0001
0000
0010
0000
1000
0000
0010
0000
0001
0000
0010
0001
0010
0001
0000
1000
,  // measure 25
0001
0000
0100
0000
0001
1000
0000
0001
1000
0000
0000
0100
0000
1000
0000
0001
,  // measure 26
0000
0000
0100
0000
0010
1000
0000
0010
1000
0000
0000
0001
0000
0010
0000
0100
,  // measure 27
0000
0000
0010
0000
0001
1000
0000
0001
1000
0000
0000
0010
0000
0100
0000
0001
,  // measure 28
0000
0000
1000
0000
0100
1000
0000
0100
1000
0000
0000
0010
0000
0100
0000
0001
,  // measure 29
1000
0000
0010
0000
1000
0010
0000
1000
0001
0000
0000
0011
0000
0010
0000
0110
,  // measure 30
0000
0000
1000
0000
0010
1000
0000
0001
0010
0000
0000
1001
0000
1000
0000
1010
,  // measure 31
0000
0000
0010
0000
0100
0001
0000
0010
0100
0000
0000
1100
0000
1000
0000
1001
,  // measure 32
0000
0000
0001
0000
0100
0010
0000
1000
0001
0000
0000
0011
0000
0010
0000
0100
,  // measure 33
0000
0000
1000
0000
0100
0010
0001
0100
0000
0010
0000
0000
0000
0000
0000
0000
;

//---------------dance-single - ----------------
#NOTES:
     dance-single:
     :
     Beginner:
     1:
     0.086,0.124,0.047,0.000,0.000:
0000
0000
0000
0000
,
0000
0000
0000
0000
,
0000
0000
0000
0000
,
0000
0000
0000
0000
,
1000
0000
0000
0000
,
0100
0000
0000
0000
,
1000
0000
0000
0000
,
1000
0000
0000
0000
,
1001
0000
0000
0000
,
0001
0000
0000
0000
,
0100
0000
0000
0000
,
0001
0000
0000
0000
,
1001
0000
0000
0000
,
1000
0000
0000
0000
,
0100
0000
0000
0000
,
1000
0000
0000
0000
,
0010
0000
0000
0000
,
0100
0000
0000
0000
,
0010
0000
0000
0000
,
0100
0000
1001
0000
,
0001
0000
0100
0000
,
0001
0000
0000
0000
,
1000
0000
0000
0000
,
0001
0000
0000
0000
,
1000
0000
0010
0000
,
1000
0000
0000
0000
,
0001
0000
0000
0000
,
1000
0000
0000
0000
,
0001
0000
0010
0000
,
0001
0000
0010
0000
,
0100
0000
1000
0000
,
0100
0000
1000
0000
;
