#TITLE:Emmène-moi au Futur;
#SUBTITLE:;
#ARTIST:YELLE;
#TITLETRANSLIT:Emmene-moi au Futur;
#SUBTITLETRANSLIT:;
#ARTISTTRANSLIT:;
#CREDIT:DigiMindAxel;
#BANNER:Emmene-moi au Futur.png;
#BACKGROUND:Emmene-moi au Futur-bg.png;
#LYRICSPATH:Emmene-moi au Futur.lrc;
#CDTITLE:DigiMindAxel original simfile.png;
#MUSIC:Emmene-moi au Futur.ogg;
#METERTYPE:DDR X;
#OFFSET:-7.279;
#SAMPLESTART:41.585;
#SAMPLELENGTH:12.000;
#SELECTABLE:YES;
#BPMS:0.000=139.000;
#STOPS:;
#BGCHANGES:;

//---------------dance-single - ----------------
#NOTES:
     dance-single:
     :
     Easy:
     4:
     0.210,0.234,0.011,0.228,0.000:
2000
0000
0000
0000
,
0000
0000
0000
3100
,
0020
0000
0000
0000
,
0000
0000
0000
0031
,
1000
0000
0010
0000
,
1000
0001
1000
0000
,
0001
0000
0010
0000
,
0001
1000
0001
0000
,
0010
0000
0100
0000
,
1000
0010
1000
0000
,
0100
0000
0010
0000
,
0001
0100
0001
0000
,
1000
0001
1000
0001
,
1000
0000
0010
0000
,
0100
0001
0100
0001
,
0100
0000
0010
0000
,
1000
0001
1000
0001
,
1000
0000
0100
0000
,
0010
0001
0010
0001
,
0010
0000
0100
0000
,
2000
0000
3010
0100
,
0010
0000
0000
0000
,
0200
0000
0302
0000
,
2003
0000
3000
0000
,
0002
0000
0013
0100
,
0010
0000
0002
0000
,
0203
0000
0320
0000
,
2030
0000
3000
0000
,
0200
0000
0310
0001
,
0010
0000
0100
0000
,
2000
0000
3002
0000
,
0203
0000
0300
0000
,
0002
0000
1003
0100
,
1000
0000
0100
0010
,
0100
1000
0100
0000
,
2000
0000
3001
0100
,
0002
1000
0000
1000
,
0000
1003
0001
0010
,
0200
1000
0000
1000
,
0000
1300
0010
0100
,
0002
0010
0000
0010
,
0000
0013
0100
1000
,
0020
0100
0000
0100
,
0000
0130
0001
1000
,
1001
0000
0000
0000
,
0000
0000
0001
0010
,
0100
0000
0000
0000
,
0000
0000
1000
0010
;

//---------------dance-single - ----------------
#NOTES:
     dance-single:
     :
     Medium:
     6:
     0.266,0.286,0.207,0.130,0.000:
1000
0000
0000
0000
0000
0000
0000
0100
,
0000
0010
0100
0000
,
0010
0000
0000
0000
0000
0000
0000
0001
,
0000
0010
0100
0000
,
1001
0000
0000
1000
0000
1000
0000
1000
,
0000
0100
0010
0000
,
1001
0000
0000
0001
0000
0001
0000
0001
,
0000
0010
0100
0000
,
1001
0000
0000
1000
0000
1000
0000
1000
,
0000
0010
0100
0000
,
1001
0000
0000
0001
0000
0001
0000
0001
,
0000
0010
0100
0000
,
0010
0001
0100
0001
,
0010
0000
0100
1000
0100
0000
0000
0000
,
0010
0001
0100
0010
,
0100
0000
0001
1000
0001
0000
0000
0000
,
1001
0000
0000
1000
0000
1000
0000
1000
,
0000
0010
0100
0000
0001
0000
0000
0000
,
1001
0000
0000
0001
0000
0001
0000
0001
,
0000
0100
0010
0000
1000
0000
0000
0000
,
0001
0000
0100
0001
0000
1000
0000
0200
,
0000
0000
1000
1300
,
0010
0001
0000
0100
0000
0010
0000
2000
,
0000
0000
0001
3001
,
1000
0000
0100
0010
0000
0001
0000
0200
,
0000
0000
0010
0310
,
1000
0010
0000
0100
0000
0001
0000
2000
,
0000
0000
0100
3100
,
0010
0000
0001
0100
0000
0010
0000
0200
,
0000
0000
0010
0310
,
1000
0100
0000
0010
0000
0100
0000
2000
,
0000
0000
0001
3001
,
1000
0000
0010
1000
0000
0001
0000
0020
,
0000
0000
0001
0031
,
0100
0000
0010
1000
0010
1000
0000
0002
,
0000
0000
0010
0013
,
1001
0000
0000
0000
0000
0000
0000
1010
,
0000
1010
0000
0000
0000
0000
0000
0000
,
0110
0000
0000
0000
0000
0010
0000
0011
,
0000
0011
0000
0000
0000
0000
0000
0000
,
1001
0000
0000
0000
0000
0000
0000
0101
,
0000
0101
0000
0000
0000
0000
0000
0000
,
0110
0000
0000
0000
0000
0000
0000
1100
,
0000
1100
0000
0000
0000
0000
0000
0000
,
1002
0000
0000
0000
0000
0000
0000
0023
,
0000
0000
0130
1000
,
0020
0000
0000
0000
0000
0000
0000
0230
,
0000
0000
0301
0010
;

//---------------dance-single - ----------------
#NOTES:
     dance-single:
     :
     Hard:
     10:
     0.466,0.442,0.272,0.381,0.043:
0101
0000
0000
0100
0000
0100
0000
0110
,
0000
0010
1000
0000
1001
0000
0001
0000
,
0011
0000
0000
0010
0000
0010
0000
0110
,
0000
0100
1000
0000
1001
0000
0000
0000
,
0001
0100
0001
1000
0000
0100
0000
0001
,
0000
0100
1000
0010
0100
0000
0000
0001
,
1000
0100
1000
0001
0000
0100
0000
1000
,
0000
0100
0001
0010
0100
0000
0000
1000
,
0001
0010
0001
0100
0000
1000
0000
0100
,
0000
0001
0010
0100
0010
0000
0000
0001
,
1000
0010
1000
0100
0000
0001
0000
0100
,
0000
0000
1000
0000
0001
0000
0010
0000
0100
0000
0000
0000
1000
0001
1000
0001
,
1000
0010
0100
0010
1000
0100
0001
1000
,
0000
0100
0010
1000
0001
0000
0001
0000
,
1000
0001
0010
0001
1000
0010
0001
0010
,
0000
0100
0001
1000
0100
0000
0100
0000
,
0010
0001
0100
0001
0010
1000
0010
0001
,
0000
0010
0100
1000
0010
0000
0010
0000
,
0100
0001
0010
0001
0100
1000
0100
0001
,
0000
0000
0010
0000
0100
0000
1000
0000
0001
0000
0000
0000
1000
0001
1000
0001
,
2000
0000
3010
0200
0000
0302
0000
2003
,
0000
0000
0000
3001
0100
1000
0001
0010
,
1000
0002
0000
0023
0000
0230
0000
0320
,
0000
0000
0000
0031
0100
1000
0001
0010
,
1000
0000
0001
2000
0000
3020
0000
0230
,
0000
0000
0000
0301
0100
1000
0001
0010
,
1000
0002
0000
0203
0000
0320
0000
2030
,
0000
0000
0000
0000
0000
0000
3001
0000
0100
0000
0010
0000
1000
0001
1000
0001
,
1000
0000
0100
1100
0000
0110
0000
0012
,
0000
0000
0000
1003
0100
0001
1000
0010
,
0001
1000
0000
1010
0000
0110
0000
0102
,
0000
0000
0000
1003
0100
0001
1000
0010
,
0001
0000
1000
1001
0000
0011
0000
2100
,
0000
0000
0000
3001
0100
1000
0001
0010
,
1000
0000
0001
0100
0010
0100
0000
2001
,
0000
0000
0000
0000
0000
0000
3001
0000
0100
0000
0010
0000
1000
0001
1000
0001
,
1000
0000
0100
1000
0000
0010
0000
0200
,
0000
0002
0000
0000
0000
0000
0303
0000
,
2001
0000
0001
0000
0000
3100
0000
2000
,
0000
0002
0000
0000
0000
0000
3003
0000
,
0110
0000
0010
0001
0000
0010
0000
0200
,
0000
2000
0000
0000
0000
0000
3300
0000
,
1002
0000
1000
0000
0000
0013
0000
0200
,
0000
2000
0000
0000
0000
0000
3300
0000
,
2002
0000
0000
3003
0000
1010
0000
1020
,
0000
0000
0000
0130
0001
0010
0100
1000
,
2002
0000
0000
3003
0000
0011
0000
0012
,
0000
0000
0000
1003
0100
0010
0001
1000
;

//---------------dance-single - ----------------
#NOTES:
     dance-single:
     :
     Beginner:
     1:
     0.071,0.125,0.022,0.000,0.000: // measure 1
1000
0000
0000
0000
,  // measure 2
0000
0000
0000
0000
,  // measure 3
0010
0000
0000
0000
,  // measure 4
0000
0000
0000
0000
,  // measure 5
1000
0000
0000
0000
,  // measure 6
0000
0000
0000
0000
,  // measure 7
0001
0000
0000
0000
,  // measure 8
0000
0000
0000
0000
,  // measure 9
0010
0000
0000
0000
,  // measure 10
0000
0000
0000
0000
,  // measure 11
0001
0000
0000
0000
,  // measure 12
0000
0000
0000
0000
,  // measure 13
1000
0000
0000
0000
,  // measure 14
0001
0000
0000
0000
,  // measure 15
1000
0000
0000
0000
,  // measure 16
0100
0000
0000
0000
,  // measure 17
1000
0000
0000
0000
,  // measure 18
0001
0000
0000
0000
,  // measure 19
0010
0000
0000
0000
,  // measure 20
0001
0000
0000
0000
,  // measure 21
0100
0000
0100
0000
,  // measure 22
0100
0000
0000
0000
,  // measure 23
0010
0000
0010
0000
,  // measure 24
0010
0000
0000
0000
,  // measure 25
0100
0000
0100
0000
,  // measure 26
0100
0000
0000
0000
,  // measure 27
0010
0000
0010
0000
,  // measure 28
0010
0000
0000
0000
,  // measure 29
1000
0000
1000
0000
,  // measure 30
1000
0000
0000
0000
,  // measure 31
0001
0000
0001
0000
,  // measure 32
0001
0000
0000
0000
,  // measure 33
1000
0000
1000
0000
,  // measure 34
1000
0000
0000
0000
,  // measure 35
0001
0000
0001
0000
,  // measure 36
0001
0000
0000
0000
,  // measure 37
1001
0000
0000
0000
,  // measure 38
0000
0000
0000
0000
,  // measure 39
1000
0000
0000
0000
,  // measure 40
0000
0000
0000
0000
,  // measure 41
0010
0000
0000
0000
,  // measure 42
0000
0000
0000
0000
,  // measure 43
0100
0000
0000
0000
,  // measure 44
0000
0000
0000
0000
,  // measure 45
1001
0000
0000
0000
,  // measure 46
0000
0000
0000
0000
,  // measure 47
0001
0000
0000
0000
;
