#TITLE:El venenciador;
#SUBTITLE:;
#ARTIST:ふる;
#TITLETRANSLIT:;
#SUBTITLETRANSLIT:;
#ARTISTTRANSLIT:FURU;
#CREDIT:DigiMindAxel;
#BANNER:El venenciador.png;
#BACKGROUND:El venenciador-bg.png;
#LYRICSPATH:;
#CDTITLE:pop'n music.png;
#MUSIC:El venenciador.ogg;
#METERTYPE:DDR X;
#OFFSET:-7.141;
#SAMPLESTART:12.880;
#SAMPLELENGTH:12.000;
#SELECTABLE:YES;
#BPMS:0.000=156.000,153.000=158.000,221.000=156.000,262.500=158.000,270.500=161.000,278.500=162.000;
#STOPS:;
#BGCHANGES:;

//---------------dance-single - ----------------
#NOTES:
     dance-single:
     :
     Easy:
     4:
     0.206,0.234,0.180,0.139,0.000:
2000
0000
0000
0000
,
0000
3000
1001
0001
,
0000
1000
0000
0100
,
0000
1000
0000
0002
,
0000
0103
0000
0020
,
0000
0130
0000
0002
,
0000
1003
0000
0200
,
0000
1300
0000
0010
,
0100
0010
0000
2000
,
0000
3001
0000
2000
,
0000
3100
0000
0020
,
0000
0031
0000
1000
,
0001
1000
0000
0001
,
1000
0001
0000
1000
,
0100
1000
0000
0001
,
0010
0001
0000
0100
,
0010
0100
0000
0010
,
0100
0010
0000
1000
,
0100
1000
0000
0001
,
1000
0001
0000
1001
,
0000
0000
0000
0000
,
0000
0110
0000
0000
,
0000
0000
0000
1001
,
0000
0000
0000
0000
,
0000
0110
0000
0000
,
0000
0000
0000
1001
,
0000
0000
0000
0000
,
0000
2000
0000
0000
,
0000
3100
0000
0000
,
0000
0020
0000
0000
,
0000
0031
0000
0000
,
0000
0100
0010
0100
,
0000
0001
0010
0001
,
0000
1000
0100
1000
,
0000
0001
1000
0001
,
0000
2000
0000
0000
,
0000
3200
0000
0000
,
0000
0320
0000
0000
,
0000
0032
0000
0003
,
0000
1000
0000
0001
,
0000
1000
0000
0100
,
0000
1000
0000
0010
,
0000
0100
0010
0100
,
0000
0001
0000
1000
,
0000
0100
1000
0100
,
0000
0010
0100
0010
,
0100
0010
0000
0000
,
0000
1001
0000
0001
,
0010
0100
0000
1000
,
0100
0010
0000
0001
,
0010
0100
0000
1000
,
0010
1000
0000
1001
,
0000
0001
0010
0100
,
0000
1000
0100
0010
,
0000
0001
1000
0010
,
0000
0110
0000
0110
,
0000
0000
0000
0000
,
1001
0000
1001
0000
,
0000
0000
0000
0110
,
0000
0110
0000
0000
,
0000
0000
1001
0000
,
1001
0000
1001
0000
,
1001
0000
0010
0000
,
0100
0000
1000
0000
,
0100
0000
0010
0000
,
0001
0000
0000
0000
0000
2000
0000
0000
,
0000
0000
0000
0000
,
0000
0000
3000
0000
0000
0002
0000
0000
,
0000
0000
0000
0003
0000
0200
0000
0000
,
0000
0000
0300
0000
0000
0000
0000
1001
,
0000
0000
0000
1001
0000
0000
0000
1001
,
0000
0000
0000
0110
0000
0000
0000
0000
;

//---------------dance-single - ----------------
#NOTES:
     dance-single:
     :
     Medium:
     9:
     0.417,0.409,0.327,0.098,0.115:
0010
0100
1000
0020
,
0000
0000
0030
0000
0110
0000
0000
0001
,
0100
0001
0000
1000
0000
1000
0000
0100
,
0010
0100
0000
1000
0000
1000
0001
0000
,
0010
0000
0100
0000
1000
0100
0010
0001
,
1000
0000
0000
0001
0100
0001
1000
0000
,
0100
0000
0000
0010
0001
0010
0100
0000
,
1000
0000
0000
1001
,
0010
0000
0100
0000
1000
0100
0010
0001
,
1000
0000
0000
0010
0100
0010
1000
0000
,
0100
0000
0000
0010
0001
0010
0100
1000
,
0000
0001
0000
1001
0000
0000
1000
0100
,
1000
0000
0010
0100
0010
0000
1000
0100
,
0010
0000
0100
0000
1000
0001
0100
0000
,
0001
0000
1000
0100
0010
0000
0100
1000
,
0100
0000
0010
0100
0010
0000
0001
1000
,
0010
0000
0100
0010
1000
0000
0100
0010
,
0001
0000
1000
0000
0001
0010
0100
0000
,
0010
0000
0001
0000
1000
0001
0100
0000
,
0010
1000
0100
1100
,
0000
1100
0000
0000
1100
0000
0000
0110
,
0000
0000
0101
0000
0000
0101
0000
0000
,
0101
0000
0000
0110
0000
0000
1001
0000
,
0000
1001
0000
0000
1001
0000
0000
0110
,
0000
0000
0011
0000
0000
0011
0000
0000
,
0011
0000
0000
0110
0000
0000
1020
0000
,
0000
2030
0000
0000
3002
0000
0000
2003
,
0000
3010
0000
0100
,
0001
0010
0100
0000
,
1000
0100
0010
0000
,
0001
0100
0010
0000
,
0000
0000
1000
0001
1000
0000
0100
0010
,
0001
0000
0010
0001
1000
0000
0010
0100
,
0010
0100
0001
0000
0010
0000
0100
1000
,
0100
1000
0100
0010
0000
0001
0000
0100
,
0000
0002
0000
0000
,
0000
2003
0000
0000
,
0000
3002
0000
0000
,
0000
1003
0100
0010
,
0000
0000
0001
1000
0100
0000
1000
0100
,
0000
0010
0000
0000
0001
0100
0001
0100
,
0010
0000
0100
0000
0001
0000
1000
0100
,
0010
0000
0001
1000
0100
0000
0010
0000
,
0001
1000
0010
0100
0010
0000
1000
0100
,
0000
1000
0000
0000
0010
0100
0002
0000
,
2003
0000
3100
0010
0000
0001
1000
0000
,
0010
1000
0002
0000
0000
0000
0000
0000
,
0003
0000
0010
0001
0010
0000
0100
0010
,
0100
1000
0010
0001
,
0010
0000
1000
0001
0100
0000
0010
1000
,
0100
0000
1001
0000
0000
1001
0000
0000
,
1000
0000
0010
0000
0000
0110
0000
0000
,
0010
1000
0010
0000
0100
0010
0100
0000
,
0001
0000
1000
0100
0010
0000
0001
0010
,
0100
1001
0100
0010
,
0001
0000
0000
0000
1000
0000
0000
1001
0000
0000
0000
0001
0000
0000
1001
0000
,
0000
0100
0000
0100
0000
0000
0000
0000
0000
0000
0000
0000
0000
0000
0000
0000
,
0001
0000
0000
1001
0000
0000
0000
1000
0000
0000
1001
0000
0000
0010
0000
0010
,
0000
0000
0000
0000
0000
0000
0000
0000
0000
0000
0000
0000
1000
0000
0000
1001
,
0000
0000
0000
0001
0000
0000
1001
0000
0000
0100
0000
0010
0000
0000
0000
0000
,
0000
0000
0000
0000
0000
0000
0000
0000
0001
0000
0000
1001
0000
0000
0000
1000
,
0000
0000
1001
0000
0000
0010
0000
0100
0000
0000
0000
0101
0000
0000
0000
0000
,
0000
1010
0000
0000
0000
0000
1000
0000
0000
1000
0000
0000
0010
0000
0100
0000
,
0010
0000
1000
0000
0100
0000
0000
0010
0000
0000
0001
0000
0100
0000
0001
0000
,
1000
0000
0000
0100
0000
0000
0010
0000
0001
0000
0100
0000
0010
0000
0000
0100
,
0000
0001
1000
0100
0010
0002
0000
0000
,
0000
0000
0000
0000
,
0000
0000
0000
1000
1003
0010
0100
0010
,
0000
0110
0000
0000
0000
0000
0000
0000
0000
0000
1000
0000
0001
0000
1000
0000
,
0000
1001
0000
0000
0000
0000
0000
0000
0000
0000
0100
0001
0000
0000
0101
0000
,
0000
0000
0100
0010
0000
0000
0110
0000
0000
0000
1000
0100
0000
0000
1100
0000
,
0000
0000
1000
0001
0000
0000
1001
0000
0000
0000
0000
0000
0000
0000
0000
0000
;

//---------------dance-single - ----------------
#NOTES:
     dance-single:
     :
     Hard:
     13:
     0.610,0.584,0.336,0.164,0.446:
0001
0000
0001
0100
0000
0100
0010
0000
0010
2000
0000
0000
,
0000
0000
0000
0000
0000
0000
0000
0000
3001
0000
0000
0000
0000
0000
1000
0100
,
1000
0000
0001
0000
0000
0000
0001
0000
0010
0000
0100
0000
0000
0000
0010
0001
,
0010
0000
0100
0000
0000
0000
0100
0000
1000
0000
0010
0000
0100
0000
0000
0001
,
0100
0000
0000
0100
0010
0000
0000
0010
1000
0000
0000
0000
0100
0000
0010
0001
,
0020
0000
0000
0000
0030
0000
0001
0000
0010
0000
0100
0000
1000
0000
0001
0100
,
0002
0000
0000
0000
0003
0000
1000
0000
0100
0000
0010
0000
0001
0000
1000
0010
,
2000
0000
0000
0000
3000
0000
0000
0000
1000
0000
0001
1000
0001
0000
0100
0010
,
0100
0000
0001
0000
0010
0000
0100
0000
0010
0000
0010
0000
0100
0000
1000
0001
,
2000
0000
3000
0010
1000
0100
0010
0001
,
0200
0000
0300
0001
1000
0100
0010
1100
,
0000
0000
1001
0000
0000
0000
1100
0000
0000
0000
0000
0000
1000
0000
0000
1000
,
0001
0000
0000
0001
0010
0000
0000
0010
0100
0000
0000
0100
1000
0000
0010
0000
,
0100
0000
0000
0000
0001
0000
1000
0000
0010
0000
0001
0000
0010
0000
1000
0001
,
2000
0000
0000
0000
3001
0000
0010
0000
1000
0000
0010
0000
0001
0000
0100
0010
,
0200
0000
0000
0000
0010
0000
0000
0000
0310
0000
0000
0000
1000
0000
0001
0010
,
0001
0000
1000
0000
0100
0000
0010
0000
0010
0000
0100
0000
0010
0000
0001
1000
,
0002
0000
0000
0000
0003
0000
1000
0010
1000
0000
0100
0000
0010
0000
0001
0000
,
0100
0000
0000
0000
0001
0000
0010
0000
1000
0000
0010
0000
0001
1000
0001
1000
,
0002
0000
0000
0100
0103
0000
1001
0000
,
0000
0000
0011
0000
0000
0000
0000
0000
1100
0000
0000
0000
0000
0000
0010
0100
,
0010
0100
0010
0000
0110
0000
0000
0000
0000
0000
0101
0000
0000
0000
0000
0000
,
1010
0000
0000
0000
0000
0000
0100
0010
0100
0010
0100
0000
0110
0000
0000
0000
,
0000
0000
0011
0000
0000
0000
0000
0000
1100
0000
0000
0000
0000
0000
0010
0100
,
0010
0100
0010
0000
0110
0000
0000
0000
0000
0000
1100
0000
0000
0000
0000
0000
,
0011
0000
0000
0000
0000
0000
0100
0010
0100
0010
0100
0000
0001
0010
0100
0000
,
0000
0000
0010
0100
1000
0000
0000
0000
0001
0010
0100
0000
0000
0000
0010
0100
,
1000
1000
0001
0100
0001
0000
0010
0100
,
0010
0100
1000
0010
2000
0000
0000
3001
,
1000
0000
0010
0100
0002
0000
0000
1003
,
0001
0000
0010
0100
2000
0000
0000
0000
,
3000
0000
0001
0010
0001
0010
0001
0001
,
0100
0010
1000
0100
1000
0100
1000
0001
,
0001
0010
0100
1000
0010
0000
0100
0010
,
0100
0010
1000
1001
0000
0101
0000
1010
,
0000
1001
0002
0000
0000
0010
0000
0000
,
0013
0000
0200
0000
0000
1000
0000
0000
,
1300
0000
0020
0000
0000
0100
0000
0000
,
0130
0000
0000
0001
0010
0001
0010
0100
0010
0100
0000
0000
,
1000
1000
0001
0100
1000
0100
0010
2000
,
0000
3001
0000
0100
0010
0010
0100
0100
,
1000
0000
0100
0000
0010
0000
0001
1000
0002
0000
0000
0000
0003
0000
1000
0000
,
0100
0000
1000
0000
0001
0000
0000
0010
0000
0000
0100
0000
0010
0000
0000
0000
,
0001
1000
0001
1000
0001
0000
0100
0000
1000
0000
0100
0000
0010
0000
2000
0000
,
0000
0000
3001
0000
0000
0000
1000
0000
0100
0000
0100
0000
0010
0001
0010
0001
,
0010
0001
0010
0000
0001
0000
0001
0000
0100
0000
1000
0000
1000
0000
0100
0000
,
0001
0000
0000
0001
0000
0000
1000
0000
0010
0000
1000
0000
0010
0000
0100
0000
0001
0000
0100
0000
0001
0000
0010
0000
,
0100
0000
0010
0000
0100
0000
1000
0000
0000
0001
0000
0000
1000
0000
0000
0000
0000
0000
1000
0000
0000
0100
0000
0000
,
1000
0000
0000
0000
1000
0000
0010
0000
0000
0100
0000
0000
0001
0000
0000
1000
,
0000
0100
0000
1000
0001
0010
0100
0010
,
0100
0000
1000
0000
0001
0000
0000
0100
0000
0010
0000
1000
0000
0000
0001
0000
,
0010
0000
0001
0000
0100
0000
0000
0100
0000
0000
0110
0000
0000
0000
0100
0000
,
0001
0010
0100
1000
0100
0010
0100
1000
,
0001
0000
0100
0000
0001
0000
0010
0000
1000
0000
0000
0010
0000
0000
0001
0000
,
0100
0000
0010
0000
1000
0000
0000
0001
0000
0010
0000
0001
0000
0100
0000
0010
,
0000
0000
0000
0000
1001
0000
0000
1001
0000
0000
0000
1100
0000
0000
1100
0000
,
0000
0010
0000
0100
0000
0000
0000
0000
0000
0000
0000
0000
0000
0000
0000
0000
,
1001
0000
0000
1001
0000
0000
0000
0101
0000
0000
0101
0000
0000
0010
0000
0100
,
0000
0000
0000
0000
0000
0000
0000
0000
0000
0000
0000
0000
1001
0000
0000
1001
,
0000
0000
0000
0110
0000
0000
0110
0000
0000
0001
0000
0100
0000
0000
0000
0000
,
0000
0000
0000
0000
0000
0000
0000
0000
1001
0000
0000
1001
0000
0000
0000
0110
,
0000
0000
0110
0000
0000
1000
0000
0100
0000
0000
1100
0000
0000
0000
0110
0000
,
0000
0010
0000
0100
0000
0000
0001
0000
0100
0001
0000
0000
1000
0000
0100
1000
,
0000
0000
0010
0000
0100
0000
0001
0100
0000
0000
0001
0000
1000
0000
0100
1000
,
0010
0000
0100
0010
0000
0000
0100
0000
0001
0010
0001
0000
0100
0000
0010
0100
,
0000
0000
0001
0000
0010
0001
0010
0001
1000
0010
2000
0000
0000
0000
0000
0000
,
0000
0000
0000
0000
,
0000
0000
0000
0000
0000
0000
0001
0000
3001
0000
0100
0010
0100
0010
0100
0000
,
0000
0110
0000
0000
0010
0000
0100
0000
1000
0000
0001
0100
0001
0100
0001
0000
,
0000
1001
0000
0000
1000
0000
0010
0000
0100
0000
0001
1000
0000
0000
1000
0010
,
0000
0000
0010
0100
0000
0000
0100
0001
0000
0000
0001
0010
0000
0000
0010
0100
,
0000
0000
0100
1000
0000
0000
1001
0000
0000
0000
0000
0000
0000
0000
0000
0000
;

//---------------dance-single - ----------------
#NOTES:
     dance-single:
     :
     Challenge:
     16:
     0.852,0.818,0.311,0.196,0.974:
0001
0100
0001
0010
0100
0010
0001
1000
0100
0020
0000
0000
,
0000
0000
0000
0000
0000
0000
0000
0000
0031
1000
0001
1000
0001
0000
0010
0100
,
1000
0000
0001
0000
0100
0000
0100
0000
0001
0000
0001
0000
1000
0000
0100
0010
,
0001
0000
1000
0000
0010
0000
0100
0001
0010
0100
0010
0000
0001
0000
0100
0001
,
0100
0000
0001
0000
1000
0000
0010
0000
0001
0000
0010
0000
1000
0000
0100
0010
,
0002
0000
0000
0000
0003
0000
1000
0000
0100
0000
0001
0000
0100
0000
1000
0001
,
0020
0000
0000
0000
0030
0000
0001
0000
0100
0000
1000
0000
0100
0000
0001
0010
,
0200
0000
1000
0000
0000
0000
1300
0000
0010
0000
0100
0010
0100
0000
0001
0010
,
0100
0000
1000
0000
0001
0000
0100
0001
0100
0001
1000
0100
1000
0000
0100
0010
,
0002
0000
0000
0000
0003
0000
0010
0001
0010
0001
0010
0100
0010
0100
1000
0100
,
2000
0000
0000
0000
3000
0000
0001
0000
1000
0000
1000
0000
0001
0000
0100
0001
,
0020
0000
0100
0000
0000
0000
0130
0000
1000
0001
1000
0000
0010
0000
0010
1000
,
0100
0000
0010
0100
0010
0000
0001
0100
0001
0000
1000
0001
1000
0000
0100
0010
,
0002
0000
1000
0000
0000
0000
1003
0000
0001
0000
0100
0000
0010
0000
0010
1000
,
0200
0000
0010
0000
0000
0000
0310
0000
0001
0000
0100
0000
0010
0000
1000
0100
,
0020
0000
0001
0000
0000
0000
0001
0000
0000
0000
0031
0000
0100
0000
0100
0001
,
0010
0000
0100
0010
0100
0000
1000
0001
0100
0001
1000
0100
0010
0000
0001
0010
,
0200
0000
1000
0000
0000
0000
1300
0010
0100
0010
1000
0100
0010
0001
0010
0100
,
2000
0000
0001
0000
0000
0000
3001
0000
1000
0000
0010
0000
0100
0001
1000
0100
,
0020
0000
0001
0000
0000
0000
0001
0000
0031
0000
0000
0000
1001
0000
1000
0100
,
0010
0000
1001
0000
0001
0010
0100
0000
1001
0000
1000
0100
0010
0000
0001
1000
,
0010
1000
0001
0000
1001
0000
0001
0100
0010
0000
1001
0000
1000
0010
0100
0000
,
1001
0000
0001
0100
0010
0000
1000
0001
0010
0001
1000
0000
1001
0000
1000
0100
,
0010
0000
0110
0000
0100
0010
0001
0000
1001
0000
0001
0010
0100
0000
1000
0010
,
0100
0010
1000
0000
1001
0000
0001
0100
0010
0000
0110
0000
0010
1000
0100
0000
,
1001
0000
1000
0010
0100
0000
0001
1000
0100
1000
0001
0000
0100
0001
0100
0001
,
0010
0000
0010
0100
1000
0100
1000
0000
1000
0010
0100
0010
0100
0000
0001
0000
,
1001
0000
1001
0000
1000
0000
0001
0010
0001
0000
1000
0000
0100
0000
0010
0000
,
0100
0000
0010
0000
0001
0000
0100
0010
0200
0000
0000
0000
0000
0000
0301
0000
,
1000
0000
0100
0000
0010
0000
0001
1000
0002
0000
0000
0000
0000
0000
1003
0000
,
0001
0000
0010
0000
0100
0000
1000
0010
2000
0000
0000
0000
0000
0000
0000
0000
,
3001
0000
1000
0001
1000
0000
0010
1000
0100
0000
0010
0000
0010
0000
0001
0100
,
0001
0100
0001
1000
0100
0000
0010
0001
0200
0000
0001
0000
0000
0000
0301
0010
,
0100
1000
0010
1000
0010
1000
0001
0010
0200
0000
1000
0000
0000
0000
1300
0000
,
0001
0000
0100
0000
0001
0010
0100
1000
0020
0000
1000
0000
0000
0000
1000
0000
,
0000
1030
0001
0010
0000
0010
0100
0000
,
1000
0001
1000
0100
0000
0100
0010
0000
,
0001
0000
1000
0000
0001
0000
0010
0100
0010
0000
0001
0000
0100
0010
0100
0000
,
0001
0000
0000
1000
0000
0000
0001
0000
0000
0000
0000
0000
0100
0000
0000
0000
0100
0000
0000
0000
0001
0000
0000
0000
0010
0000
0000
0000
0010
0000
0000
0000
0100
0000
0000
0000
1000
0000
0000
0000
0000
0000
0000
0000
0000
0000
0000
0000
,
0010
0100
0010
0100
0010
0000
1000
0100
0010
0000
0001
0000
1000
0100
0010
0000
,
0001
0000
0100
0000
0000
0000
0001
0000
0100
0000
0001
0000
1000
0100
0010
0000
,
0001
0000
0001
0000
0100
0000
0001
1000
0200
0000
0000
0000
0300
0000
0010
0000
,
0001
0000
0010
0000
0100
0000
0000
1100
0000
0000
1000
0001
0100
0000
0000
0000
,
0010
0100
0010
0100
0010
0000
1000
0100
0010
0000
0001
0000
1000
0100
0010
0000
,
0001
0000
0100
0000
0000
0000
0001
0000
1000
0000
0001
0000
0010
0100
0010
0100
,
1000
0100
0010
0001
0100
0010
0100
0010
1000
0000
0010
0100
0010
0100
0001
0000
,
0100
0000
0000
0010
0000
0000
0100
0000
0000
0010
0000
0000
1000
0000
0000
0000
0001
0000
0000
0000
0010
0000
0000
0000
1000
0000
0000
0000
0010
0000
0000
0000
0001
0000
0000
0000
1000
0000
0000
0000
0100
0000
0000
0000
0001
0000
0000
0000
,
1000
0000
0000
0000
0010
0000
0000
0000
0001
0000
0000
0000
1000
0000
0000
0000
0000
0000
0100
0000
0000
0000
0000
0000
0010
0000
0000
0100
0000
0000
0010
0000
0000
0000
0000
0000
0001
0000
0000
0000
0000
0000
1000
0000
0000
0000
0000
0000
,
0001
0010
0001
0000
1000
0000
0010
0100
0000
0010
0100
0000
0001
0010
0000
0001
,
0010
0000
0100
0000
0000
0000
1000
0010
1000
0100
0010
0001
1000
0100
0010
0001
,
1000
0010
1000
0001
0010
0100
0000
0100
0000
1000
0000
0010
0000
0100
0001
0100
,
0001
1000
0100
0000
1100
0000
0000
0011
0000
0000
1001
0000
0000
1000
0001
1000
,
0100
0010
0001
0000
0100
0001
1000
0100
0000
0010
0100
1000
0001
0000
0100
0010
,
0100
0010
1000
0010
0100
0001
0010
0100
1000
0000
0001
0100
0000
0001
0000
1000
,
0100
0010
0001
0010
0100
1000
0000
1000
0000
0010
0000
0100
0000
0001
0000
0001
,
0100
0000
0000
0000
0010
0100
0000
0110
0000
0000
0000
0100
0010
0000
0110
0000
,
0000
0102
0000
0000
0000
0000
0000
0000
0000
0000
0000
0000
0003
0000
0000
0000
,
0100
0010
0000
0110
0000
0000
0000
0010
0100
0000
0110
0000
0000
2100
0000
0000
,
0000
0000
0000
0000
0000
0000
0000
0000
3000
0000
0000
0000
0001
0100
0000
0101
,
0000
0000
0000
0100
0001
0000
0101
0000
0000
0120
0000
0000
0000
0000
0000
0000
,
0000
0000
0000
0000
0030
0000
0000
0000
1000
0100
0000
1100
0000
0000
0000
0100
,
1000
0000
1100
0000
0000
1001
0000
0001
0100
0000
0101
0000
0000
0000
0100
0001
,
0000
0001
0000
0001
1000
0000
0100
1000
0100
0010
0000
0000
0001
0100
1000
0100
,
0001
0010
0100
0010
0001
0100
0001
1000
0000
0100
0010
0001
0010
1000
0010
0001
,
0100
0010
1000
0100
0000
0000
1000
0010
0001
0010
1000
0100
0010
0100
1000
0010
,
0100
0000
0000
0001
0100
0001
1000
0100
0010
0001
0020
0000
0000
0000
0000
0000
,
0000
0000
0000
0000
,
0000
0000
0000
0000
0000
0000
0001
0000
0031
0000
1000
0100
0001
0100
1000
0001
,
0000
1001
0000
0000
0100
0000
0110
0000
0110
0000
0001
0010
1000
0010
0001
1000
,
0000
0000
0000
1001
0000
0000
0000
0000
0000
0000
0000
0000
0010
0000
0000
0000
0000
0000
0110
0000
0000
0000
0000
0000
0110
0000
0000
0000
0000
0000
0100
0000
0000
0000
0001
0000
0000
0000
0100
0000
0000
0000
0001
0000
0000
0000
0010
0000
,
0000
0100
0000
1000
0000
0010
0000
0001
0000
0010
0000
1000
0000
0100
0000
0001
0000
1000
0000
0010
0000
0001
0000
1000
,
0000
0100
0000
0010
0000
0100
0000
1000
0000
1001
0000
0000
0000
0000
0000
0000
0000
0000
0000
0000
0000
0000
0000
0000
;

//---------------dance-double - ----------------
#NOTES:
     dance-double:
     :
     Easy:
     5:
     0.256,0.292,0.196,0.270,0.000:
02000000
00000000
00000000
00000000
,
00000000
03000000
10010000
00010000
,
00000000
01000000
00000000
00010000
,
00000000
01000000
00000000
00002000
,
00000000
00013000
00000000
00000020
,
00000000
00000130
00000000
00000002
,
00000000
00000013
00000000
00000200
,
00000000
00000310
00000000
00010000
,
00001000
00010000
00001000
02000000
,
00000000
03100000
00000000
02000000
,
00000000
03010000
00000000
20000000
,
00000000
30100000
00000000
01000000
,
00100000
01000000
00100000
10000000
,
01000000
00100000
00000000
00001000
,
00010000
00001000
00010000
00000100
,
00000010
00000001
00000000
00000100
,
00000001
00000100
00000001
00000010
,
00000100
00010000
00000000
00001000
,
01000000
00001000
01000000
00100000
,
10000000
01000000
00000000
02200000
,
00000000
00000000
00000000
03300000
,
00000000
20020000
00000000
00000000
,
00000000
30030000
00000000
02200000
,
00000000
00000000
00000000
03300000
,
00000000
20020000
00000000
00000000
,
00000000
30030000
00000000
02200000
,
00000000
00000000
00000000
03300000
,
00000000
02000000
00000000
00000000
,
00000000
13000000
00000000
00000000
,
00000000
00200000
00000000
00000000
,
00000000
01300000
00000000
00000000
,
00000000
00001000
01000000
00001000
,
01000000
00010000
00001000
00010000
,
00001000
00000010
00000100
00000010
,
00000100
00000001
00000010
00000100
,
00000000
00002000
00000000
00000000
,
00000000
00003002
00000000
00000000
,
00000000
00002003
00000000
00000000
,
00000000
00003002
00000000
00001003
,
00000000
00000010
00000100
00000010
,
00000100
00000010
00000000
00001000
,
00000100
00000010
00000001
00001000
,
00000000
00000010
00010000
00000010
,
00000000
00010000
00001000
01000000
,
00100000
01000000
00100000
20000000
,
00000000
30010000
10000000
00010000
,
00100000
02000000
00000000
00000000
,
00000000
13000000
00000000
00100000
,
10000000
00010000
00010000
01000000
,
01000000
00001000
00001000
00010000
,
00000010
00000210
00000000
00000301
,
00001000
00000001
00000000
00001001
,
00001000
00000001
00000010
00000001
,
00010000
00001000
00100000
01000000
,
10000000
00100000
00100000
00100000
,
00100000
10010000
00000000
10010000
,
00000000
00000000
00000000
00000000
,
01100000
00000000
01100000
00000000
,
00000000
00000000
00000000
00011000
,
00000000
00011000
00000000
00000000
,
00000000
00000000
00000110
00000000
,
00000110
00000000
00000110
00000000
,
00000110
00000000
00000200
00000000
,
00000301
00000010
00000100
00010000
,
00001000
00000000
00100000
01000000
,
10000000
00000000
00100000
00000000
00000000
02000000
00000000
00000000
,
00000000
00000000
00000000
00000000
,
00000000
00000000
03000000
00000000
00000000
02200000
00000000
00000000
,
00000000
00000000
00000000
03300000
00000000
20020000
00000000
00000000
,
00000000
00000000
30030000
00000000
00000000
00000000
00000000
01100000
,
00000000
00000000
00000000
01100000
00000000
00000000
00000000
00011000
,
00000000
00000000
00000000
00011000
00000000
00000000
00000000
00000000
;

//---------------dance-double - ----------------
#NOTES:
     dance-double:
     :
     Medium:
     9:
     0.423,0.409,0.360,0.090,0.119:
00010000
00100000
01000000
20000000
,
00000000
00000000
30000000
00000000
10010000
00000000
00000000
00100000
,
01000000
00001000
00000000
00001000
00000000
00001000
00000000
00010000
,
00000100
00000010
00000000
00000010
00000000
00000010
00000000
00000000
,
00001001
00000000
00000010
00000000
00000100
00010000
00001000
00100000
,
01000000
00000000
00000000
10000000
01000000
10000000
00010000
00000000
,
00010000
00000000
00000000
01000000
00100000
01000000
00001000
00000000
,
00001000
00000000
00000000
00011000
,
00010000
00000000
00000100
00000000
00000010
00000001
00000010
00000100
,
00001000
00000000
00000000
00000010
00000100
00000010
00001000
00000000
,
00001000
00000000
00000000
00000100
00010000
00001000
01000000
00100000
,
00000000
00100000
00000000
01100000
00000000
00000000
01000000
00100000
,
01000000
00000000
10000000
01000000
10000000
00000000
01000000
00100000
,
00001000
00000000
00001000
00000000
00010000
00000010
00000100
00000000
,
00000100
00000000
00000001
00000010
00000100
00000000
00001000
00000010
,
00001000
00000000
00000010
00000000
00010000
00000000
00001000
01000000
,
00100000
00000000
10000000
01000000
10000000
00000000
01000000
10000000
,
00100000
00000000
00100000
00000000
01000000
00001000
00010000
00000000
,
00010000
00000000
00000100
00000010
00000001
00000010
00000100
00000000
,
00000100
00010000
00010000
00011000
,
00000000
01001000
00000000
00000000
00011000
00000000
00000000
01001000
,
00000000
00000000
01100000
00000000
00000000
11000000
00000000
00000000
,
01100000
00000000
00000000
11000000
00000000
00000000
00101000
00000000
,
00000000
00011000
00000000
00000000
00101000
00000000
00000000
00011000
,
00000000
00000000
00010100
00000000
00000000
00010001
00000000
00000000
,
00010100
00000000
00000000
00010001
00000000
00000000
00000120
00000000
,
00000000
00000230
00000000
00000000
00000302
00000000
00000000
00001003
,
00000001
00001000
00000100
00000000
00010000
00000000
00001000
00000000
,
00100000
01000000
10000000
00000000
,
01000000
00100000
01000000
00000000
,
10000000
00100000
01000000
00000000
,
00000000
00000000
00001000
00010000
00001000
00000000
00010000
00000010
,
00000100
00000000
00000010
00000100
00000001
00000000
00000010
00000100
,
00000010
00000100
00010000
00000000
00001000
00000000
00100000
01000000
,
00100000
01000000
10000000
00100000
00000000
00100000
00000000
00100000
,
00000000
20010000
00000000
00000000
,
00000000
30002000
00000000
00000000
,
00000000
00023000
00000000
00000000
,
00000000
00031000
00010000
00000010
,
00000000
00000000
00000100
00000001
00000010
00000000
00000001
00001000
,
00000000
00001000
00000000
00000000
00000010
00000100
00000010
00001000
,
00010000
00000000
00100000
00000000
01000000
00000000
10000000
00010000
,
01000000
00000000
00100000
10000000
01000000
00000000
00100000
00000000
,
00001000
00010000
00001000
00010000
00000010
00000000
00000100
00000001
,
00000000
00000001
00000000
00000000
00000010
00000100
00020000
00000000
,
00032000
00000000
00103000
01000000
00000000
00100000
01000000
00000000
,
10000000
01000000
00200000
00000000
00000000
00000000
00000000
00000000
,
00300000
00000000
00001000
00010000
00001000
00000000
00010000
00000100
,
00010000
00000100
00000001
00000100
,
00010000
00000000
00001000
00010000
00001000
00000000
01000000
00100000
,
01000000
00000000
01100000
00000000
00000000
01100000
00000000
00000000
,
01000000
00000000
10000000
00000000
00000000
10010000
00000000
00000000
,
10000000
01000000
10000000
00000000
00010000
10000000
00001000
00000000
,
00010000
00000000
00000100
00000010
00000001
00000000
00000010
00000100
,
00010000
01001000
01100000
10100000
,
10000000
00000000
00000000
00000000
01000000
00000000
00000000
01100000
00000000
00000000
00000000
00100000
00000000
00000000
01100000
00000000
,
00000000
00001000
00000000
00001000
00000000
00000000
00000000
00000000
00000000
00000000
00000000
00000000
00000000
00000000
00000000
00000000
,
00000010
00000000
00000000
00000110
00000000
00000000
00000000
00000100
00000000
00000000
00000110
00000000
00000000
00001000
00000000
00001000
,
00000000
00000000
00000000
00000000
00000000
00000000
00000000
00000000
00000000
00000000
00000000
00000000
01000000
00000000
00000000
01100000
,
00000000
00000000
00000000
00100000
00000000
00000000
01100000
00000000
00000000
00001000
00000000
00001000
00000000
00000000
00000000
00000000
,
00000000
00000000
00000000
00000000
00000000
00000000
00000000
00000000
00000010
00000000
00000000
00000110
00000000
00000000
00000000
00000100
,
00000000
00000110
00000000
00000000
00000000
00010000
00000000
00010000
00000000
00000000
00000000
00101000
00000000
00000000
00000000
00000000
,
00000000
11000000
00000000
00000000
00000000
00000000
01000000
00000000
00000000
01000000
00000000
00000000
10000000
00000000
01000000
00000000
,
00100000
00000000
00010000
00000000
00001000
00000000
00000000
00001000
00000000
00000000
00000010
00000000
00000100
00000000
00000001
00000000
,
00000010
00000000
00000000
00000010
00000000
00000000
00000100
00000000
00001000
00000000
00010000
00000000
01000000
00000000
00000000
00100000
,
00000000
10000000
00010000
00100000
01000000
20000000
00000000
00000000
,
00000000
00000000
00000000
00000000
,
00000000
00000000
00000000
30010000
10000000
01000000
00100000
00001000
,
00000000
01001000
00000000
00000000
00000000
00000000
00000000
00000000
00000000
00000000
00010000
00000000
00000010
00000000
00000100
00000000
,
00000000
00000101
00000000
00000000
00000000
00000000
00000000
00000000
00000000
00000000
00000010
00000100
00000000
00000000
00000110
00000000
,
00000000
00000000
00010000
00001000
00000000
00000000
00011000
00000000
00000000
00000000
01000000
00010000
00000000
00000000
01010000
00000000
,
00000000
00000000
00100000
01000000
00000000
00000000
01100000
00000000
00000000
00000000
00000000
00000000
00000000
00000000
00000000
00000000
;

//---------------dance-double - ----------------
#NOTES:
     dance-double:
     :
     Hard:
     13:
     0.614,0.584,0.336,0.164,0.446:
10000000
01000000
10000000
01000000
00100000
00010000
00100000
00010000
00001000
00020000
00000000
00000000
,
00000000
00000000
00000000
00000000
00000000
00000000
00000000
00000000
00031000
00000000
00000000
00000000
00000000
00000000
00000010
00000100
,
00000010
00000000
00001000
00000000
00000000
00000000
00001000
00000000
00000100
00000000
00000010
00000000
00000000
00000000
00000001
00000100
,
00000001
00000000
00001000
00000000
00000000
00000000
00001000
00000000
00000010
00000000
00010000
00000000
00001000
00000000
00000000
00001000
,
01000000
00000000
00000000
01000000
00010000
00000000
00000000
00010000
00100000
00000000
00000000
00000000
01000000
00000000
10000000
00100000
,
20000000
00000000
00000000
00000000
00000000
00000000
31000000
00000000
00100000
00000000
00010000
00000000
00001000
00000000
00000010
00000100
,
00000020
00000000
00000000
00000000
00000030
00000000
00000100
00000000
00000001
00000000
00000010
00000000
00000100
00000000
00010000
00001000
,
00020000
00000000
00000000
00000000
00030000
00000000
00000000
00000000
00001000
00000000
01000000
00100000
01000000
00000000
00010000
01000000
,
00010000
00000000
10000000
00000000
01000000
00000000
00100000
00000000
00001000
00000000
00010000
00000000
00000100
00000000
00000010
00000001
,
00000020
00000000
00000030
00000001
00000100
00001000
00000100
00000001
,
00000020
00000000
00000030
00000001
00001000
00000010
00000100
00000101
,
00000000
00000000
00001001
00000000
00000000
00000000
00000101
00000000
00000000
00000000
00000000
00000000
00000010
00000000
00000000
00000010
,
00010000
00000000
00000000
00010000
00001000
00000000
00000000
00001000
01000000
00000000
00000000
01000000
00100000
00000000
10000000
00000000
,
01000000
00000000
00000000
00000000
00100000
00000000
00001000
00000000
00010000
00000000
00000010
00000000
00000100
00000000
00000001
00000100
,
00000002
00000000
00000000
00000000
00000103
00000000
00000010
00000000
00001000
00000000
00000100
00000000
00010000
00000000
00001000
00010000
,
00002000
00000000
00000000
00000000
00010000
00000000
00000000
00000000
00013000
00000000
00000000
00000000
00100000
00000000
01000000
10000000
,
01000000
00000000
00100000
00000000
00010000
00000000
01000000
00000000
00001000
00000000
00010000
00000000
00000100
00000000
00000010
00000100
,
00000020
00000000
00000000
00000000
00000030
00000000
00000001
00000100
00000001
00000000
00000100
00000000
00000010
00000000
00001000
00000000
,
00010000
00000000
00000000
00000000
01000000
00000000
00100000
00000000
10000000
00000000
01000000
00000000
00100000
00010000
00100000
00010000
,
00200000
00000000
00000000
00010000
00310000
00000000
01100000
00000000
,
00000000
00000000
01001000
00000000
00000000
00000000
00000000
00000000
00011000
00000000
00000000
00000000
00000000
00000000
00000010
00000100
,
00000010
00000100
00000010
00000000
00000110
00000000
00000000
00000000
00000000
00000000
00000101
00000000
00000000
00000000
00000000
00000000
,
00010010
00000000
00000000
00000000
00000000
00000000
00010000
00001000
00010000
00001000
00010000
00000000
00011000
00000000
00000000
00000000
,
00000000
00000000
00101000
00000000
00000000
00000000
00000000
00000000
01100000
00000000
00000000
00000000
00000000
00000000
01000000
10000000
,
01000000
10000000
01000000
00000000
11000000
00000000
00000000
00000000
00000000
00000000
01100000
00000000
00000000
00000000
00000000
00000000
,
00101000
00000000
00000000
00000000
00000000
00000000
00001000
00010000
00001000
00010000
00001000
00000000
00010000
00000100
00000010
00000000
,
00000000
00000000
00000100
00000010
00000001
00000000
00000000
00000000
00000100
00000001
00001000
00000000
00000000
00000000
00000100
00010000
,
00001000
00001000
00100000
01000000
10000000
01000000
00100000
01000000
,
10000000
00010000
00100000
00010000
20000000
00000000
00000000
31000000
,
00100000
00010000
00100000
01000000
20000000
00000000
00000000
30100000
,
01000000
00001000
00010000
00001000
02000000
00000000
00000000
00000000
,
03000000
00000000
00010000
10000000
01000000
10000000
00010000
01000000
,
10000000
00010000
00100000
10000000
00001000
01000000
00100000
01000000
,
00001000
00010000
00000100
00000010
00000001
00000000
00001000
00000001
,
00000010
00000001
00001000
00001010
00000000
00001010
00000000
00011000
,
00000000
00011000
00020000
00000000
00000000
00001000
00000000
00000000
,
00031000
00000000
02000000
00000000
00000000
00100000
00000000
00000000
,
03100000
00000000
20000000
00000000
00000000
01000000
00000000
00000000
,
31000000
00000000
00000000
10000000
01000000
10000000
00100000
01000000
00010000
00100000
00000000
00000000
,
00001000
00001000
00010000
00000100
00000010
00000001
00001000
00000002
,
00000000
00000103
00000000
00000001
00000010
00000010
00000100
00000100
,
00010000
00000000
00001000
00000000
00100000
00000000
01000000
00100000
02000000
00000000
00000000
00000000
03000000
00000000
10000000
00000000
,
01000000
00000000
00100000
00000000
00001000
00000000
00000000
00001000
00000000
00000000
00010000
00001000
00010000
00000000
00000000
00000000
,
00000010
00000100
00000010
00000100
00000010
00000000
00001000
00000000
00000001
00000000
00000010
00000000
00000100
00000000
00020000
00000000
,
00000000
00000000
00031000
00000000
00000000
00000000
00100000
00000000
01000000
00000000
01000000
00000000
10000000
00100000
10000000
00100000
,
10000000
00100000
10000000
00000000
00010000
00000000
00010000
00000000
01000000
00000000
00100000
00000000
00100000
00000000
10000000
00000000
,
01000000
00000000
00000000
01000000
00000000
00000000
00100000
00000000
00001000
00000000
00100000
00000000
00001000
00000000
00010000
00000000
00000010
00000000
00010000
00000000
00000010
00000000
00000100
00000000
,
00000001
00000000
00000100
00000000
00000001
00000000
00000010
00000000
00000000
00000100
00000000
00000000
00001000
00000000
00000000
00000000
00000000
00000000
00100000
00000000
00000000
01000000
00000000
00000000
,
10000000
00000000
00000000
00000000
00100000
00000000
01000000
00000000
00000000
01000000
00000000
00000000
00001000
00000000
00000000
00001000
,
00000000
00010000
00000000
00000100
00000010
00000001
00000100
00001000
,
00000100
00000000
00000001
00000000
00000010
00000000
00000000
00000100
00000000
00000100
00000000
00000100
00000000
00000000
00010000
00000000
,
00001000
00000000
00100000
00000000
01000000
00000000
00000000
10000000
00000000
00000000
10010000
00000000
00000000
00000000
10000000
00000000
,
01000000
00010000
01000000
10000000
00100000
01000000
00001000
00010000
,
00000100
00000000
00000001
00000000
00000100
00000000
00010000
00000000
00000010
00000000
00000000
00000100
00000000
00000100
00000000
00000000
,
00000010
00000000
00000100
00000000
00000001
00000000
00000000
00000010
00000000
00000100
00000000
00000010
00000000
00000100
00000000
00010000
,
00000000
00000000
00000000
00000000
00011000
00000000
00000000
00011000
00000000
00000000
00000000
01001000
00000000
00000000
01001000
00000000
,
00000000
01000000
00000000
00000000
00000000
00000000
00000000
00000000
00000000
00000000
00000000
00000000
00000000
00000000
00000000
00000000
,
01100000
00000000
00000000
01100000
00000000
00000000
00000000
01001000
00000000
00000000
01001000
00000000
00000000
00010000
00000000
00000000
,
00000000
00000000
00000000
00000000
00000000
00000000
00000000
00000000
00000000
00000000
00000000
00000000
00000110
00000000
00000000
00000110
,
00000000
00000000
00000000
00000101
00000000
00000000
00000101
00000000
00000000
00000010
00000000
00000000
00000000
00000000
00000000
00000000
,
00000000
00000000
00000000
00000000
00000000
00000000
00000000
00000000
00011000
00000000
00000000
00011000
00000000
00000000
00000000
01010000
,
00000000
00000000
01010000
00000000
00000000
00100000
00000000
01000000
00000000
00000000
10100000
00000000
00000000
00000000
01010000
00000000
,
00000000
00100000
00000000
01000000
00000000
00000000
00001000
00000000
00010000
00001000
00000000
00000000
00010000
00000010
00010000
00000000
,
00000010
00000000
00000100
00000000
00000001
00000000
00000010
00000100
00000000
00000000
00001000
00000000
00010000
00000000
01000000
00000000
,
00100000
00000000
10000000
00100000
00000000
00000000
10000000
00000000
01000000
00000000
00100000
00000000
00010000
00000000
00001000
00010000
,
00000000
00000000
00000010
00000000
00000100
00000001
00000100
00000001
00001000
00000100
00002000
00000000
00000000
00000000
00000000
00000000
,
00000000
00000000
00000000
00000000
,
00000000
00000000
00000000
00000000
00000000
00000000
00000100
00000000
00003100
00000000
00010000
00001000
00010000
00001000
00010000
00000000
,
00000000
00011000
00000000
00000000
00001000
00000000
00100000
00000000
01000000
00000000
10000000
00010000
10000000
00010000
10000000
00000000
,
00000000
10010000
00000000
00000000
00010000
00000000
01000000
00000000
00001000
00000000
00010000
00000100
00000000
00000000
00000100
00000010
,
00000000
00000000
00000010
00000001
00000000
00000000
00000001
00000100
00000000
00000000
00000100
00000010
00000000
00000000
00000010
00010000
,
00000000
00000000
00010000
00001000
00000000
00000000
01100000
00000000
00000000
00000000
00000000
00000000
00000000
00000000
00000000
00000000
;

//---------------dance-double - ----------------
#NOTES:
     dance-double:
     :
     Challenge:
     16:
     0.856,0.847,0.303,0.205,0.982:
10000000
01000000
00100000
00010000
00001000
00000010
00000100
00000001
00000010
00000200
00000000
00000000
,
00000000
00000000
00000000
00000000
00000000
00000000
00000000
00000000
00010300
00001000
00010000
00001000
00010000
00000000
00001000
01000000
,
00100000
00000000
01000000
00000000
00010000
00000000
00010000
00000000
10000000
00000000
10000000
00000000
00010000
00000000
00100000
01000000
,
10000000
00000000
10000000
00000000
00010000
00000000
01000000
00100000
01000000
00010000
00001000
00000000
00000010
00000000
00000100
00000010
,
00000100
00000000
00000001
00000000
00000010
00000000
00001000
00000000
00000010
00000000
00000001
00000000
00001000
00000000
00000100
00000010
,
00000002
00000000
00000000
00000000
00000003
00000000
00000010
00000000
00000100
00000000
00010000
00000000
00001000
00000000
01000000
00100000
,
20000000
00000000
00000000
00000000
30000000
00000000
00100000
00000000
01000000
00000000
00010000
00000000
00001000
00000000
00000100
00000010
,
00000002
00000000
00001000
00000000
00000000
00000000
00001003
00000000
00000010
00000000
00000100
00000001
00000100
00000000
00000001
00000010
,
00000100
00000000
00001000
00000000
00010000
00000000
01000000
00100000
01000000
00100000
10000000
01000000
10000000
00000000
00100000
01000000
,
00020000
00000000
00000000
00000000
00030000
00000000
10000000
00100000
10000000
00100000
01000000
00010000
01000000
00010000
00100000
00001000
,
00200000
00000000
00000000
00000000
00300000
00000000
00001000
00000000
00010000
00000000
00010000
00000000
00000100
00000000
00000010
00000001
,
00000200
00000000
00000010
00000000
00000000
00000000
00000310
00000000
00000100
00000000
00000001
00000100
00000001
00000000
00000010
00000100
,
00010000
00000000
00001000
00010000
00001000
00000000
00100000
01000000
10000000
00000000
01000000
00100000
01000000
00000000
10000000
00100000
,
02000000
00000000
00010000
00000000
00000000
00000000
03010000
00000000
10000000
00000000
01000000
00000000
00100000
00000000
00001000
00010000
,
00000020
00000000
00000100
00000000
00000000
00000000
00000130
00000000
00000001
00000000
00000010
00000000
00000100
00000000
00000010
00000001
,
00020000
00000000
00001000
00000000
00000000
00000000
00031000
00000000
01000000
00000000
00100000
01000000
00100000
00000000
10000000
01000000
,
00100000
00000000
00001000
01000000
00001000
00000000
00010000
00000010
00000100
00000010
00010000
00000010
00000100
00000000
00000001
00000010
,
00000200
00000000
00010000
00000000
00000000
00000000
00010300
00001000
00010000
00001000
01000000
00100000
10000000
00100000
01000000
00001000
,
00020000
00000000
00001000
00000000
00000000
00000000
00031000
00000000
00100000
00000000
01000000
00000000
10000000
00100000
01000000
00010000
,
20000000
00000000
00100000
00000000
00000000
00000000
00100000
00000000
30100000
00000000
00000000
00000000
10010000
00000000
10000000
01000000
,
00100000
00000000
00011000
00000000
00001000
00010000
00000010
00000000
00000101
00000000
00000001
00000010
00000100
00000000
00001000
00010000
,
01000000
00100000
10000000
00000000
10010000
00000000
00010000
00100000
01000000
00000000
00101000
00000000
00001000
00010000
00000010
00000000
,
00001001
00000000
00000001
00000010
00000100
00010000
00001000
00100000
00001000
00100000
01000000
00000000
10010000
00000000
10000000
00100000
,
01000000
00000000
00011000
00000000
00010000
00001000
00000010
00000000
00000110
00000000
00000100
00000001
00000010
00000000
00000100
00010000
,
00001000
00010000
00000100
00000000
00011000
00000000
00001000
00100000
01000000
00000000
01100000
00000000
00100000
10000000
01000000
00000000
,
10010000
00000000
10000000
01000000
00100000
00000000
00001000
01000000
00010000
01000000
00001000
00000000
00010000
00000100
00000010
00000001
,
00010000
00000000
00000001
00000010
00000100
00010000
00000001
00000000
00000010
00000100
00010000
00001000
00100000
00000000
01000000
00000000
,
01100000
00000000
01100000
00000000
00100000
00000000
10000000
01000000
00100000
00000000
00100000
00000000
00001000
00000000
00010000
00000000
,
00001000
00000000
00010000
00000000
00000010
00000000
00000100
00000001
00000200
00000000
00000000
00000000
00000000
00000000
00000301
00000000
,
00001000
00000000
00000100
00000000
00000010
00000000
00000001
00001000
00000002
00000000
00000000
00000000
00000000
00000000
00001003
00000000
,
00000010
00000000
00001000
00000000
00010000
00000000
01000000
00100000
02000000
00000000
00000000
00000000
00000000
00000000
00000000
00000000
,
03100000
00000000
00010000
01000000
00010000
00000000
00100000
01000000
10000000
00000000
00001000
00000000
00001000
00000000
00010000
00000010
,
00010000
00000010
00000100
00000001
00000010
00000000
00000001
00000010
00000200
00000000
00010000
00000000
00000000
00000000
00010300
00001000
,
00010000
00001000
01000000
00100000
01000000
00100000
10000000
01000000
20000000
00000000
00010000
00000000
00000000
00000000
30010000
00000000
,
10000000
00000000
01000000
00000000
00100000
01000000
10000000
00010000
02000000
00000000
00100000
00000000
00000000
00000000
00100000
00000000
,
00000000
03100000
10000000
01000000
00000000
00100000
00001000
00000000
,
00010000
00001000
00010000
00000010
00000000
00000100
00000001
00000000
,
00000010
00000000
00000100
00000000
00000010
00000000
00000001
00001000
00000001
00000000
00000010
00000000
00000100
00010000
00000100
00000000
,
00010000
00000000
00000000
00001000
00000000
00000000
00010000
00000000
00000000
00000000
00000000
00000000
00001000
00000000
00000000
00000000
01000000
00000000
00000000
00000000
10000000
00000000
00000000
00000000
01000000
00000000
00000000
00000000
00001000
00000000
00000000
00000000
00100000
00000000
00000000
00000000
01000000
00000000
00000000
00000000
00000000
00000000
00000000
00000000
00000000
00000000
00000000
00000000
,
10000000
00010000
10000000
00010000
10000000
00000000
01000000
00100000
00010000
00000000
00001000
00000000
00000010
00000100
00000001
00000000
,
00000010
00000000
00000100
00000000
00000000
00000000
00001000
00000000
00000001
00000000
00000001
00000000
00000010
00000100
00001000
00000000
,
00010000
00000000
00010000
00000000
01000000
00000000
00100000
01000000
00020000
00000000
00000000
00000000
00030000
00000000
00100000
00000000
,
01000000
00000000
00100000
00000000
00020000
00000000
00000000
10000000
00000000
00000000
10030000
00100000
01000000
00000000
00000000
00000000
,
00001000
00010000
00001000
00010000
00001000
00000000
00010000
00000010
00000100
00000000
00000001
00000000
00000010
00000100
00001000
00000000
,
00010000
00000000
01000000
00000000
00000000
00000000
00100000
00000000
01000000
00000000
00100000
00000000
10000000
01000000
10000000
01000000
,
00100000
00001000
00010000
00000100
00000010
00000001
00000010
00000001
00000100
00000000
00000010
00010000
00000010
00010000
00001000
00000000
,
00100000
00000000
00000000
01000000
00000000
00000000
00100000
00000000
00000000
01000000
00000000
00000000
10000000
00000000
00000000
00000000
00100000
00000000
00000000
00000000
10000000
00000000
00000000
00000000
01000000
00000000
00000000
00000000
10000000
00000000
00000000
00000000
00100000
00000000
00000000
00000000
01000000
00000000
00000000
00000000
00001000
00000000
00000000
00000000
00010000
00000000
00000000
00000000
,
00000100
00000000
00000000
00000000
00000010
00000000
00000000
00000000
00000100
00000000
00000000
00000000
00001000
00000000
00000000
00000000
00000000
00000000
00000010
00000000
00000000
00000000
00000000
00000000
00000100
00000000
00000000
00000001
00000000
00000000
00000100
00000000
00000000
00000000
00000000
00000000
00000001
00000000
00000000
00000000
00000000
00000000
00000010
00000000
00000000
00000000
00000000
00000000
,
00000100
00010000
00000100
00000000
00010000
00000000
00001000
01000000
00000000
00100000
01000000
00000000
00100000
10000000
00000000
01000000
,
10000000
00000000
00010000
00000000
00000000
00000000
00100000
01000000
00100000
01000000
10000000
00010000
01000000
00100000
10000000
00001000
,
00010000
00001000
00010000
00000100
00000010
00000001
00000000
00000001
00000000
00000010
00000000
00000100
00000000
00010000
00001000
00010000
,
00001000
01000000
00100000
00000000
01100000
00000000
00000000
01100000
00000000
00000000
10010000
00000000
00000000
00010000
00100000
01000000
,
10000000
00010000
01000000
00000000
00001000
00010000
00000010
00000100
00000000
00000001
00000010
00000100
00001000
00000000
00000010
00010000
,
00000010
00010000
00001000
00100000
01000000
00100000
00001000
00100000
01000000
00000000
10000000
00010000
00000000
00100000
00000000
01000000
,
10000000
00100000
10000000
00001000
00010000
00000010
00000000
00000010
00000000
00000100
00000000
00000001
00000000
00001000
00000000
00001000
,
00010000
00000000
00000000
00000000
01000000
00100000
00000000
01100000
00000000
00000000
00000000
10000000
01000000
00000000
11000000
00000000
,
00000000
10002000
00000000
00000000
00000000
00000000
00000000
00000000
00000000
00000000
00000000
00000000
00003000
00000000
00000000
00000000
,
00010000
00000010
00000000
00010010
00000000
00000000
00000000
00000100
00000010
00000000
00000110
00000000
00000000
00000102
00000000
00000000
,
00000000
00000000
00000000
00000000
00000000
00000000
00000000
00000000
00000003
00000000
00000000
00000000
00000010
00000100
00000000
00000110
,
00000000
00000000
00000000
00010000
00001000
00000000
00011000
00000000
00000000
02001000
00000000
00000000
00000000
00000000
00000000
00000000
,
00000000
00000000
00000000
00000000
03000000
00000000
00000000
00000000
00010000
10000000
00000000
10010000
00000000
00000000
00000000
00100000
,
01000000
00000000
01100000
00000000
00000000
01001000
00000000
00001000
00010000
00000000
00011000
00000000
00000000
00000000
00000100
00000010
,
00000000
00000010
00000000
00000010
00000001
00000000
00000010
00000100
00010000
00001000
00000000
00000000
00100000
01000000
10000000
01000000
,
00100000
00001000
00010000
00001000
00010000
00000100
00000010
00000001
00000000
00001000
00000010
00000100
00000010
00010000
00001000
00100000
,
01000000
10000000
01000000
00100000
00000000
00000000
00001000
01000000
00100000
01000000
00001000
00010000
00000100
00000010
00000001
00000010
,
00000100
00000000
00000000
00010000
00001000
00100000
01000000
10000000
01000000
00100000
00002000
00000000
00000000
00000000
00000000
00000000
,
00000000
00000000
00000000
00000000
,
00000000
00000000
00000000
00000000
00000000
00000000
00010000
00000000
00013000
00000000
00000100
00001000
00000010
00000100
00000001
00000010
,
00000000
00000110
00000000
00000000
00010000
00000000
00011000
00000000
00011000
00000000
00100000
10000000
01000000
10000000
00100000
01000000
,
00000000
00000000
00000000
01100000
00000000
00000000
00000000
00000000
00000000
00000000
00000000
00000000
00001000
00000000
00000000
00000000
00000000
00000000
00011000
00000000
00000000
00000000
00000000
00000000
00011000
00000000
00000000
00000000
00000000
00000000
00010000
00000000
00000000
00000000
00000010
00000000
00000000
00000000
00000100
00000000
00000000
00000000
00000010
00000000
00000000
00000000
00010000
00000000
,
00000000
00000001
00000000
00000010
00000000
00000100
00000000
00001000
00000000
00010000
00000000
01000000
00000000
00100000
00000000
01000000
00000000
00010000
00000000
10000000
00000000
00100000
00000000
01000000
,
00000000
00010000
00000000
00001000
00000000
00000100
00000000
00000010
00000000
00000110
00000000
00000000
00000000
00000000
00000000
00000000
00000000
00000000
00000000
00000000
00000000
00000000
00000000
00000000
;

//---------------dance-single - ----------------
#NOTES:
     dance-single:
     :
     Beginner:
     2:
     0.102,0.117,0.115,0.000,0.000: // measure 1
0000
0000
0000
0000
,  // measure 2
0000
0000
0000
0000
,  // measure 3
1000
0000
0000
0100
,  // measure 4
0000
0000
0000
1000
,  // measure 5
0000
0000
0000
0010
,  // measure 6
0000
0000
0000
0100
,  // measure 7
0000
0000
0000
0010
,  // measure 8
0000
0000
0000
0100
,  // measure 9
0000
0000
0000
0001
,  // measure 10
0000
0000
0000
0100
,  // measure 11
0000
0000
0000
0001
,  // measure 12
0000
0000
0000
1000
,  // measure 13
0000
1000
0000
1000
,  // measure 14
0000
0000
0000
0001
,  // measure 15
0000
0000
0000
0001
,  // measure 16
0000
0000
0000
0010
,  // measure 17
0000
0010
0000
0010
,  // measure 18
0000
0000
0000
0100
,  // measure 19
0000
0000
0000
0100
,  // measure 20
0000
0000
0000
1001
,  // measure 21
0000
0000
0000
0000
,  // measure 22
0000
1001
0000
0000
,  // measure 23
0000
0000
0000
1001
,  // measure 24
0000
0000
0000
0000
,  // measure 25
0000
1001
0000
0000
,  // measure 26
0000
0000
1001
0000
,  // measure 27
0000
0000
0000
0000
,  // measure 28
0000
0010
0000
0000
,  // measure 29
0000
0100
0000
0000
,  // measure 30
0000
0010
0000
0000
,  // measure 31
0000
0100
0000
0000
,  // measure 32
0000
0001
0000
0001
,  // measure 33
0000
0001
0000
0000
,  // measure 34
0000
1000
0000
1000
,  // measure 35
0000
1000
0000
0000
,  // measure 36
0000
1001
0000
0000
,  // measure 37
0000
0001
0000
0000
,  // measure 38
0000
0001
0000
0000
,  // measure 39
0000
0001
0000
0000
,  // measure 40
0000
1000
0000
0000
,  // measure 41
0000
0000
0100
0000
,  // measure 42
0000
0010
0000
0000
,  // measure 43
0000
0000
0000
0000
,  // measure 44
0000
0001
0000
0000
,  // measure 45
0000
0000
0010
0000
,  // measure 46
0000
0100
0000
0000
,  // measure 47
0000
0000
0000
0000
,  // measure 48
0000
1001
0000
0001
,  // measure 49
0000
0001
0000
0000
,  // measure 50
0000
1000
0000
1000
,  // measure 51
0000
1000
0000
0000
,  // measure 52
0000
1001
0000
0000
,  // measure 53
0000
0010
0000
0010
,  // measure 54
0000
0010
0000
0000
,  // measure 55
0000
0100
0000
0100
,  // measure 56
0000
0110
0000
0000
,  // measure 57
0000
0000
0000
0000
,  // measure 58
0110
0000
0000
0000
,  // measure 59
0000
0000
0000
0110
,  // measure 60
0000
0000
0000
0000
,  // measure 61
0000
0000
0110
0000
,  // measure 62
0000
0000
0000
0000
,  // measure 63
0000
1000
0000
0000
,  // measure 64
0000
0100
0000
0000
,  // measure 65
0010
0000
0000
0001
,  // measure 66
0000
0000
1000
0000
,  // measure 67
0000
0000
0000
0000
,  // measure 68
0000
0000
0000
1001
,  // measure 69
0000
0000
0000
1001
,  // measure 70
0000
0000
0000
0000
0000
0010
0000
0000
,  // measure 71
0000
0010
0000
0000
0000
0010
0000
0000
,  // measure 72
0000
0010
0000
0100
0000
0000
0000
0000
;
