#TITLE:EXTRAVAGANZA;
#SUBTITLE:;
#ARTIST:BANYA;
#TITLETRANSLIT:;
#SUBTITLETRANSLIT:;
#ARTISTTRANSLIT:;
#CREDIT:DigiMindAxel;
#BANNER:EXTRAVAGANZA.png;
#BACKGROUND:EXTRAVAGANZA-bg.png;
#LYRICSPATH:;
#CDTITLE:PUMP IT UP.png;
#MUSIC:EXTRAVAGANZA.ogg;
#METERTYPE:DDR X;
#OFFSET:-0.384;
#SAMPLESTART:25.569;
#SAMPLELENGTH:12.000;
#SELECTABLE:YES;
#BPMS:0.000=195.000;
#STOPS:;
#BGCHANGES:0.000=EXTRAVAGANZA.avi=1.000=1=1=0,
99999=-nosongbg-=1.000=0=0=0 // don't automatically add -songbackground-
;

//---------------dance-single - ----------------
#NOTES:
     dance-single:
     :
     Easy:
     6:
     0.295,0.390,0.415,0.000,0.000:
0000
0000
0000
0000
,
0000
0000
0000
0000
,
0000
0000
0000
0000
,
0000
0000
0000
0000
,
1000
0000
0001
0000
,
1000
0000
0001
0000
,
0010
0000
0010
0000
,
0100
0000
1000
0000
,
0001
0000
0001
0000
,
0100
0000
0010
0000
,
1000
0000
1000
0000
,
0100
0000
1000
0000
,
1001
0000
0001
0000
,
0100
0000
0100
0000
,
0001
0000
0001
0000
,
1000
0000
1000
0000
,
1001
0000
0001
0000
,
0010
0000
0010
0000
,
0100
0000
0100
0000
,
1000
0000
1000
0000
,
1001
0000
0000
0000
,
0010
0100
0010
0100
,
0110
0000
0110
0000
,
1000
0001
1000
0001
,
1001
0000
1001
0000
,
0010
0100
0010
0100
,
0110
0000
0110
0000
,
0100
0010
0100
0010
,
0110
0000
0110
0000
,
0001
1000
0001
1000
,
1001
0000
1001
0000
,
1000
0001
1000
0001
,
1001
0000
1001
0000
,
0100
0001
0100
0001
,
1001
0000
1001
0000
,
0100
1000
0100
1000
,
1001
0000
1001
0000
,
0010
0000
0000
0000
,
0010
0000
0000
0000
,
0100
0000
0000
0000
,
0100
0000
0000
0000
,
1000
0000
0000
0000
,
1000
0000
0000
0000
,
0001
0000
0000
0000
,
0001
0000
0000
0000
,
0010
0000
0000
0000
,
0010
0000
0000
0000
,
0100
0000
0000
0000
,
0100
0000
0000
0000
,
1000
0000
0000
0000
,
0000
0000
0000
0000
,
0000
0000
0000
0000
,
0000
0000
0000
0000
,
1001
0000
0001
1000
,
1001
0000
0010
0100
,
0110
0000
0100
0010
,
0110
0000
1000
0001
,
1001
0000
0010
0100
,
0110
0000
0100
0010
,
0110
0000
1000
0001
,
1001
0000
0001
1000
,
1001
0000
0010
0100
,
0110
0000
0100
0010
,
0110
0000
1000
0001
,
1001
0000
0001
1000
,
1001
0000
0010
0100
,
0010
0000
0100
0000
,
0010
0000
1000
0000
,
0001
0000
0000
0000
,
1001
0000
1001
0000
,
0010
0100
0010
1000
,
1001
0000
1001
0000
,
0100
0010
1000
0100
,
1001
0000
1001
0000
,
0010
0100
0010
0100
,
1001
0000
1001
0000
,
0010
0100
0010
0100
,
1001
0000
0000
0000
;

//---------------dance-single - ----------------
#NOTES:
     dance-single:
     :
     Medium:
     11:
     0.565,0.701,0.870,0.000,0.000:
0000
0000
0000
0000
,
0000
0000
0000
0000
,
0000
0000
0000
0000
,
0000
0000
0000
0000
,
1000
0000
0100
0000
0010
0000
0100
1000
,
0010
0000
0100
0000
0010
0000
0100
0001
,
0010
0000
0100
0000
0010
0000
0100
1000
,
0010
0000
0100
0000
0001
0000
0100
0001
,
0010
0000
0100
0000
0010
0000
0100
1000
,
0010
0000
1000
0000
0010
0000
0100
0001
,
0010
0000
0100
0000
0010
0000
0100
1000
,
0001
0100
0010
0100
,
1001
0000
1000
0001
0000
1000
0001
0100
,
0001
0000
0010
0100
0000
0010
0100
1000
,
0100
0000
1000
0010
0000
1000
0010
0100
,
0010
0000
1000
0001
0000
1000
0001
0000
,
1001
0000
0010
0100
0000
0010
0100
1000
,
0100
0000
1000
0100
0000
1000
0100
0010
,
0100
0000
1000
0001
0000
1000
0001
0100
,
0001
0000
0100
0010
0000
0100
0010
0000
,
1001
0000
0000
0000
,
1010
1010
0011
0011
,
1001
0110
1001
0110
,
0011
0011
1010
1010
,
0110
1001
0110
1001
,
1100
1100
0101
0101
,
1001
0110
1001
0110
,
0101
0101
1100
1100
,
0110
1001
0110
1001
,
1100
1100
0101
0101
,
0110
1001
0110
1001
,
0110
0110
1001
1001
,
1100
0011
1100
0011
,
1001
0110
1001
0110
,
1010
0101
1010
0101
,
0110
0110
1001
1001
,
0011
1100
0011
1100
,
1001
0000
0000
0001
0000
0000
0000
1000
,
0100
0000
0000
0100
0000
0000
0000
0010
,
0100
0000
0000
1000
0000
0000
0000
0001
,
0100
0000
0000
0001
0000
0000
0000
0010
,
0100
0000
0000
0100
0000
0000
0000
1000
,
0010
0000
0000
0010
0000
0000
0000
0100
,
0010
0000
0000
1000
0000
0000
0000
0001
,
0010
0000
0000
0010
0000
0000
0000
0100
,
1000
0000
0000
0010
0000
0000
0000
1000
,
0001
0000
0000
0001
0000
0000
0000
0010
,
0100
0000
0000
1000
0000
0000
0000
0001
,
0100
0000
0000
0100
0000
0000
0000
0010
,
0100
0000
0000
0000
,
0001
0000
0000
0000
,
0010
0000
0000
0000
,
0100
0000
0000
0000
,
1001
0000
0000
0000
0010
1000
0100
1000
,
0010
0000
0000
0000
1000
0100
0010
0100
,
1000
0000
0000
0000
0100
1000
0100
0010
,
0001
0000
0000
0000
0010
0001
0100
0010
,
0100
0000
0000
0000
0001
0010
0100
1000
,
0001
0000
0000
0000
0100
0001
0010
0100
,
1000
0000
0000
0000
0001
0100
0010
0100
,
0001
0000
0000
0000
1000
0001
0010
0100
,
0010
0000
0000
0000
0001
0100
0001
1000
,
0001
0000
0000
0000
0100
0001
0010
0001
,
0100
0000
0000
0000
0001
0010
0001
0100
,
0010
0000
0000
0000
1000
0100
0010
0100
,
1000
0000
0000
0000
0010
1000
0100
1000
,
0010
0010
0100
0100
,
0001
0000
0000
0010
0000
0000
0100
1000
,
0010
0000
0000
0000
,
0100
1000
0100
0000
1000
0001
1000
0000
,
1001
0101
1010
1001
,
0001
0010
0001
0000
0100
0010
0100
0000
,
1001
1100
0011
1001
,
0010
0100
0010
0000
0100
0001
0100
0000
,
1001
0011
1100
0011
,
0001
1000
0001
0000
1000
0010
1000
0000
,
1001
1010
0101
1010
,
0110
0000
0000
0000
;

//---------------dance-single - ----------------
#NOTES:
     dance-single:
     :
     Hard:
     15:
     0.831,0.829,0.516,0.334,0.359:
0000
0000
0000
0000
,
0000
0000
0000
0000
,
0000
0000
0000
0000
,
0000
0000
0000
0000
,
1000
0000
0001
0000
1000
0000
0001
0000
0100
0000
0001
0000
0100
0010
0100
0010
,
0100
0000
0001
0000
0100
0000
0001
0000
1000
0000
0100
0000
1000
0001
1000
0001
,
1000
0000
0100
0000
1000
0000
0100
0000
0010
0000
0100
0000
0010
0001
0010
0001
,
0010
0001
0010
0001
0100
0010
1000
0100
,
0010
0000
0001
0000
0010
0000
0001
0000
0100
0000
0010
0000
1000
0100
1000
0100
,
1000
0000
0001
0000
1000
0000
0001
0000
0100
0000
0001
0000
0100
0010
0100
0010
,
0100
0000
0001
0000
0100
0000
0001
0000
1000
0000
0100
0000
1000
0001
1000
0001
,
1000
0100
1000
0100
0010
0001
0100
0010
,
1001
0000
0000
0000
1000
0000
0010
0000
1000
0000
0001
0000
0010
0100
0010
0100
,
0010
0000
0001
0000
1000
0000
0010
0000
1000
0000
0001
0000
0010
0001
0010
0001
,
0010
0000
0100
0000
1000
0000
0010
0000
1000
0000
0001
0000
0010
0100
0010
0100
,
0010
0000
0001
0000
0010
0000
0100
0000
1000
0010
1000
0000
0001
0000
0001
0000
,
0110
0000
0000
0000
0010
0000
1000
0000
0001
0000
0010
0000
0100
1000
0100
1000
,
0010
0000
0100
0000
0010
0000
1000
0000
0001
0000
0010
0000
0100
0010
0100
0010
,
0001
0000
0100
0000
0010
0000
0100
0000
0001
0000
0010
0000
0100
1000
0100
1000
,
0010
0000
0100
0000
0001
0000
0010
0000
0100
1000
0100
0000
0010
0000
0010
0000
,
2002
0000
0000
3003
,
0001
0010
0100
0000
0010
0100
1000
0000
,
1100
0011
1100
0011
,
0001
0100
0010
0000
0100
0010
1000
0000
,
1010
0101
1010
0101
,
0100
0001
1000
0000
0100
1000
0001
0000
,
0011
0110
1100
0110
,
0010
0100
0001
0000
0100
0010
1000
0000
,
1010
0110
0101
0110
,
1010
0100
0010
0000
1010
0100
0010
0000
,
0011
1100
0011
1100
,
0101
0010
0100
0000
0101
0010
0100
0000
,
1100
0011
1100
0011
,
1001
0010
0100
0000
1001
0010
0100
0000
,
1010
0110
1010
0110
,
0011
0100
0010
0000
0011
0100
0010
0000
,
0110
1000
0001
0000
0110
1000
0001
0000
,
1000
0000
0000
0100
0000
0000
1000
0000
0000
0000
0010
0000
0000
0000
0100
0000
,
0001
0000
0000
0010
0000
0000
0100
0000
0000
0000
1000
0000
0000
0000
0001
0000
,
0100
0000
0000
0010
0000
0000
0100
0000
0000
0000
0001
0000
0000
0000
1000
0000
,
0100
0000
0000
0010
0000
0000
0001
0000
0000
0000
0100
0000
0000
0000
0001
0000
,
1000
0000
0000
0010
0000
0000
1000
0000
0000
0000
0001
0000
0000
0000
0010
0000
,
0100
0000
0000
1000
0000
0000
0010
0000
0000
0000
0100
0000
0000
0000
0001
0000
,
1000
0000
0000
0010
0000
0000
1000
0000
0000
0000
0100
0000
0000
0000
0010
0000
,
0100
0000
0000
1000
0000
0000
0001
0000
0000
0000
0100
0000
0000
0000
0010
0000
,
0200
0000
0000
0001
0000
0000
0001
0000
0000
0000
0310
0000
0000
0000
1000
0000
,
0002
0000
0000
0010
0000
0000
0010
0000
0000
0000
0103
0000
0000
0000
0001
0000
,
2000
0000
0000
0010
0000
0000
0010
0000
0000
0000
3100
0000
0000
0000
1000
0000
,
0002
0000
0000
0010
0000
0000
0010
0000
0000
0000
0103
0000
0000
0000
0001
0000
,
2000
3200
0320
0032
,
2003
3020
0032
0023
,
2030
3200
0302
0203
,
2300
3020
0230
0320
,
1030
0000
0000
0000
1001
0000
0000
0000
0010
0100
0000
0100
0001
0000
0010
0000
,
0100
0000
0000
0000
1100
0000
0000
0000
0010
0100
0000
0100
0001
0000
0010
0000
,
0100
0000
0000
0000
0110
0000
0000
0000
0001
1000
0000
1000
0100
0000
0010
0000
,
0001
0000
0000
0000
0101
0000
0000
0000
0010
1000
0000
1000
0100
0000
0010
0000
,
0100
0000
0000
0000
1100
0000
0000
0000
0001
0010
0000
0010
0100
0000
1000
0000
,
0010
0000
0000
0000
0110
0000
0000
0000
0001
1000
0000
1000
0100
0000
0010
0000
,
0001
0000
0000
0000
0101
0000
0000
0000
0010
0100
0000
0100
0001
0000
0010
0000
,
0100
0000
0000
0000
1100
0000
0000
0000
0010
0100
0000
0100
0001
0000
1000
0000
,
0100
0000
0010
0000
0100
0000
0000
0000
1000
0001
1000
0001
0100
0010
0100
0000
,
0001
0000
0010
0000
0100
0000
0000
0000
1000
0100
1000
0100
0010
0001
0010
0000
,
0001
0000
1000
0000
0010
0000
0000
0000
1000
0001
1000
0001
0010
0100
0010
0000
,
0001
0000
0100
0000
0010
0000
0000
0000
0100
0001
0100
0001
1000
0100
1000
0000
,
0100
0000
1000
0000
0010
0000
0000
0000
0100
0001
0100
0001
1000
0100
1000
0000
,
0100
0000
0010
0000
0001
0000
0000
1000
0001
0000
0100
0000
0001
0000
0000
0000
,
0010
0000
0000
0010
0000
0000
0010
0000
0000
0000
0001
0000
1000
0000
0100
0000
,
0020
0000
0001
0001
0000
0031
0000
0000
,
0100
0010
0100
0001
0100
1000
0100
0001
,
0020
0100
0130
0000
2000
0010
3010
0000
,
0100
0010
0100
0001
0010
1000
0010
0001
,
2000
0100
3100
0000
0020
0100
0130
0000
,
1001
0100
0010
0001
0100
1000
0100
0010
,
2000
0001
3001
0000
0200
0001
0301
0000
,
0010
0001
0100
1000
0100
0010
1000
0001
,
0200
0010
0310
0000
2000
0100
3100
0000
,
2002
0000
0000
0000
,
3003
0000
0000
0000
;

//---------------dance-double - ----------------
#NOTES:
     dance-double:
     :
     Easy:
     6:
     0.279,0.312,0.182,0.121,0.000: // measure 1
00000000
00000000
00000000
00000000
,  // measure 2
00000000
00000000
00000000
00000000
,  // measure 3
00000000
00000000
00000000
00000000
,  // measure 4
00000000
00000000
00000000
00000000
,  // measure 5
10000000
00000000
01000000
00000000
,  // measure 6
10000000
00000000
01000000
00000000
,  // measure 7
00100000
00000000
00001000
00000000
,  // measure 8
00010000
00000000
00001000
00000000
,  // measure 9
00010000
00000000
00000100
00000000
,  // measure 10
00010000
00000000
00000100
00000000
,  // measure 11
00000010
00000000
00000001
00000000
,  // measure 12
00000100
00000000
00000010
00000000
,  // measure 13
00000110
00000000
00000001
00000000
,  // measure 14
00000010
00000000
00000001
00000000
,  // measure 15
00000100
00000000
00000001
00000000
,  // measure 16
00000010
00000000
00000100
00000000
,  // measure 17
00011000
00000000
00001000
00000000
,  // measure 18
01000000
00000000
00001000
00000000
,  // measure 19
01000000
00000000
00100000
00000000
,  // measure 20
10000000
00000000
00010000
00000000
,  // measure 21
10010000
00000000
00000000
00000000
,  // measure 22
10000000
01000000
00100000
00010000
,  // measure 23
00001000
00000000
00011000
00000000
,  // measure 24
00000001
00000010
00000100
00001000
,  // measure 25
00010000
00000000
00011000
00000000
,  // measure 26
10000000
01000000
00100000
00010000
,  // measure 27
00001000
00000000
00011000
00000000
,  // measure 28
00000001
00000010
00000100
00001000
,  // measure 29
00010000
00000000
00011000
00000000
,  // measure 30
00100000
01000000
00001000
00010000
,  // measure 31
00001000
00000000
00011000
00000000
,  // measure 32
00000100
00000010
00010000
00000100
,  // measure 33
00010000
00000000
00011000
00000000
,  // measure 34
00100000
01000000
00100000
00001000
,  // measure 35
00010000
00000000
00011000
00000000
,  // measure 36
00000100
00000010
00000100
00010000
,  // measure 37
00001000
00000000
00011000
00000000
,  // measure 38
00200000
00000000
00000000
00000000
,  // measure 39
02300000
00000000
00000000
00000000
,  // measure 40
23000000
00000000
00000000
00000000
,  // measure 41
30002000
00000000
00000000
00000000
,  // measure 42
02003000
00000000
00000000
00000000
,  // measure 43
03002000
00000000
00000000
00000000
,  // measure 44
00023000
00000000
00000000
00000000
,  // measure 45
00030200
00000000
00000000
00000000
,  // measure 46
00000320
00000000
00000000
00000000
,  // measure 47
00000032
00000000
00000000
00000000
,  // measure 48
00002003
00000000
00000000
00000000
,  // measure 49
00003020
00000000
00000000
00000000
,  // measure 50
00010030
00000000
00000000
00000000
,  // measure 51
00000000
00000000
00000000
00000000
,  // measure 52
00000000
00000000
00000000
00000000
,  // measure 53
00000000
00000000
00000000
00000000
,  // measure 54
00011000
00000000
00100000
01000000
,  // measure 55
10000000
00000000
00100000
01000000
,  // measure 56
00001000
00000000
00010000
00000100
,  // measure 57
00000010
00000000
00000001
00000100
,  // measure 58
00000010
00000000
00010000
00001000
,  // measure 59
00100000
00000000
00010000
10000000
,  // measure 60
01000000
00000000
00100000
00010000
,  // measure 61
00001000
00000000
00000010
00000100
,  // measure 62
00000001
00000000
00000100
00000001
,  // measure 63
00010000
00000000
00001000
01000000
,  // measure 64
00100000
00000000
01000000
00100000
,  // measure 65
10000000
00000000
01000000
00100000
,  // measure 66
00001000
00000000
00010000
00000010
,  // measure 67
00000100
00000000
00000001
00000000
,  // measure 68
00000010
00000000
00000001
00000000
,  // measure 69
00000010
00000000
00000000
00000000
,  // measure 70
00011000
00000000
00011000
00000000
,  // measure 71
00100000
01000000
10000000
01000000
,  // measure 72
00100000
00000000
01100000
00000000
,  // measure 73
01000000
00100000
00001000
00010000
,  // measure 74
00001000
00000000
00011000
00000000
,  // measure 75
00000100
00000010
00000001
00000010
,  // measure 76
00000100
00000000
00000110
00000000
,  // measure 77
00010000
00001000
01000000
00100000
,  // measure 78
01100000
00000000
00000000
00000000
;

//---------------dance-double - ----------------
#NOTES:
     dance-double:
     :
     Medium:
     11:
     0.549,0.623,0.547,0.040,0.000: // measure 1
00000000
00000000
00000000
00000000
,  // measure 2
00000000
00000000
00000000
00000000
,  // measure 3
00000000
00000000
00000000
00000000
,  // measure 4
00000000
00000000
00000000
00000000
,  // measure 5
10000000
00000000
01000000
00000000
10000000
00000000
00100000
01000000
,  // measure 6
00001000
00000000
00100000
00000000
00001000
00000000
00010000
00000100
,  // measure 7
00000010
00000000
00000001
00000000
00000100
00000000
00000001
00000100
,  // measure 8
00000010
00000000
00010000
00001000
00010000
00000000
00001000
01000000
,  // measure 9
00100000
00000000
01000000
00000000
00010000
00000000
00100000
01000000
,  // measure 10
10000000
00000000
01000000
00000000
10000000
00000000
00010000
00100000
,  // measure 11
01000000
00000000
00100000
00000000
00001000
00000000
00010000
00000010
,  // measure 12
00000100
00000001
00000100
00000001
,  // measure 13
00001001
00000000
00001000
00000010
00000000
00001000
00000010
00010000
,  // measure 14
00001000
00000000
00100000
01000000
00000000
00100000
01000000
10000000
,  // measure 15
01000000
00000000
10000000
00010000
00000000
10000000
00010000
01000000
,  // measure 16
00010000
00000000
10000000
00001000
00000000
00001000
00010000
00000000
,  // measure 17
00011000
00000000
00010000
00000010
00000000
00010000
00000010
00000100
,  // measure 18
00000010
00000000
00000100
00000001
00000000
00000100
00000001
00000010
,  // measure 19
00000100
00000000
00010000
00001000
00000000
00010000
00001000
00100000
,  // measure 20
01000000
00000000
10000000
00010000
00000000
00010000
10000000
00000000
,  // measure 21
10010000
00000000
00000000
00000000
,  // measure 22
11000000
11000000
01100000
01100000
,  // measure 23
01000000
00001000
01000000
00000000
00001000
00010000
00001000
00000000
,  // measure 24
00011000
00011000
00010010
00010010
,  // measure 25
00000010
00000100
00000010
00000000
00000100
00000001
00000100
00000000
,  // measure 26
00001001
00001001
00010010
00010010
,  // measure 27
00001000
00010000
00001000
00000000
01000000
00100000
01000000
00000000
,  // measure 28
01010000
01010000
11000000
11000000
,  // measure 29
10000000
00010000
10000000
00000000
00001000
01000000
00001000
00000000
,  // measure 30
00011000
00011000
00000110
00000110
,  // measure 31
00000001
00000100
00000001
00000000
00010000
00000001
00010000
00000000
,  // measure 32
00011000
00011000
01100000
01100000
,  // measure 33
10000000
00100000
10000000
00000000
00001000
10000000
00001000
00000000
,  // measure 34
00011000
00010010
00011000
00010010
,  // measure 35
00000100
00000010
00000100
00000000
00000001
00000010
00000001
00000000
,  // measure 36
00000110
00010010
00000110
00010010
,  // measure 37
00010000
00001000
00010000
00000000
00001000
01000000
00001000
00000000
,  // measure 38
01100000
00000000
00000000
00100000
00000000
00000000
00000000
01000000
,  // measure 39
10000000
00000000
00000000
10000000
00000000
00000000
00000000
01000000
,  // measure 40
00100000
00000000
00000000
00100000
00000000
00000000
00000000
00001000
,  // measure 41
00010000
00000000
00000000
00010000
00000000
00000000
00000000
00000100
,  // measure 42
00000010
00000000
00000000
00000010
00000000
00000000
00000000
00000001
,  // measure 43
00000100
00000000
00000000
00000100
00000000
00000000
00000000
00000001
,  // measure 44
00010000
00000000
00000000
00010000
00000000
00000000
00000000
00001000
,  // measure 45
01000000
00000000
00000000
01000000
00000000
00000000
00000000
00010000
,  // measure 46
10000000
00000000
00000000
10000000
00000000
00000000
00000000
01000000
,  // measure 47
00100000
00000000
00000000
00100000
00000000
00000000
00000000
00010000
,  // measure 48
00001000
00000000
00000000
00001000
00000000
00000000
00000000
00000010
,  // measure 49
00000100
00000000
00000000
00000100
00000000
00000000
00000000
00000001
,  // measure 50
00002000
00000000
00000000
00000000
,  // measure 51
00003200
00000000
00000000
00000000
,  // measure 52
00020300
00000000
00000000
00000000
,  // measure 53
00032000
00000000
00000000
00003000
,  // measure 54
00011000
00000000
00000000
00000000
00010000
00000010
00000100
00000001
,  // measure 55
00000010
00000000
00000000
00000000
00000001
00000010
00000100
00010000
,  // measure 56
00001000
00000000
00000000
00000000
00010000
00001000
00100000
01000000
,  // measure 57
10000000
00000000
00000000
00000000
00100000
10000000
00100000
01000000
,  // measure 58
00010000
00000000
00000000
00000000
00100000
00001000
00010000
00000100
,  // measure 59
00000010
00000000
00000000
00000000
00000001
00000010
00000100
00000010
,  // measure 60
00000001
00000000
00000000
00000000
00000100
00000001
00000010
00000100
,  // measure 61
00001000
00000000
00000000
00000000
00000100
00010000
00001000
00100000
,  // measure 62
01000000
00000000
00000000
00000000
10000000
00010000
00100000
00010000
,  // measure 63
10000000
00000000
00000000
00000000
01000000
00100000
00001000
00010000
,  // measure 64
00000010
00000000
00000000
00000000
00001000
00000100
00000001
00000100
,  // measure 65
00001000
00000000
00000000
00000000
00000010
00010000
00001000
00100000
,  // measure 66
00010000
00000000
00000000
00000000
10000000
01000000
00010000
01000000
,  // measure 67
10000000
10000000
00010000
00010000
,  // measure 68
01000000
00000000
00000000
01000000
00000000
00000000
01000000
00100000
,  // measure 69
10000000
00000000
00000000
00000000
,  // measure 70
00010000
01000000
00010000
00000000
01000000
00100000
01000000
00000000
,  // measure 71
01100000
00110000
11000000
00011000
,  // measure 72
00010000
00000010
00010000
00000000
00000100
00000010
00000100
00000000
,  // measure 73
00000101
00000110
00001010
00010001
,  // measure 74
00010000
00001000
00010000
00000000
00001000
00100000
00001000
00000000
,  // measure 75
01100000
10100000
01010000
10001000
,  // measure 76
00001000
00010000
00001000
00000000
00010000
00000010
00010000
00000000
,  // measure 77
00010001
00000011
00001100
00000110
,  // measure 78
00001001
00000000
00000000
00000000
;

//---------------dance-double - ----------------
#NOTES:
     dance-double:
     :
     Hard:
     15:
     0.834,0.829,0.526,0.354,0.354: // measure 1
00000000
00000000
00000000
00000000
,  // measure 2
00000000
00000000
00000000
00000000
,  // measure 3
00000000
00000000
00000000
00000000
,  // measure 4
00000000
00000000
00000000
00000000
,  // measure 5
10000000
00000000
01000000
00000000
10000000
00000000
01000000
00000000
10000000
00000000
00010000
00000000
10000000
00010000
10000000
00010000
,  // measure 6
10000000
00000000
00100000
00000000
01000000
00000000
00100000
00000000
10000000
00000000
00001000
00000000
00100000
00001000
00100000
00001000
,  // measure 7
00100000
00000000
00001000
00000000
00010000
00000000
00001000
00000000
00010000
00000000
00000010
00000000
00000100
00000010
00000100
00000010
,  // measure 8
00000100
00000001
00000010
00000100
00000010
00000001
00001000
00001000
,  // measure 9
00000010
00000000
00000100
00000000
00000010
00000000
00000100
00000000
00000001
00000000
00000010
00000000
00000001
00000010
00000001
00000010
,  // measure 10
00000001
00000000
00001000
00000000
00000001
00000000
00001000
00000000
00000100
00000000
00010000
00000000
00001000
00010000
00001000
00010000
,  // measure 11
00001000
00000000
01000000
00000000
00100000
00000000
10000000
00000000
00100000
00000000
01000000
00000000
00010000
01000000
00010000
01000000
,  // measure 12
00010000
00100000
01000000
00100000
00010000
10000000
00100000
01000000
,  // measure 13
01100000
00000000
00000000
00000000
00100000
00000000
10000000
00000000
01000000
00000000
00100000
00000000
00001000
01000000
00001000
01000000
,  // measure 14
00001000
00000000
00010000
00000000
00000100
00000000
00000010
00000000
00000001
00000000
00000100
00000000
00000010
00000100
00000010
00000100
,  // measure 15
00000010
00000000
00010000
00000000
00000010
00000000
00010000
00000000
00001000
00000000
00100000
00000000
00001000
00100000
00001000
00100000
,  // measure 16
00001000
00000000
00100000
00000000
01000000
00000000
10000000
00000000
00010000
01000000
00010000
00000000
01000000
00000000
00100000
00000000
,  // measure 17
01100000
00000000
00000000
00000000
10000000
00000000
01000000
00000000
00100000
00000000
01000000
00000000
10000000
00100000
10000000
00100000
,  // measure 18
01000000
00000000
00001000
00000000
00100000
00000000
00010000
00000000
00001000
00000000
00000100
00000000
00000010
00000001
00000010
00000001
,  // measure 19
00000100
00000000
00000010
00000000
00001000
00000000
00000100
00000000
00010000
00000000
00001000
00000000
00100000
01000000
00100000
01000000
,  // measure 20
10000000
00000000
00010000
00000000
00100000
00000000
00010000
00000000
01000000
00100000
01000000
00000000
00001000
00000000
00001000
00000000
,  // measure 21
00022000
00000000
00000000
00033000
,  // measure 22
00010000
00000010
00000100
00000000
00000100
00000001
00000010
00000000
,  // measure 23
00000011
00000110
00010100
00011000
,  // measure 24
00001000
00100000
01000000
00000000
01000000
10000000
00100000
00000000
,  // measure 25
10100000
01100000
01001000
00011000
,  // measure 26
00001000
00010000
00000100
00000000
00000100
00000010
00000001
00000000
,  // measure 27
00000011
00010100
00011000
01001000
,  // measure 28
01000000
00001000
10000000
00000000
10000000
01000000
00100000
00000000
,  // measure 29
00110000
00011000
00010010
00000110
,  // measure 30
00000101
00000010
00000100
00000000
00001001
00000100
00000010
00000000
,  // measure 31
00000110
00010010
00011000
01001000
,  // measure 32
11000000
00100000
01000000
00000000
10010000
01000000
00100000
00000000
,  // measure 33
01001000
00011000
00010010
00000110
,  // measure 34
00000011
00000100
00000010
00000000
00001001
00000010
00000100
00000000
,  // measure 35
00000110
00010010
00011000
01001000
,  // measure 36
01100000
00010000
01000000
00000000
01100000
10000000
00100000
00000000
,  // measure 37
10010000
01000000
00100000
00000000
10010000
00100000
01000000
00000000
,  // measure 38
10000000
00000000
00000000
00100000
00000000
00000000
01000000
00000000
00000000
00000000
00001000
00000000
00000000
00000000
00010000
00000000
,  // measure 39
00000010
00000000
00000000
00000100
00000000
00000000
00000001
00000000
00000000
00000000
00000010
00000000
00000000
00000000
00000001
00000000
,  // measure 40
00010000
00000000
00000000
00001000
00000000
00000000
01000000
00000000
00000000
00000000
00100000
00000000
00000000
00000000
10000000
00000000
,  // measure 41
00010000
00000000
00000000
00100000
00000000
00000000
01000000
00000000
00000000
00000000
00100000
00000000
00000000
00000000
00001000
00000000
,  // measure 42
00010000
00000000
00000000
00000010
00000000
00000000
00000100
00000000
00000000
00000000
00000010
00000000
00000000
00000000
00001000
00000000
,  // measure 43
00000001
00000000
00000000
00000010
00000000
00000000
00000100
00000000
00000000
00000000
00010000
00000000
00000000
00000000
00001000
00000000
,  // measure 44
01000000
00000000
00000000
10000000
00000000
00000000
01000000
00000000
00000000
00000000
00001000
00000000
00000000
00000000
00010000
00000000
,  // measure 45
00000010
00000000
00000000
00000001
00000000
00000000
00000010
00000000
00000000
00000000
00010000
00000000
00000000
00000000
00001000
00000000
,  // measure 46
02000000
00000000
00000000
00100000
00000000
00000000
00100000
00000000
00000000
00000000
03010000
00000000
00000000
00000000
10000000
00000000
,  // measure 47
02000000
00000000
00000000
10000000
00000000
00000000
10000000
00000000
00000000
00000000
03100000
00000000
00000000
00000000
00001000
00000000
,  // measure 48
00020000
00000000
00000000
00000100
00000000
00000000
00000100
00000000
00000000
00000000
00030010
00000000
00000000
00000000
00000100
00000000
,  // measure 49
00000002
00000000
00000000
00000010
00000000
00000000
00000010
00000000
00000000
00000000
00000103
00000000
00000000
00000000
00000001
00000000
,  // measure 50
00002000
00003200
00020300
00230000
,  // measure 51
20300000
30200000
00302000
00023000
,  // measure 52
00030200
00000302
00000203
00020300
,  // measure 53
00032000
00203000
02300000
03200000
,  // measure 54
00302000
00000000
00000000
00000000
00013000
00000000
00000000
00000000
00000010
00001000
00000000
00000010
00001000
00000000
00000001
00000000
,  // measure 55
00000020
00000000
00000000
00000000
00000130
00000000
00000000
00000000
00010000
00001000
00000000
00010000
00001000
00000000
01000000
00000000
,  // measure 56
00200000
00000000
00000000
00000000
01300000
00000000
00000000
00000000
00010000
10000000
00000000
00010000
10000000
00000000
01000000
00000000
,  // measure 57
00200000
00000000
00000000
00000000
01300000
00000000
00000000
00000000
10000000
00100000
00000000
10000000
00100000
00000000
01000000
00000000
,  // measure 58
00002000
00000000
00000000
00000000
00013000
00000000
00000000
00000000
00000100
00000010
00000000
00000100
00000010
00000000
00000001
00000000
,  // measure 59
00000200
00000000
00000000
00000000
00000301
00000000
00000000
00000000
00010000
00000100
00000000
00010000
00000100
00000000
00001000
00000000
,  // measure 60
00020000
00000000
00000000
00000000
01030000
00000000
00000000
00000000
00100000
10000000
00000000
00100000
10000000
00000000
01000000
00000000
,  // measure 61
00200000
00000000
00000000
00000000
01300000
00000000
00000000
00000000
10000000
00010000
00000000
10000000
00010000
00000000
01000000
00000000
,  // measure 62
00001000
00000000
00010000
00000000
00000100
00000000
00000000
00000000
00000010
00000001
00000010
00000001
00000100
00000010
00001000
00000000
,  // measure 63
00000010
00000000
00010000
00000000
00001000
00000000
00000000
00000000
01000000
00010000
01000000
00010000
10000000
01000000
00100000
00000000
,  // measure 64
01000000
00000000
10000000
00000000
00010000
00000000
00000000
00000000
01000000
00001000
01000000
00001000
00010000
00000100
00000010
00000000
,  // measure 65
00000001
00000000
00000100
00000000
00000001
00000000
00000000
00000000
00000100
00000010
00000100
00000010
00010000
00001000
00100000
00000000
,  // measure 66
00001000
00000000
00100000
00000000
01000000
00000000
00000000
00000000
10000000
00100000
10000000
00100000
01000000
00010000
00100000
00000000
,  // measure 67
00002000
00010000
00013000
00000000
00000020
00000100
00000130
00000000
,  // measure 68
00000002
00000000
00000000
00001000
00000000
00000000
00001000
00000000
00000000
00000000
00001003
00000000
00000001
00000000
00000010
00000000
,  // measure 69
00000100
00000000
00010000
00001000
00000000
00011000
00000000
00000000
,  // measure 70
00001000
10000000
00001000
00100000
00001000
10000000
00001000
00100000
,  // measure 71
00001000
00010000
00010010
00000000
00000100
00000001
00001001
00000000
,  // measure 72
00001000
00000001
00000010
00000100
00000010
00000001
00000100
00000010
,  // measure 73
00010000
00001000
00101000
00000000
01000000
10000000
10010000
00000000
,  // measure 74
01100000
01000000
00100000
00001000
01000000
10000000
01000000
00001000
,  // measure 75
00010000
00000010
00000110
00000000
00000100
00000001
00001001
00000000
,  // measure 76
00000100
00000010
00000001
00000100
00001000
00000100
00000001
00010000
,  // measure 77
00001000
01000000
01100000
00000000
00100000
01000000
10010000
00000000
,  // measure 78
02200000
00000000
00000000
00000000
,  // measure 79
03300000
00000000
00000000
00000000
;

//---------------dance-single - ----------------
#NOTES:
     dance-single:
     :
     Beginner:
     3:
     0.147,0.273,0.213,0.000,0.000:
0000
0000
0000
0000
,
0000
0000
0000
0000
,
0000
0000
0000
0000
,
0000
0000
0000
0000
,
1000
0000
0000
0000
,
0000
0000
0000
0000
,
0001
0000
0000
0000
,
0000
0000
0000
0000
,
1000
0000
0000
0000
,
0000
0000
0000
0000
,
0001
0000
0000
0000
,
0000
0000
0000
0000
,
1001
0000
0000
0000
,
0010
0000
0000
0000
,
0100
0000
0000
0000
,
0010
0000
0000
0000
,
0110
0000
0000
0000
,
1000
0000
0000
0000
,
0001
0000
0000
0000
,
1000
0000
0000
0000
,
1001
0000
0000
0000
,
0010
0000
0000
0000
,
0110
0000
0000
0000
,
0010
0000
0000
0000
,
0110
0000
0000
0000
,
0010
0000
0000
0000
,
0110
0000
0000
0000
,
0010
0000
0000
0000
,
0110
0000
0000
0000
,
1000
0000
0000
0000
,
1001
0000
0000
0000
,
1000
0000
0000
0000
,
1001
0000
0000
0000
,
0001
0000
0000
0000
,
1001
0000
0000
0000
,
0010
0000
0000
0000
,
0110
0000
0000
0000
,
1001
0000
0000
0000
,
0100
0000
0000
0000
,
0010
0000
0000
0000
,
0000
0000
0000
0000
,
0001
0000
0000
0000
,
0010
0000
0000
0000
,
0100
0000
0000
0000
,
0000
0000
0000
0000
,
1000
0000
0000
0000
,
0010
0000
0000
0000
,
0100
0000
0000
0000
,
0000
0000
0000
0000
,
0001
0000
0000
0000
,
0000
0000
0000
0000
,
0000
0000
0000
0000
,
0000
0000
0000
0000
,
1000
0000
0001
0000
,
1000
0000
0001
0000
,
1000
0000
0001
0000
,
1000
0000
0001
0000
,
0100
0000
0010
0000
,
0100
0000
0010
0000
,
0100
0000
0010
0000
,
0100
0000
0010
0000
,
1000
0000
0100
0000
,
1000
0000
0100
0000
,
1000
0000
0100
0000
,
0010
0000
0001
0000
,
0010
0000
0001
0000
,
0010
0000
0000
0000
,
0100
0000
0000
0000
,
1000
0000
0000
0000
,
1001
0000
0001
0000
,
1001
0000
0000
0000
,
1001
0000
1000
0000
,
1001
0000
0000
0000
,
1001
0000
0001
0000
,
1001
0000
0000
0000
,
1001
0000
1000
0000
,
1001
0000
0000
0000
,
0110
0000
0000
0000
;
