#TITLE:Dstorv;
#SUBTITLE:;
#ARTIST:Feryquitous;
#TITLETRANSLIT:;
#SUBTITLETRANSLIT:;
#ARTISTTRANSLIT:;
#CREDIT:DigiMindAxel;
#BANNER:Dstorv.png;
#BACKGROUND:Dstorv-bg.png;
#LYRICSPATH:Dstorv.lrc;
#CDTITLE:DigiMindAxel original simfile.png;
#MUSIC:Dstorv.ogg;
#METERTYPE:DDR X;
#OFFSET:-0.356;
#SAMPLESTART:85.774;
#SAMPLELENGTH:12.000;
#SELECTABLE:YES;
#BPMS:0.000=191.000;
#STOPS:;
#BGCHANGES:0.000=Dstorv.avi=1.000=1=1=0,
99999=-nosongbg-=1.000=0=0=0 // don't automatically add -songbackground-
;

//---------------dance-single - ----------------
#NOTES:
     dance-single:
     :
     Easy:
     6:
     0.288,0.388,0.078,0.093,0.000:
0000
0000
0000
0000
,
0000
0000
0000
0000
,
0000
0000
0000
0000
,
0000
0000
0000
0000
,
0000
0000
0000
0000
,
0000
0000
0000
0000
,
0000
0000
0000
0000
,
0000
0000
0000
0000
,
0000
0000
0000
0000
,
0000
0000
0000
0000
,
1000
0000
0001
0000
,
1000
0100
0010
0000
,
0001
0000
1000
0000
,
0001
0010
0100
0000
,
0010
0000
0001
0000
,
0100
0010
1000
0000
,
0010
0000
1000
0000
,
0100
0010
0001
0000
,
2000
0000
0000
0000
,
3001
0000
0001
0000
,
1000
0001
1000
0000
,
0200
0000
1000
0000
,
1300
0000
0010
0100
,
0020
0000
0100
0000
,
0130
0001
0100
0000
,
0002
0000
1000
0000
,
1003
0001
1000
0000
,
0200
0000
1000
0000
,
1300
0100
1000
0000
,
0020
0000
0100
0000
,
0130
0010
0100
0000
,
0002
0000
0010
0000
,
0013
0001
0010
0000
,
0002
0000
1000
0000
,
1003
0001
1000
0000
,
1001
0000
0010
0000
,
0100
0000
1000
0000
,
0001
0000
0010
0000
,
0100
0000
1000
0000
,
1001
0000
0100
0000
,
0010
0000
0001
0000
,
1000
0000
0100
0000
,
0010
0000
0001
0000
,
1001
0000
0010
0000
,
0100
0000
0001
0000
,
1000
0000
0010
0000
,
0100
0000
0001
0000
,
1001
0000
0010
0000
,
0100
0000
1000
0000
,
0001
0000
0100
0000
,
0010
0000
2000
0000
,
3001
1000
0001
0000
,
0010
0001
0010
0001
,
0100
0010
0100
0000
,
0010
1000
0010
1000
,
0010
0100
0010
0000
,
1000
0001
1000
0001
,
1000
0100
1000
0000
,
0001
0001
0001
0000
,
0100
0001
0100
0001
,
0100
0010
0100
0000
,
0001
1000
0001
1000
,
0001
0010
0001
0000
,
1000
0100
1000
0100
,
1000
0010
1000
0000
,
0100
0010
0100
0010
,
0100
1000
0100
0000
,
2000
0000
0000
3000
,
1001
0000
0010
0000
,
0100
1000
0010
0100
,
0001
0000
1000
0000
,
0100
0010
0001
0010
,
0100
0000
1000
0000
,
0010
0100
0001
0100
,
0010
0000
1000
0000
,
0001
1000
0100
0010
,
1001
0000
0000
0000
0000
0000
0000
1000
,
0000
0000
0000
0001
0000
0000
0000
0000
,
1001
0000
1000
0001
,
0010
0100
1000
0001
,
0100
0000
0010
0100
,
0010
1000
0100
0010
,
0002
0000
0000
0000
,
0000
0000
0003
0000
,
1001
0100
0010
0001
,
1000
0100
1000
0000
,
0001
0010
0100
1000
,
0001
0100
0001
0000
,
1000
0010
0100
0010
,
1000
0100
0010
0000
,
0001
0100
0010
0100
,
0001
0010
0100
0000
,
1001
0000
0000
0000
0000
0000
0000
0001
,
0000
0000
0000
1000
0000
0000
0000
0000
,
1001
0001
1000
0001
,
0100
0010
1000
0001
,
0100
0010
0100
0001
,
1000
0000
0100
0000
0010
0000
0000
0002
,
0000
0000
0000
0000
,
0000
0000
0000
0000
,
0003
0000
0000
0000
;

//---------------dance-single - ----------------
#NOTES:
     dance-single:
     :
     Medium:
     9:
     0.474,0.543,0.209,0.271,0.000:
0000
0000
0000
0000
,
0000
0000
0000
0000
,
0000
0000
0000
0000
,
0000
0000
0000
0000
,
0000
0000
0000
0000
,
0000
0000
0000
0000
,
0000
0000
0000
0000
,
0000
0000
0000
0000
,
0000
0000
0000
0000
,
0000
0000
0000
0000
,
1000
0001
1000
0000
0001
1000
0000
0100
,
0000
0010
0100
0000
0010
0100
0000
0000
,
1000
0001
1000
0000
0001
0000
0100
0000
,
0000
0001
1000
0000
0100
0010
0000
0000
,
0001
0100
0001
0000
1000
0001
0000
1000
,
0000
0010
0100
0000
0001
0100
0000
0000
,
0001
0100
0001
0000
1000
0000
0100
0000
,
0010
0001
0010
0000
0001
1000
0000
0000
,
0200
0000
0000
0000
,
0310
0001
0010
0000
0001
0100
0001
0100
,
0000
0001
0100
0010
,
1000
0001
1000
0000
0100
1000
0100
1000
,
0000
0100
0010
0001
,
0100
0010
0100
0000
0001
0100
0001
0100
,
0000
0001
0100
0010
,
1000
0001
1000
0000
0100
0010
0100
0010
,
0000
0000
0001
0000
0100
0010
0100
0010
,
0100
0000
0001
0000
1000
0100
1000
0100
,
0000
1000
0001
0000
0100
0000
0010
0000
,
1000
0001
1000
0000
0001
0100
0001
0100
,
0000
0001
1000
0000
0100
0000
0010
0000
,
0001
0100
0001
0000
1000
0001
1000
0001
,
0000
0010
0001
0000
0100
0000
0010
0000
,
1000
0010
1000
0000
0100
0010
0100
0010
,
0000
0001
0100
0000
0010
0000
0000
0000
,
2001
0000
0000
3200
0000
0000
0000
0320
,
0000
0000
0000
0032
0000
0000
0003
0000
,
0020
0000
0000
0032
0000
0000
0000
0203
,
0000
0000
0000
0320
0000
0000
0030
0000
,
0200
0000
0000
0302
0000
0000
0000
2003
,
0000
0000
0000
3200
0000
0000
0300
0000
,
2000
0000
0000
3002
0000
0000
0000
0203
,
0000
0000
0000
0320
0000
0000
0030
0000
,
0110
0000
0000
0101
0000
0000
0000
1010
,
0000
0000
0000
0110
0000
0000
0000
0000
,
0011
0000
0000
1100
0000
0000
0000
0110
,
0000
0000
0000
0011
0000
0000
0000
0000
,
0110
0000
0000
1001
0000
0000
0000
0101
,
0000
0000
0000
1010
0000
0000
0000
0000
,
0110
0000
0000
0011
0000
0000
0000
2200
,
0000
0000
0000
3300
0000
0000
0000
0000
,
0010
0001
0010
0000
0100
0010
0100
0000
,
1000
0010
0001
0010
,
1000
0100
1000
0000
0010
0100
0010
0000
,
1000
0010
0001
0010
,
1000
0001
1000
0000
0001
0100
0001
0000
,
0100
1000
0100
0001
,
0010
0100
0010
0000
0100
1000
0100
0010
,
0000
0010
0000
0110
0000
0000
0000
0000
,
0010
0001
0010
0000
0100
0010
0100
0000
,
1000
0010
0001
0010
,
1000
0001
1000
0000
0100
0010
0100
0000
,
1000
0100
0001
0100
,
1000
0001
1000
0000
0001
0100
0001
0000
,
0100
1000
0100
0001
,
0010
0100
0010
0000
0001
0100
0001
0000
,
0010
1000
0010
0001
,
0200
0000
0000
0300
,
1001
0000
0001
1000
0000
0100
0000
0010
,
0000
0001
1000
0001
,
0010
0000
0100
1000
0000
0010
0000
0100
,
0001
0000
0100
0000
0010
0100
0010
0000
,
1000
0000
0001
0100
0000
0010
0000
1000
,
0000
0000
0001
0000
0100
0010
0100
0000
,
0001
0000
0100
0001
0000
0010
0000
0100
,
1000
0100
0010
0100
,
2020
0000
0000
0000
0000
3030
0000
0220
,
0000
0330
0000
0022
0000
0033
0000
0000
,
1001
0000
1000
0001
0000
0100
0000
0010
,
1000
0100
1000
0000
0001
0010
0001
0000
,
0010
0000
0100
1000
0000
0010
0000
0100
,
0001
0000
1000
0100
1000
0000
0020
0200
,
0000
0000
0000
0000
,
0330
0000
0000
0000
,
1001
0000
0001
0100
0000
0010
0000
1000
,
0100
0010
0100
0000
1000
0010
1000
0000
,
0010
0000
0100
0001
0000
1000
0000
0100
,
0010
0001
0010
0000
0100
0010
0100
0000
,
1000
0000
0001
0100
0000
0010
0000
1000
,
0100
0010
0100
0000
1000
0010
1000
0000
,
0100
0000
0010
0001
0000
0100
0000
0010
,
0100
0001
0100
0000
0001
1000
0001
0000
,
0220
0000
0000
0000
0000
0330
0000
0202
,
0000
0303
0000
2020
0000
3030
0000
0000
,
1001
0000
0001
1000
0000
0010
0000
0100
,
0001
1000
0001
0000
1000
0100
1000
0000
,
0001
0000
1000
0001
0000
0100
0000
0010
,
0100
0001
0100
0000
0001
1000
0001
0020
,
0000
0000
0000
0000
,
0000
0000
0000
0000
,
0030
0000
0000
0000
;

//---------------dance-single - ----------------
#NOTES:
     dance-single:
     :
     Hard:
     11:
     0.582,0.659,0.109,0.240,0.050:
0000
0000
0000
0000
,
0000
0000
0000
0000
,
0000
0000
0000
0000
,
0000
0000
0000
0000
,
0000
0000
0000
0000
,
0000
0000
0000
0000
,
0000
0000
0000
0000
,
0000
0000
0000
0000
,
0000
0000
0000
0000
,
0000
0000
0000
0000
,
1000
0001
0100
0000
0001
0010
0100
0010
,
0000
0001
0100
0000
0001
0100
0010
0000
,
0100
0010
0100
0000
0001
0010
0100
1000
,
0000
0001
0100
0000
0010
0100
0001
0000
,
1000
0100
1000
0000
0010
0100
0001
0010
,
0000
0100
1000
0000
0001
0100
0010
0000
,
1000
0100
1000
0000
0010
0100
0001
0010
,
0000
0100
1000
0000
0010
0100
0001
0020
,
0000
0000
0000
0030
,
0001
0100
0001
1000
0100
0010
0001
1000
,
0000
0010
1000
0000
1000
0001
0010
0000
,
0001
0100
0001
1000
0010
0100
0001
1000
,
0000
0000
0100
0000
0010
0000
0000
0000
0010
0000
0001
0000
0100
0010
0100
0010
,
0100
0001
1000
0100
0010
0001
0100
0001
,
0000
0010
0100
0000
0100
1000
0010
0000
,
0100
0001
1000
0010
1000
0100
0010
0001
,
0000
1000
0010
0000
1000
1000
0001
0001
,
0100
0010
0100
0001
0010
1000
0010
0001
,
0000
0010
0100
0000
1000
0001
0010
0001
,
1000
0010
1000
0001
0100
1000
0100
0001
,
0000
0000
0100
0000
0010
0000
0000
0000
0100
0000
0010
0000
1000
0001
1000
0001
,
1000
0100
1000
0001
0010
1000
0010
0001
,
0000
0010
0100
0000
1000
0010
1000
0001
,
0010
0100
0010
0001
1000
0100
0001
0100
,
0000
1000
0010
0000
0100
0001
0000
0000
,
0110
0000
0100
0001
0000
0010
0000
0200
,
0000
1000
0000
1000
0000
1300
0000
0000
,
0010
0000
0100
0001
0000
1000
0000
0200
,
0000
0010
0000
0010
0000
0310
0000
0000
,
0001
0000
0010
0001
0000
0100
0000
0020
,
0000
1000
0000
1000
0000
1030
0000
0000
,
0001
0000
1000
0100
0000
0010
0000
0002
,
0000
0100
0000
0100
0000
0103
0000
0000
,
1001
0000
0001
0200
0000
0310
0000
2000
,
0000
0100
0000
0100
0000
3100
0000
0000
,
0010
0000
0001
0200
0000
0310
0000
1000
,
0000
0000
0010
0000
0100
0010
0100
0000
0001
0100
0001
0000
0100
0010
0100
0000
,
0001
0000
1000
0200
0000
0310
0000
0002
,
0000
0100
0000
0100
0000
0103
0000
0000
,
0010
0000
1000
0002
0000
0013
0000
0100
,
0000
0010
0000
0220
0000
0000
0330
0000
,
1000
0100
1000
0001
1000
0100
1000
0020
,
0000
0000
0100
0000
0130
0001
1000
0001
,
0000
0100
0001
1000
0001
0100
0001
0020
,
0000
0000
0100
0000
0130
1000
0010
0100
,
0000
0010
0100
0001
0000
0010
0000
0200
,
0000
0000
1000
0000
1300
0010
0100
0001
,
0000
0010
0100
1000
0010
0100
0001
1001
,
0000
1001
0000
1001
0000
1000
0001
1000
,
0100
0000
0010
0000
0100
1000
0100
0000
1000
0001
1000
0000
0001
0000
0020
0000
,
0000
0000
0100
0000
0130
1000
0001
1000
,
0000
0010
0100
0001
1000
0100
1000
0020
,
0000
0000
0000
0000
0100
0000
0000
0000
0130
0000
0001
0000
1000
0100
1000
0100
,
1000
0000
0001
0000
0100
0010
0100
0000
0001
0100
0001
0000
0100
0000
0020
0000
,
0000
0000
1000
0000
1030
0100
0010
0100
,
0000
1000
0001
0100
0001
1000
0100
0020
,
0000
0001
0000
0031
1000
0010
1000
0002
,
0000
0000
0000
0003
,
1001
0000
0001
0100
0000
0010
0000
0100
,
0001
1000
0100
0001
0100
0000
1000
0000
,
0001
0000
1000
0100
0000
0010
0000
0100
,
1000
0001
0100
1000
0100
0000
0001
0000
,
0100
0000
0010
1000
0000
0100
0000
1000
,
0010
0000
1000
0010
0001
0010
1000
0000
,
0001
0000
0010
0100
0000
1000
0000
0100
,
0010
0001
0100
1000
0100
0000
0001
0000
,
2002
0000
0000
0000
0000
3003
0000
0201
,
0000
0000
0000
0001
0000
0000
0300
0000
,
1001
0000
0100
0010
0000
1000
0000
0010
,
1000
0100
0001
0100
1000
0000
0001
0100
,
0001
0000
1000
0010
0000
0100
0000
0010
,
1000
0001
0010
1000
0010
0000
0002
2000
,
0000
0000
0000
0000
,
3003
0000
0000
0000
,
1001
0000
0001
0010
0000
0100
0000
0010
,
0001
0100
1000
0100
0001
0000
1000
0100
,
1000
0000
0001
0100
0000
0010
0000
0100
,
0001
0010
1000
0010
0001
0000
1000
0010
,
1000
0000
0010
0100
0000
0001
0000
0100
,
0010
1000
0100
0001
0100
0000
1000
0001
,
1000
0000
0100
0010
0000
0001
0000
0010
,
0100
1000
0001
0010
0100
0000
0010
0000
,
2002
0000
0000
0000
0000
3003
0000
1020
,
0000
0000
0000
1000
0000
0000
0030
0000
,
1001
0000
0001
0100
0000
0010
0000
0100
,
0001
1000
0100
0001
0100
0000
1000
0001
,
1000
0000
0100
0010
0000
0001
0000
0100
,
0010
0100
0001
0010
0100
0000
2000
0002
,
0000
0000
0000
0000
,
0000
0000
0000
0000
,
3003
0000
0000
0000
;

//---------------dance-single - ----------------
#NOTES:
     dance-single:
     :
     Challenge:
     15:
     0.794,0.775,0.140,0.240,0.318:
0000
0000
0000
0000
,
0000
0000
0000
0000
,
0000
0000
0000
0000
,
0000
0000
0000
0000
,
0000
0000
0000
0000
,
0000
0000
0000
0000
,
0000
0000
0000
0000
,
0000
0000
0000
0000
,
0000
0000
0000
0000
,
0000
0000
0000
0000
,
1000
0000
0100
0000
1000
0000
0001
0000
0100
0000
0001
0000
1000
0100
1000
0100
,
1000
0000
0010
0000
0100
0010
0100
0000
0010
0000
1000
0000
0100
0000
0010
0000
,
0001
0100
0001
1000
0100
1000
0001
0010
,
0000
0000
0100
0000
1000
0000
0001
0000
1000
0000
0100
0000
0010
0001
0010
0001
,
0010
0100
0010
0001
1000
0010
0100
0001
,
0000
0100
0010
0100
0001
1000
0100
1000
,
0010
0100
0010
1000
0001
0010
0100
0010
,
0000
0000
0001
0000
0100
0000
0001
0000
1000
0000
0100
0000
0010
0001
0200
0000
,
0000
0000
0000
0300
,
0001
0000
1000
0000
0100
0000
0010
0000
0100
0000
1000
0000
0001
0100
0001
0000
,
0000
0000
0100
0010
1000
0000
0100
0000
0010
0000
0001
0000
1000
0010
1000
0010
,
1000
0000
0001
0000
0010
0000
0001
0000
1000
0000
0010
0100
0010
0000
0100
0000
,
0000
0000
0001
0100
0010
0000
0100
0000
0001
0000
0010
0000
0100
1000
0100
1000
,
0010
0000
0100
0000
0001
0000
0010
0000
0100
0000
0010
0000
0001
0100
0001
0000
,
0000
0000
0100
0010
1000
0000
0001
0000
0010
0000
1000
0000
0010
0000
0001
0000
,
1000
0000
0010
0000
0100
0000
1000
0000
0100
0000
0010
0000
1000
0001
1000
0000
,
0000
0000
0010
1000
0001
0000
0010
0000
0200
0000
1000
0000
1000
0000
1300
0000
,
0001
0000
0010
0000
1000
0000
0010
0000
0001
0000
0100
0000
0010
0100
0010
0000
,
0000
0000
1000
0100
0010
0000
0001
0000
0100
0000
0010
0000
0100
0001
0100
0001
,
1000
0000
0100
0000
0001
0000
0100
0000
1000
0000
0001
0000
0100
0010
0100
0000
,
0000
0000
0001
0010
0100
0000
1000
0000
0001
0000
0100
0000
0010
0100
0010
0100
,
0001
0000
0100
0000
1000
0000
0100
0000
0001
0000
0010
0000
0100
1000
0100
0000
,
0000
0000
1000
0010
0100
0000
0010
0000
1000
0000
0100
0000
0010
0001
0010
0001
,
1000
0000
0010
0000
0001
0000
0010
0000
1000
0000
0001
0000
0100
0001
0100
0000
,
0000
0000
0001
0010
0100
0000
1000
0000
0010
0000
0100
0000
0000
0000
0000
0000
,
0201
0000
0010
0310
1000
0100
0000
1000
,
0010
0001
0010
1000
0000
0110
0000
0010
,
0200
0000
0000
0000
0010
0000
0310
0000
0000
0000
1000
0000
0001
0000
0100
0001
,
0100
0000
0001
1000
0001
0000
1000
0100
1000
0000
0001
0000
0000
0000
0010
0000
,
0200
0000
1000
1300
0001
0100
0000
0001
,
0010
1000
0010
0001
0100
0010
0100
0000
,
0002
0000
0000
0000
1000
0000
1003
0000
0001
0000
0100
0000
0000
0000
0001
0100
,
0001
0000
1000
0000
0100
1000
0100
0000
0010
0100
0010
0000
0001
0100
0001
0000
,
1002
0000
0100
0103
0001
1000
0000
0001
,
0010
1000
0010
0001
0000
1001
0000
0010
,
2000
0000
0001
3001
0000
1000
0010
0001
,
0010
0000
1000
0000
0001
0100
0001
0000
0100
0010
0100
0000
0001
1000
0001
0000
,
0200
0000
0010
0310
1000
0100
0000
1000
,
0010
0001
0010
1000
0100
0010
0100
0000
,
2000
0000
0001
3001
0100
0010
0000
1000
,
0010
0000
0001
0000
0010
0000
2000
0000
0000
0000
3001
0000
1000
0001
1000
0001
,
1000
0001
0010
0100
1000
1000
0010
0200
,
0000
0000
0301
0010
1000
0010
0001
1000
,
0100
1000
0100
0000
1000
0000
0010
0000
0100
0000
0100
0000
0001
0000
2000
0000
,
0000
0000
3001
0010
1000
0010
0001
1000
,
0001
0100
1000
0100
0010
1010
0000
0201
,
0000
0000
0310
1000
0100
0001
0100
1000
,
0100
0010
0100
0000
1000
0000
0010
0000
0001
0000
0010
0000
1000
0000
1001
0000
,
0000
1001
0000
1001
0000
0100
0010
1000
,
0100
0000
0010
0000
0001
0100
0001
0000
0100
0010
0100
0000
0010
0000
2000
0000
,
0000
0000
0000
0000
3001
0000
0000
0001
0100
0000
0010
0000
1000
0000
0100
0000
,
0010
0000
0001
0000
0100
0000
0010
0000
1000
0000
0100
1000
0100
1000
0020
0000
,
0000
0000
0000
0000
0130
0000
0001
0000
0010
0000
0100
0000
1000
0001
1000
0001
,
1000
0000
0100
0000
0010
0001
0010
0000
0100
0010
0100
0000
1000
0000
0020
0000
,
0000
0000
0000
0000
0130
0000
0000
0100
0001
0000
0010
0000
0100
0000
0010
0000
,
0001
0100
0001
0000
1000
0000
0010
0000
0100
0000
0001
1000
0001
1000
0200
0000
,
0000
0000
0010
0000
0000
0000
0310
0000
0001
1000
0001
0000
0100
0000
0020
0000
,
0000
0000
0000
0030
,
1001
0000
0100
1000
0010
1000
0100
1000
,
0010
0100
0001
0010
0100
1000
0010
0000
,
0100
0001
0010
0100
1000
0001
0100
0010
,
1000
0100
0001
1000
0010
0001
1000
0000
,
0010
0100
0001
0100
0010
0100
0001
0010
,
0100
1000
0010
0100
0010
1000
0100
0000
,
0010
0001
1000
0010
1000
0001
0010
0001
,
1000
0100
0001
1000
0010
0001
1000
0000
,
1001
0000
1000
0001
0000
0010
0000
2200
,
0000
3300
0000
0202
0000
0000
0303
0000
,
1001
0000
1000
0001
0010
0001
1000
0001
,
0010
1000
0100
1000
0010
0001
0100
0000
,
0010
0100
0010
1000
0100
1000
0010
0100
,
0001
0100
1000
0001
0010
1000
0002
0020
,
0000
0000
0000
0000
,
0003
0000
0000
0000
0000
0000
0000
0000
0031
1000
0001
1000
0001
1000
0001
1000
,
0001
0100
0001
1000
0010
0001
0010
0100
,
0001
1000
0001
1000
0010
0000
1000
0000
0010
0000
0000
0000
0100
0001
0100
0000
,
0001
1000
0100
1000
0010
0100
0001
0010
,
0100
1000
0100
1000
0010
0000
1000
0000
0001
0000
0000
0000
0010
0100
0010
0000
,
0001
1000
0010
1000
0100
0001
0100
0010
,
0001
1000
0001
1000
0100
0000
1000
0000
0010
0000
0000
0000
0100
0010
0100
0000
,
0010
0000
1000
0000
0100
0000
1000
0000
0010
0000
0100
0000
0001
0100
0001
0000
,
1000
0100
1000
0100
0010
0000
0001
0000
0100
0000
0010
0000
0100
0000
0000
0000
,
1001
0000
0001
1000
0000
0100
0000
0022
,
0000
0033
0000
2020
0000
0000
3030
0000
,
1001
0000
0001
0100
0001
1000
0100
1000
,
0010
0100
0010
0100
0001
0000
0010
0000
0100
0000
0000
0000
1000
0001
1000
0001
,
1000
0010
1000
0001
0010
0100
0001
0100
,
1000
0001
1000
0001
0100
0000
0001
0000
0010
0000
0100
0000
2000
0000
0020
0000
,
0000
0000
0000
0000
,
0000
0000
0000
0000
,
3030
0000
0000
0000
;

//---------------dance-double - ----------------
#NOTES:
     dance-double:
     :
     Easy:
     6:
     0.292,0.388,0.070,0.039,0.000:
00000000
00000000
00000000
00000000
,
00000000
00000000
00000000
00000000
,
00000000
00000000
00000000
00000000
,
00000000
00000000
00000000
00000000
,
00000000
00000000
00000000
00000000
,
00000000
00000000
00000000
00000000
,
00000000
00000000
00000000
00000000
,
00000000
00000000
00000000
00000000
,
00000000
00000000
00000000
00000000
,
00000000
00000000
00000000
00000000
,
10000000
00010000
10000000
00000000
,
01000000
10000000
01000000
00000000
,
00100000
00001000
00100000
00000000
,
00001000
00010000
00001000
00000000
,
00100000
00001000
00100000
00000000
,
00001000
00010000
00000010
00000000
,
00000100
00000010
00000100
00000000
,
00000001
00001000
00000001
00000000
,
00000200
00000000
00000000
00000000
,
00000310
00000100
00000010
00000000
,
00010000
00000010
00010000
00000000
,
00001000
00010000
00001000
00000000
,
01000000
00100000
10000000
00000000
,
01000000
10000000
01000000
00000000
,
00100000
01000000
00100000
00000000
,
00001000
00010000
00000010
00000000
,
00000100
00000010
00000100
00000000
,
00000001
00000010
00000001
00000000
,
00000100
00000010
00010000
00000000
,
00001000
00010000
00001000
00000000
,
00100000
01000000
00100000
00000000
,
00010000
01000000
00100000
00000000
,
10000000
00100000
10000000
00000000
,
01000000
00100000
00001000
00000000
,
00010000
00001000
00010000
00000000
,
00011000
00000000
00010000
00000000
,
00000100
00000000
00000010
00000000
,
00000001
00000000
00000010
00000000
,
00000100
00000000
00010000
00000000
,
00011000
00000000
00001000
00000000
,
01000000
00000000
00100000
00000000
,
10000000
00000000
00100000
00000000
,
01000000
00000000
00001000
00000000
,
00010000
00000000
00000100
00000000
,
00000010
00000000
00000001
00000000
,
00000010
00000000
00000100
00000000
,
00010000
00000000
00001000
00000000
,
00011000
00000000
00100000
00000000
,
01000000
00000000
10000000
00000000
,
01000000
00000000
00100000
00000000
,
00001000
00000000
00020000
00000000
,
00030010
00000100
00000010
00000000
,
00000100
00000001
00000100
00000001
,
00000010
00000100
00000010
00000000
,
00000001
00010000
00000001
00010000
,
00000100
00010000
00000100
00000000
,
00010000
00001000
00010000
00001000
,
00100000
01000000
00100000
00000000
,
00010000
10000000
00010000
00000000
,
10000000
01000000
10000000
01000000
,
10000000
00100000
01000000
00000000
,
00001000
00010000
00001000
00010000
,
00000100
00000010
00000001
00000000
,
00000100
00000001
00000100
00000001
,
00000010
00000100
00010000
00000000
,
00001000
00010000
00001000
00010000
,
00100000
01000000
10000000
00000000
,
02000000
00000000
00000000
03000000
,
01100000
00000000
00100000
00000000
,
10000000
01000000
00100000
00001000
,
00010000
00000000
00000010
00000000
,
00000100
00000001
00000010
00000001
,
00000100
00000000
00000001
00000000
,
00000010
00000100
00001000
00010000
,
01000000
00000000
00100000
00000000
,
01000000
00100000
10000000
00010000
,
10010000
00000000
00000000
00000000
00000000
00000000
00000000
01000000
,
00000000
00000000
00000000
01000000
00000000
00000000
00000000
00000000
,
01100000
00000000
00100000
01000000
,
00100000
10000000
01000000
00100000
,
00001000
00000000
00010000
00000010
,
00000100
00000010
00010000
00000100
,
00000020
00000000
00000000
00000000
,
00000000
00000000
00000030
00000000
,
00001001
00000001
00000100
00000001
,
00000010
00000100
00010000
00000000
,
00100000
01000000
10000000
01000000
,
00100000
00010000
00100000
00000000
,
00001000
00010000
00000010
00010000
,
00001000
00010000
00000010
00000000
,
00000100
00000001
00000010
00000100
,
00010000
00001000
00100000
00000000
,
01100000
00000000
00000000
00000000
00000000
00000000
00000000
01000000
,
00000000
00000000
00000000
01000000
00000000
00000000
00000000
00000000
,
10010000
00010000
10000000
01000000
,
00100000
01000000
10000000
00001000
,
01000000
00001000
00010000
00000100
,
00000010
00000000
00000001
00000000
00001000
00000000
00000000
00000020
,
00000000
00000000
00000000
00000000
,
00000000
00000000
00000000
00000000
,
00000030
00000000
00000000
00000000
;

//---------------dance-double - ----------------
#NOTES:
     dance-double:
     :
     Medium:
     9:
     0.474,0.543,0.209,0.271,0.000:
00000000
00000000
00000000
00000000
,
00000000
00000000
00000000
00000000
,
00000000
00000000
00000000
00000000
,
00000000
00000000
00000000
00000000
,
00000000
00000000
00000000
00000000
,
00000000
00000000
00000000
00000000
,
00000000
00000000
00000000
00000000
,
00000000
00000000
00000000
00000000
,
00000000
00000000
00000000
00000000
,
00000000
00000000
00000000
00000000
,
10000000
00010000
10000000
00000000
00010000
10000000
00000000
00100000
,
00000000
10000000
00010000
00000000
10000000
00010000
00000000
00000000
,
01000000
00100000
01000000
00000000
00001000
00000000
00010000
00000000
,
00000000
00000010
00000100
00000000
00000001
00000100
00000000
00000000
,
00000001
00001000
00000001
00000000
00001000
00000001
00000000
00000100
,
00000000
00000001
00001000
00000000
00000010
00010000
00000000
00000000
,
00001000
00010000
00001000
00000000
00100000
00000000
01000000
00000000
,
10000000
00100000
10000000
00000000
00100000
01000000
00000000
00000000
,
00020000
00000000
00000000
00000000
,
10030000
00100000
10000000
00000000
00100000
01000000
00100000
01000000
,
00000000
00001000
00010000
00000100
,
00000010
00000001
00000010
00000000
00000001
00001000
00000001
00001000
,
00000000
00000100
00000010
00000001
,
00010000
00000100
00010000
00000000
00001000
00010000
00001000
00010000
,
00000000
00001000
00100000
01000000
,
10000000
00100000
10000000
00000000
00010000
10000000
00010000
10000000
,
00000000
00000000
00100000
00000000
01000000
00010000
01000000
00010000
,
01000000
00000000
00001000
00000000
00010000
00001000
00010000
00001000
,
00000000
00010000
00000010
00000000
00000100
00000000
00000001
00000000
,
00000010
00000100
00000010
00000000
00000001
00000100
00000001
00000100
,
00000000
00000001
00010000
00000000
00001000
00000000
00100000
00000000
,
01000000
00100000
01000000
00000000
10000000
00100000
10000000
00100000
,
00000000
10000000
00001000
00000000
00010000
00000000
00000100
00000000
,
00000010
00000001
00000010
00000000
00000001
00001000
00000001
00001000
,
00000000
00000010
00001000
00000000
00010000
00000000
00000000
00000000
,
02001000
00000000
00000000
03200000
00000000
00000000
00000000
20300000
,
00000000
00000000
00000000
30200000
00000000
00000000
00300000
00000000
,
20000000
00000000
00000000
32000000
00000000
00000000
00000000
03200000
,
00000000
00000000
00000000
00302000
00000000
00000000
00003000
00000000
,
00020000
00000000
00000000
00030020
00000000
00000000
00000000
00000230
,
00000000
00000000
00000000
00000302
00000000
00000000
00000003
00000000
,
00002000
00000000
00000000
00003020
00000000
00000000
00000030
00002000
,
00000000
00000000
00000000
00023000
00000000
00000000
00030000
00000000
,
00011000
00000000
00000000
01001000
00000000
00000000
00000000
01100000
,
00000000
00000000
00000000
10100000
00000000
00000000
00000000
00000000
,
10010000
00000000
00000000
10010000
00000000
00000000
00000000
11000000
,
00000000
00000000
00000000
00101000
00000000
00000000
00000000
00000000
,
00011000
00000000
00000000
00010010
00000000
00000000
00000000
00000011
,
00000000
00000000
00000000
00000110
00000000
00000000
00000000
00000000
,
00001001
00000000
00000000
00001001
00000000
00000000
00000000
00020020
,
00000000
00000000
00000000
00030030
00000000
00000000
00000000
00000000
,
00001000
00010000
00001000
00000000
01000000
00100000
01000000
00100000
,
00000000
10000000
00100000
10000000
,
01000000
00100000
01000000
00000000
10000000
00010000
10000000
00010000
,
00000000
01000000
00001000
00010000
,
00000100
00000010
00000100
00000000
00001000
00000010
00001000
00000010
,
00000000
00000100
00000001
00000010
,
00000100
00000010
00000100
00000000
00010000
00001000
00010000
00001000
,
00000000
00001000
00000000
01001000
00000000
00000000
00000000
00000000
,
01000000
00100000
01000000
00000000
00010000
10000000
00010000
10000000
,
00000000
01000000
00100000
00010000
,
00001000
00000010
00001000
00000000
00000100
00000010
00000100
00000010
,
00000000
00000001
00000100
00000010
,
00010000
00000010
00010000
00000000
00001000
00010000
00001000
00010000
,
00000000
01000000
00100000
10000000
,
00010000
10000000
00010000
00000000
01000000
00010000
01000000
00010000
,
00000000
00100000
01000000
10000000
,
00020000
00000000
00000000
00030000
,
10010000
00000000
10000000
00100000
00000000
10000000
00000000
00010000
,
00000000
00100000
01000000
00100000
,
00001000
00000000
00010000
00000100
00000000
00000010
00000000
00000100
,
00010000
00000000
00000001
00000000
00000100
00000001
00000100
00000000
,
00000001
00000000
00000100
00000010
00000000
00001000
00000000
00000100
,
00000000
00000000
00010000
00000000
00001000
01000000
00001000
00000000
,
01000000
00000000
00100000
10000000
00000000
00100000
00000000
10000000
,
00010000
00100000
01000000
00100000
,
00022000
00000000
00000000
00000000
00000000
00033000
00000000
00020020
,
00000000
00030030
00000000
00000220
00000000
00000330
00000000
00000000
,
00001001
00000000
00000001
00000100
00000000
00000010
00000000
00000100
,
00000001
00001000
00000001
00000000
00010000
00000010
00010000
00000000
,
00001000
00000000
00100000
01000000
00000000
10000000
00000000
00100000
,
01000000
00000000
00001000
00010000
00001000
00000000
00020000
00000200
,
00000000
00000000
00000000
00000000
,
00030300
00000000
00000000
00000000
,
00000110
00000000
00000100
00000001
00000000
00000100
00000000
00000001
,
00010000
00000100
00010000
00000000
00001000
00010000
00001000
00000000
,
01000000
00000000
00100000
10000000
00000000
01000000
00000000
00100000
,
00001000
00010000
00001000
00000000
00010000
00000010
00010000
00000000
,
00000010
00000000
00000100
00000001
00000000
00000010
00000000
00000100
,
00010000
00001000
00010000
00000000
00001000
01000000
00001000
00000000
,
01000000
00000000
00100000
10000000
00000000
01000000
00000000
00100000
,
00001000
00010000
00001000
00000000
00010000
00000010
00010000
00000000
,
00020020
00000000
00000000
00000000
00000000
00030030
00000000
00000202
,
00000000
00000303
00000000
00002002
00000000
00003003
00000000
00000000
,
00000110
00000000
00000010
00000100
00000000
00000001
00000000
00000010
,
00010000
00000100
00010000
00000000
00001000
00010000
00001000
00000000
,
00100000
00000000
01000000
00100000
00000000
00010000
00000000
00001000
,
00000010
00000100
00000010
00000000
00000100
00000001
00000100
00000002
,
00000000
00000000
00000000
00000000
,
00000000
00000000
00000000
00000000
,
00000003
00000000
00000000
00000000
;

//---------------dance-double - ----------------
#NOTES:
     dance-double:
     :
     Hard:
     11:
     0.575,0.659,0.124,0.178,0.050:
00000000
00000000
00000000
00000000
,
00000000
00000000
00000000
00000000
,
00000000
00000000
00000000
00000000
,
00000000
00000000
00000000
00000000
,
00000000
00000000
00000000
00000000
,
00000000
00000000
00000000
00000000
,
00000000
00000000
00000000
00000000
,
00000000
00000000
00000000
00000000
,
00000000
00000000
00000000
00000000
,
00000000
00000000
00000000
00000000
,
01000000
00100000
01000000
00000000
00100000
01000000
00001000
00010000
,
00000000
00001000
00010000
00000000
00000100
00000010
00000001
00000000
,
00001000
00000001
00001000
00000000
00000001
00000100
00000010
00010000
,
00000000
00000010
00010000
00000000
00001000
00100000
01000000
00000000
,
10000000
00100000
10000000
00000000
00100000
10000000
01000000
00100000
,
00000000
01000000
00100000
00000000
00001000
00010000
00000100
00000000
,
00000010
00000001
00000010
00000000
00000001
00001000
00000100
00000010
,
00000000
00000100
00000010
00000000
00000001
00000100
00000010
00020000
,
00000000
00000000
00000000
00030000
,
00001000
01000000
00001000
10000000
00001000
10000000
00100000
01000000
,
00000000
00001000
00010000
00000000
00010000
00000100
00000010
00000000
,
00000001
00000100
00000001
00000010
00000100
00010000
00001000
01000000
,
00000000
00000000
00100000
00000000
10000000
00000000
00000000
00000000
10000000
00000000
00001000
00000000
00010000
00001000
00010000
00001000
,
00010000
00000010
00000100
00000001
00000010
00000100
00010000
00001000
,
00000000
01000000
00100000
00000000
00100000
10000000
01000000
00000000
,
10000000
00100000
10000000
01000000
00100000
00010000
00001000
00000010
,
00000000
00000100
00000001
00000000
00000010
00000010
00000100
00000100
,
00010000
00001000
00100000
10000000
00100000
00001000
00100000
01000000
,
00000000
10000000
00010000
00000000
01000000
00001000
00010000
00001000
,
01000000
00010000
00001000
00000010
00000001
00000010
00001000
00000001
,
00000000
00000000
00000010
00000000
00000100
00000000
00000000
00000000
00010000
00000000
00001000
00000000
01000000
00100000
01000000
00100000
,
01000000
00010000
01000000
00100000
10000000
01000000
10000000
00100000
,
00000000
01000000
00001000
00000000
00010000
00000100
00010000
00000010
,
00010000
00000100
00000010
00000001
00000100
00000001
00010000
00001000
,
00000000
00100000
01000000
00000000
10000000
00100000
00000000
00000000
,
10010000
00000000
00010000
01000000
00000000
00100000
00000000
10000000
,
00000000
01000000
00000000
00100000
00000000
00001000
00000000
00000000
,
00010000
00000000
00000010
00000100
00000000
00000001
00000000
00000010
,
00000000
00000100
00000000
00001000
00000000
00010000
00000000
00000000
,
00100000
00000000
01000000
00100000
00000000
00010000
00000000
10000000
,
00000000
00100000
00000000
01000000
00000000
00100000
00000000
00000000
,
10000000
00000000
01000000
00100000
00000000
00001000
00000000
00010000
,
00000000
00000100
00000000
00000010
00000000
00000100
00000000
00000000
,
00001001
00000000
00001000
00000001
00000000
00000100
00000000
00001000
,
00000000
00000100
00000000
00000001
00000000
00001000
00000000
00000000
,
00010000
00000000
01000000
00100000
00000000
10000000
00000000
01000000
,
00000000
00000000
00100000
00000000
00001000
00010000
00001000
00000000
00010000
00000010
00010000
00000000
00000010
00000100
00000010
00000000
,
00000100
00000000
00000001
00001000
00000000
00000010
00000000
00000001
,
00000000
00000010
00000000
00001000
00000000
00000100
00000000
00000000
,
00001000
00000000
00010000
00100000
00000000
01000000
00000000
10000000
,
00000000
00010000
00000000
20020000
00000000
00000000
30030000
00000000
,
01000000
00010000
01000000
00100000
01000000
00010000
10000000
02000000
,
00000000
00000000
00100000
00000000
03100000
00001000
00010000
00000100
,
00000000
00000010
00000001
00000010
00000100
00000010
00000001
00000200
,
00000000
00000000
00000010
00000000
00000310
00010000
00001000
00100000
,
00000000
01000000
10000000
01000000
00000000
01100000
00000000
01002000
,
00000000
00000000
00010000
00000000
00013000
00000100
00000010
00000001
,
00000000
00000100
00000001
00000100
00000010
00010000
00001000
01001000
,
00000000
01001000
00000000
01001000
00000000
01000000
00100000
01000000
,
00010000
00000000
10000000
00000000
01000000
10000000
01000000
00000000
00100000
01000000
00100000
00000000
00010000
00000000
00002000
00000000
,
00000000
00000000
00000010
00000000
00003010
00000100
00000001
00000100
,
00000000
00000001
00010000
00000001
00010000
00001000
00100000
02000000
,
00000000
00000000
00000000
00000000
10000000
00000000
00000000
00000000
13000000
00000000
00100000
00000000
01000000
00010000
01000000
00010000
,
01000000
00000000
00001000
00000000
00010000
00001000
00010000
00000000
00000010
00010000
00000010
00000000
00000100
00000000
00000002
00000000
,
00000000
00000000
00000100
00000000
00000103
00000010
00001000
00010000
,
00000000
01000000
00100000
00010000
00100000
01000000
00010000
20000000
,
00000000
00100000
00000000
30100000
01000000
00001000
00010000
00002000
,
00000000
00000000
00000000
00003000
,
00011000
00000000
00010000
00000010
00000000
00000100
00000000
00000010
,
00001000
00000100
00000010
00000001
00000010
00000000
00000100
00000000
,
00010000
00000000
00001000
00100000
00000000
01000000
00000000
00100000
,
00001000
10000000
01000000
00100000
00010000
00000000
00001000
00000000
,
00000010
00000000
00000100
00000001
00000000
00000010
00000000
00000100
,
00000010
00000000
00000001
00000100
00000010
00000100
00000001
00000000
,
00000010
00000000
00000100
00010000
00000000
00001000
00000000
00100000
,
01000000
10000000
00010000
01000000
00010000
00000000
10000000
00000000
,
20020000
00000000
00000000
00000000
00000000
30030000
00000000
10200000
,
00000000
00000000
00000000
02000000
00000000
00000000
03300000
00000000
,
10010000
00000000
10000000
00100000
00000000
01000000
00000000
00100000
,
10000000
01000000
00100000
00010000
01000000
00000000
00001000
01000000
,
00001000
00000000
00010000
00000010
00000000
00000100
00000000
00000001
,
00000100
00000010
00000001
00000010
00000100
00000000
00000002
00002000
,
00000000
00000000
00000000
00000000
,
00003003
00000000
00000000
00000000
,
00000110
00000000
00000100
00000001
00000000
00000010
00000000
00000100
,
00001000
00010000
01000000
00100000
01000000
00000000
00010000
10000000
,
00010000
00000000
01000000
00100000
00000000
10000000
00000000
00100000
,
01000000
00001000
01000000
00001000
00010000
00000000
00000100
00000010
,
00000100
00000000
00010000
00000010
00000000
00000100
00000000
00000001
,
00010000
00000100
00010000
00001000
00010000
00000000
00001000
01000000
,
00001000
00000000
10000000
01000000
00000000
00100000
00000000
01000000
,
10000000
00100000
01000000
00010000
00100000
00000000
00001000
00000000
,
00022000
00000000
00000000
00000000
00000000
00033000
00000000
00010020
,
00000000
00000000
00000000
00000200
00000000
00000000
00000330
00000000
,
00001001
00000000
00000001
00000100
00000000
00000010
00000000
00000100
,
00000001
00000010
00000100
00010000
00000010
00000000
00010000
00001000
,
00010000
00000000
00001000
01000000
00000000
00100000
00000000
01000000
,
00001000
00100000
01000000
10000000
00100000
00000000
02000000
00200000
,
00000000
00000000
00000000
00000000
,
00000000
00000000
00000000
00000000
,
03300000
00000000
00000000
00000000
;

//---------------dance-double - ----------------
#NOTES:
     dance-double:
     :
     Challenge:
     15:
     0.794,0.775,0.140,0.240,0.318:
00000000
00000000
00000000
00000000
,
00000000
00000000
00000000
00000000
,
00000000
00000000
00000000
00000000
,
00000000
00000000
00000000
00000000
,
00000000
00000000
00000000
00000000
,
00000000
00000000
00000000
00000000
,
00000000
00000000
00000000
00000000
,
00000000
00000000
00000000
00000000
,
00000000
00000000
00000000
00000000
,
00000000
00000000
00000000
00000000
,
10000000
00000000
00010000
00000000
10000000
00000000
01000000
00000000
00100000
00000000
01000000
00000000
10000000
00100000
10000000
00100000
,
10000000
00000000
00100000
00000000
01000000
00010000
01000000
00000000
00010000
00000000
00001000
00000000
00000100
00000000
00000010
00000000
,
00000001
00000100
00000001
00000010
00000100
00001000
00010000
00001000
,
00000000
00000000
01000000
00000000
00001000
00000000
00100000
00000000
00001000
00000000
01000000
00000000
00100000
01000000
00100000
01000000
,
00100000
10000000
01000000
00100000
01000000
10000000
00001000
00100000
,
00000000
00001000
00010000
00000100
00010000
00001000
00000010
00000100
,
00000001
00001000
00000001
00000100
00000010
00010000
00001000
00010000
,
00000000
00000000
00001000
00000000
01000000
00000000
00100000
00000000
01000000
00000000
00001000
00000000
00100000
01000000
20000000
00000000
,
00000000
00000000
00000000
30000000
,
00100000
00000000
01000000
00000000
00010000
00000000
10000000
00000000
01000000
00000000
00100000
00000000
01000000
10000000
01000000
00000000
,
00000000
00000000
00100000
00001000
00100000
00000000
00010000
00000000
00001000
00000000
00000010
00000000
00000100
00000010
00000100
00000010
,
00000100
00000000
00000001
00000000
00001000
00000000
00000100
00000000
00000010
00000000
00000001
00000100
00000001
00000000
00010000
00000000
,
00000000
00000000
00001000
00010000
00001000
00000000
01000000
00000000
00100000
00000000
10000000
00000000
01000000
00100000
01000000
00100000
,
01000000
00000000
10000000
00000000
00100000
00000000
01000000
00000000
00001000
00000000
00010000
00000000
00000100
00000010
00000100
00000000
,
00000000
00000000
00001000
00000100
00000010
00000000
00000001
00000000
00000100
00000000
00000010
00000000
00000100
00000000
00000001
00000000
,
00000010
00000000
00000100
00000000
00001000
00000000
00010000
00000000
01000000
00000000
00100000
00000000
10000000
01000000
10000000
00000000
,
00000000
00000000
01000000
00100000
00010000
00000000
01000000
00000000
00002000
00000000
00010000
00000000
00010000
00000000
00013000
00000000
,
00000010
00000000
00000100
00000000
00000010
00000000
00001000
00000000
00000100
00000000
00000010
00000000
00000001
00000100
00000001
00000000
,
00000000
00000000
00000100
00000010
00010000
00000000
00001000
00000000
00100000
00000000
01000000
00000000
10000000
00010000
10000000
00010000
,
10000000
00000000
01000000
00000000
10000000
00000000
00100000
00000000
01000000
00000000
00001000
00000000
00010000
00001000
00010000
00000000
,
00000000
00000000
00000100
00000010
00000001
00000000
00000100
00000000
00000001
00000000
00010000
00000000
00000100
00010000
00000100
00010000
,
00000100
00000000
00001000
00000000
00010000
00000000
01000000
00000000
00100000
00000000
01000000
00000000
00010000
10000000
00010000
00000000
,
00000000
00000000
01000000
00100000
10000000
00000000
00010000
00000000
10000000
00000000
01000000
00000000
00100000
00001000
00100000
00001000
,
00100000
00000000
00001000
00000000
00010000
00000000
00000100
00000000
00000010
00000000
00000100
00000000
00010000
00000001
00010000
00000000
,
00000000
00000000
00000010
00000100
00000001
00000000
00000100
00000000
00000010
00000000
00010000
00000000
00000000
00000000
00000000
00000000
,
00012000
00000000
01000000
01003000
00100000
10000000
00000000
00010000
,
01000000
10000000
01000000
00010000
00000000
10010000
00000000
01000000
,
00002000
00000000
00000000
00000000
00010000
00000000
00013000
00000000
00000000
00000000
00000100
00000000
00000010
00000000
00000001
00000100
,
00000001
00000000
00000100
00000010
00000100
00000000
00000010
00001000
00000010
00000000
00000100
00000000
00000000
00000000
00000001
00000000
,
00020000
00000000
00001000
00031000
00100000
01000000
00000000
10000000
,
00100000
00010000
00100000
10000000
01000000
00100000
01000000
00000000
,
20000000
00000000
00000000
00000000
00001000
00000000
30001000
00000000
00010000
00000000
00000100
00000000
00000000
00000000
00000010
00000001
,
00000010
00000000
00000100
00000000
00010000
00001000
00010000
00000000
00001000
01000000
00001000
00000000
01000000
00100000
01000000
00000000
,
10020000
00000000
10000000
10030000
01000000
00100000
00000000
00001000
,
00010000
00000100
00000010
00000001
00000000
00001001
00000000
00000010
,
00020000
00000000
00001000
00031000
00000000
00100000
01000000
10000000
,
00010000
00000000
00100000
00000000
01000000
10000000
01000000
00000000
10000000
00010000
10000000
00000000
01000000
00100000
01000000
00000000
,
20000000
00000000
00001000
30001000
00010000
00000010
00000000
00000100
,
00000001
00000010
00001000
00000010
00000001
00000010
00000100
00000000
,
00002000
00000000
00010000
00013000
00100000
01000000
00000000
10000000
,
01000000
00000000
00010000
00000000
01000000
00000000
20000000
00000000
00000000
00000000
30010000
00000000
10000000
00010000
10000000
00010000
,
10000000
01000000
00100000
00001000
00010000
00010000
00000100
00000020
,
00000000
00000000
00000031
00000100
00000010
00000100
00000001
00000010
,
00000100
00010000
00000100
00000000
00001000
00000000
00010000
00000000
01000000
00000000
01000000
00000000
00100000
00000000
20000000
00000000
,
00000000
00000000
30010000
01000000
10000000
01000000
00100000
10000000
,
00010000
01000000
00001000
00010000
00000010
00000110
00000000
00000102
,
00000000
00000000
00001003
00000010
00000001
00000010
00000100
00000001
,
00010000
00000100
00010000
00000000
00001000
00000000
00100000
00000000
01000000
00000000
00100000
00000000
00001000
00000000
00011000
00000000
,
00000000
00011000
00000000
00011000
00000000
00100000
01000000
10000000
,
00010000
00000000
01000000
00000000
00100000
01000000
00100000
00000000
10000000
00010000
10000000
00000000
00001000
00000000
00020000
00000000
,
00000000
00000000
00000000
00000000
00031000
00000000
00000000
00010000
00000010
00000000
00000100
00000000
00000001
00000000
00000010
00000000
,
00000001
00000000
00000100
00000000
00001000
00000000
00000100
00000000
00000001
00000000
00000010
00000100
00000010
00000100
00020000
00000000
,
00000000
00000000
00000000
00000000
00031000
00000000
01000000
00000000
00100000
00000000
10000000
00000000
00100000
01000000
00100000
01000000
,
00100000
00000000
10000000
00000000
00001000
01000000
00001000
00000000
01000000
00100000
01000000
00000000
00010000
00000000
00002000
00000000
,
00000000
00000000
00000000
00000000
00003010
00000000
00000000
00000010
00000100
00000000
00000001
00000000
00000100
00000000
00000010
00000000
,
00010000
00000100
00010000
00000000
00001000
00000000
00100000
00000000
01000000
00000000
10000000
00100000
10000000
00100000
20000000
00000000
,
00000000
00000000
00010000
00000000
00000000
00000000
30010000
00000000
01000000
00100000
01000000
00000000
00001000
00000000
00020000
00000000
,
00000000
00000000
00000000
00030000
,
00000110
00000000
00000100
00000001
00000010
00000001
00000100
00000001
,
00000010
00000100
00010000
00001000
00100000
01000000
00100000
00000000
,
00010000
01000000
00010000
10000000
00100000
01000000
10000000
01000000
,
00100000
10000000
00001000
00100000
00001000
00010000
00000100
00000000
,
00000010
00000001
00010000
00000001
00000010
00000001
00010000
00000001
,
00000010
00000100
00010000
00001000
00100000
01000000
10000000
00000000
,
00010000
01000000
00100000
00010000
00100000
01000000
00010000
10000000
,
00100000
10000000
01000000
00100000
00001000
00010000
00000010
00000000
,
00000110
00000000
00000100
00000001
00000000
00000010
00000000
00020200
,
00000000
00030300
00000000
00022000
00000000
00000000
00033000
00000000
,
01100000
00000000
00100000
01000000
00010000
01000000
00100000
01000000
,
00001000
00100000
10000000
00100000
00001000
00010000
00000100
00000000
,
00000010
00000001
00010000
00000010
00000001
00000010
00010000
00001000
,
00100000
01000000
10000000
00001000
00100000
01000000
00200000
00002000
,
00000000
00000000
00000000
00000000
,
00000000
00000000
00000000
00000000
00303000
00000000
00000000
00000000
00001000
00010000
00001000
00010000
00001000
00010000
00001000
00010000
,
00001000
00010000
00000010
00000100
00000010
00010000
00000100
00000010
,
00000001
00000100
00000001
00000100
00000010
00000000
00001000
00000000
00000100
00000000
00000000
00000000
00010000
00000100
00010000
00000000
,
00001000
01000000
10000000
01000000
00100000
10000000
00010000
01000000
,
00001000
00100000
00001000
00100000
00001000
00000000
00010000
00000000
00000100
00000000
00000000
00000000
00000010
00000001
00000010
00000000
,
00000100
00010000
00001000
00100000
10000000
00100000
00001000
00010000
,
00000100
00000010
00000100
00000010
00000001
00000000
00010000
00000000
00000100
00000000
00000000
00000000
00001000
00010000
00001000
00000000
,
00010000
00000000
00100000
00000000
10000000
00000000
00100000
00000000
00010000
00000000
01000000
00000000
00001000
00010000
00001000
00000000
,
00010000
00000010
00010000
00000010
00000100
00000000
00000001
00000000
00000010
00000000
00000100
00000000
00000010
00000000
00000000
00000000
,
00001001
00000000
00000001
00000100
00000000
00000010
00000000
00022000
,
00000000
00033000
00000000
02002000
00000000
00000000
03003000
00000000
,
01100000
00000000
00100000
01000000
00100000
10000000
01000000
00100000
,
00001000
00010000
00001000
00010000
00000100
00000000
00000010
00000000
00000100
00000000
00000000
00000000
00001000
00000001
00001000
00000001
,
00001000
00000100
00000010
00000100
00010000
00001000
00100000
01000000
,
10000000
00100000
10000000
00100000
01000000
00000000
00001000
00000000
00010000
00000000
00000100
00000000
00000020
00000000
00000002
00000000
,
00000000
00000000
00000000
00000000
,
00000000
00000000
00000000
00000000
,
00000033
00000000
00000000
00000000
;

//---------------dance-single - ----------------
#NOTES:
     dance-single:
     :
     Beginner:
     3:
     0.120,0.228,0.093,0.000,0.000: // measure 1
0000
0000
0000
0000
,  // measure 2
0000
0000
0000
0000
,  // measure 3
0000
0000
0000
0000
,  // measure 4
0000
0000
0000
0000
,  // measure 5
0000
0000
0000
0000
,  // measure 6
0000
0000
0000
0000
,  // measure 7
0000
0000
0000
0000
,  // measure 8
0000
0000
0000
0000
,  // measure 9
0000
0000
0000
0000
,  // measure 10
0000
0000
0000
0000
,  // measure 11
1000
0000
0000
0000
,  // measure 12
0001
0000
0000
0000
,  // measure 13
1000
0000
0000
0000
,  // measure 14
0001
0000
0000
0000
,  // measure 15
0010
0000
0000
0000
,  // measure 16
0100
0000
0000
0000
,  // measure 17
0010
0000
0000
0000
,  // measure 18
0100
0000
0000
0000
,  // measure 19
1000
0000
0000
0000
,  // measure 20
1001
0000
0000
0000
,  // measure 21
0001
0000
0000
0000
,  // measure 22
0100
0000
0000
0000
,  // measure 23
0001
0000
0000
0000
,  // measure 24
0100
0000
0000
0000
,  // measure 25
0010
0000
0000
0000
,  // measure 26
0100
0000
0000
0000
,  // measure 27
0001
0000
0000
0000
,  // measure 28
1001
0000
0000
0000
,  // measure 29
1000
0000
0000
0000
,  // measure 30
0100
0000
0000
0000
,  // measure 31
1000
0000
0000
0000
,  // measure 32
0010
0000
0000
0000
,  // measure 33
0100
0000
0000
0000
,  // measure 34
0001
0000
0000
0000
,  // measure 35
0010
0000
0000
0000
,  // measure 36
1001
0000
0000
0000
,  // measure 37
0000
0000
0000
0000
,  // measure 38
0100
0000
0000
0000
,  // measure 39
0000
0000
0000
0000
,  // measure 40
0110
0000
0000
0000
,  // measure 41
0000
0000
0000
0000
,  // measure 42
0010
0000
0000
0000
,  // measure 43
0000
0000
0000
0000
,  // measure 44
1001
0000
0000
0000
,  // measure 45
0000
0000
0000
0000
,  // measure 46
0001
0000
0000
0000
,  // measure 47
0000
0000
0000
0000
,  // measure 48
1001
0000
0000
0000
,  // measure 49
0000
0000
0000
0000
,  // measure 50
1000
0000
0000
0000
,  // measure 51
0000
0000
0000
0000
,  // measure 52
0100
0000
0000
0000
,  // measure 53
1000
0000
0000
0000
,  // measure 54
0010
0000
0000
0000
,  // measure 55
0100
0000
0000
0000
,  // measure 56
0001
0000
0000
0000
,  // measure 57
0010
0000
0000
0000
,  // measure 58
0100
0000
0000
0000
,  // measure 59
0010
0000
0000
0000
,  // measure 60
1001
0000
0000
0000
,  // measure 61
0001
0000
0000
0000
,  // measure 62
0100
0000
0000
0000
,  // measure 63
0010
0000
0000
0000
,  // measure 64
1000
0000
0000
0000
,  // measure 65
0010
0000
0000
0000
,  // measure 66
0100
0000
0000
0000
,  // measure 67
0001
0000
0000
0000
,  // measure 68
1000
0000
0000
0000
,  // measure 69
1001
0000
0001
0000
,  // measure 70
0001
0000
0000
0000
,  // measure 71
1000
0000
1000
0000
,  // measure 72
1000
0000
0000
0000
,  // measure 73
0010
0000
0010
0000
,  // measure 74
0010
0000
0000
0000
,  // measure 75
0100
0000
0100
0000
,  // measure 76
0100
0000
0000
0000
,  // measure 77
1001
0000
0000
0000
,  // measure 78
0000
0000
0000
0000
,  // measure 79
1001
0000
0001
0000
,  // measure 80
0001
0000
0000
0000
,  // measure 81
0010
0000
0010
0000
,  // measure 82
0010
0000
0000
0000
,  // measure 83
0100
0000
0000
0000
,  // measure 84
0000
0000
0000
0000
,  // measure 85
1001
0000
1000
0000
,  // measure 86
0001
0000
1000
0000
,  // measure 87
0100
0000
1000
0000
,  // measure 88
0100
0000
1000
0000
,  // measure 89
0001
0000
1000
0000
,  // measure 90
0001
0000
1000
0000
,  // measure 91
0001
0000
0100
0000
,  // measure 92
0001
0000
0100
0000
,  // measure 93
0010
0000
0000
0000
,  // measure 94
0000
0000
0000
0000
,  // measure 95
0110
0000
0100
0000
,  // measure 96
0010
0000
0100
0000
,  // measure 97
0001
0000
0100
0000
,  // measure 98
0001
0000
1000
0000
,  // measure 99
0100
0000
0000
0000
;
