#TITLE:Dream of Winds;
#SUBTITLE:;
#ARTIST:XeoN;
#TITLETRANSLIT:;
#SUBTITLETRANSLIT:;
#ARTISTTRANSLIT:;
#CREDIT:DigiMindAxel;
#BANNER:Dream of Winds.png;
#BACKGROUND:Dream of Winds-bg.png;
#LYRICSPATH:;
#CDTITLE:DJMAX.png;
#MUSIC:Dream of Winds.ogg;
#METERTYPE:DDR X;
#OFFSET:1.420;
#SAMPLESTART:65.160;
#SAMPLELENGTH:12.000;
#SELECTABLE:YES;
#BPMS:0.000=150.000,104.000=75.000,120.000=150.000;
#STOPS:;
#BGCHANGES:3.000=Dream of Winds.avi=1.000=1=1=0,
99999=-nosongbg-=1.000=0=0=0 // don't automatically add -songbackground-
;

//---------------dance-single - ----------------
#NOTES:
     dance-single:
     :
     Easy:
     4:
     0.176,0.223,0.054,0.090,0.000:
0000
0000
0000
0000
,
0000
0000
0000
0000
,
0000
0000
0000
0000
,
0000
0000
0000
0000
,
0000
0000
0000
0000
,
0000
0000
0000
0000
,
2000
0000
0000
0000
,
3200
0000
0000
0000
,
0320
0000
0000
0000
,
0031
0000
0000
0000
,
1001
0000
1000
0000
,
0100
0000
1000
0000
,
0001
0000
0100
0000
,
0001
0000
1000
0000
,
0100
0000
0010
0000
,
0100
0000
0010
0000
,
0001
0000
0100
0000
,
0001
0000
0100
0000
,
0001
0000
1000
0000
,
0100
0000
1000
0000
,
0100
0000
0010
0000
,
0100
0000
0010
0000
,
0001
0000
0100
0000
,
0001
0000
0100
0000
,
0002
0000
2003
0000
,
3001
0000
0000
0000
,
2000
0000
0000
0000
,
3020
0000
0000
0000
,
0230
0000
0000
0000
,
0302
0000
0000
0003
,
1001
1000
0000
0001
,
0000
1000
0000
0001
,
0000
0010
0000
0100
,
0000
0010
0000
0100
,
0000
1000
0000
0100
,
0000
1000
0000
0001
,
0000
0100
0000
0001
,
1001
0000
0000
0000
,
1000
0100
1000
0001
,
1000
0000
0100
0000
,
0010
0001
0010
0001
,
0100
0000
0010
0000
,
0100
0001
0100
0010
,
1000
0000
0100
0000
,
0010
0100
0010
0001
,
0100
0000
0010
0000
,
1000
0100
1000
0001
,
0100
0000
0001
0000
,
0010
0100
0010
0001
,
1000
0000
0010
0000
,
0100
0001
1000
0100
,
0010
0010
0010
0000
,
0001
0001
0100
0100
,
0020
0000
0000
0030
,
1001
0000
1000
0000
,
0001
0000
0100
0000
,
0010
0000
1000
0000
,
0001
0000
0100
0000
,
0001
0000
1000
0000
,
0100
0000
0010
0000
,
0001
0000
1000
0000
,
1001
0000
0100
0100
,
0110
0000
0000
0000
;

//---------------dance-single - ----------------
#NOTES:
     dance-single:
     :
     Medium:
     8:
     0.358,0.431,0.171,0.144,0.018:
0000
0000
0000
0000
,
0000
0000
0000
0000
,
0000
0000
0000
0000
,
0000
0000
0000
0000
,
0000
0000
0000
0000
,
0000
0000
0000
0000
,
1000
0010
1000
0001
,
1000
0010
1000
0001
,
1000
0100
1000
0001
,
2002
0000
0000
3003
,
0101
0200
0010
0000
,
0010
0000
0310
1000
,
1001
0002
0010
0000
,
0010
0000
0013
0100
,
1010
0020
0100
0000
,
0100
0000
0130
0001
,
1001
2000
0100
0000
,
0100
0000
3100
0010
,
0101
0200
0010
0000
,
0010
0000
0310
1000
,
1010
1020
0100
0000
,
0100
0000
0130
0001
,
1001
2001
0100
0000
,
0100
0000
3100
0010
,
0001
0100
0001
0000
1000
0100
1000
0000
,
2002
0000
0000
3003
,
0011
0000
0000
0010
0000
0000
0010
0000
0000
0000
0000
0000
0000
0000
0000
0000
,
1100
0000
0000
0100
0000
0000
0100
0000
0000
0000
0000
0000
0000
0000
0000
0000
,
1001
0000
0000
1000
0000
0000
1000
0000
0000
0000
0000
0000
0000
0000
0000
0000
,
1001
0000
0000
0001
0000
0000
0001
0000
0000
0000
0000
0000
0000
0000
0000
0000
,
1000
0010
0100
0000
0001
0100
0001
0000
,
1000
0100
0010
0000
0100
1000
0100
0000
,
0010
0001
1000
0000
0001
1000
0001
0000
,
0010
0100
1000
0000
0010
0100
0010
0000
,
1000
0001
0010
0000
0001
0010
0001
0000
,
0010
0100
1000
0000
0010
0100
0010
0000
,
0100
0001
0010
0000
0100
1000
0100
0000
,
2002
0000
0000
3003
,
0001
0100
1000
0000
0100
0000
0001
0000
,
1000
0100
0001
0000
0100
0000
1000
0000
,
0001
0010
1000
0000
0010
0000
0001
0000
,
1000
0010
0001
0000
0010
0000
1000
0000
,
0001
1000
0010
0000
1000
0010
0100
0000
,
0001
1000
0100
0000
1000
0100
0010
0000
,
0001
0100
0010
0000
0100
0010
1000
0000
,
0001
0010
0100
0000
0010
0100
1000
0000
,
0100
0010
0100
0000
1000
0001
0010
0000
,
0100
0010
0100
0000
1000
0001
0100
0000
,
0010
1000
0001
0000
1000
0001
0010
0000
,
0100
0010
0001
0000
1000
0010
0100
0000
,
0001
1000
0100
0000
0010
0100
1000
0000
,
0100
1000
0010
0000
0100
0001
0010
0000
,
0100
1000
0100
0000
0010
0100
0010
0000
,
0001
1000
0001
1000
0001
1000
0001
0000
,
0201
0000
0000
0010
0000
0000
0310
0000
,
1000
0001
0100
0001
,
1000
0100
0010
0100
,
1000
0000
0010
0000
0100
0001
1000
0000
,
0100
0010
0100
1000
,
0001
1000
0010
1000
,
0001
0010
0100
0010
,
0110
0000
0000
0000
1000
0001
0100
0001
,
2002
0000
0000
0000
,
0000
0000
0000
0000
,
3003
0000
0000
0000
;

//---------------dance-single - ----------------
#NOTES:
     dance-single:
     :
     Hard:
     11:
     0.436,0.632,0.126,0.144,0.207:
0000
0000
0000
0000
,
0000
0000
0000
0000
,
0000
0000
0000
0000
,
0000
0000
0000
0000
,
0000
0000
0000
0000
,
0000
0000
0000
0000
,
1000
1010
0100
0110
,
1000
1001
0010
0011
,
0100
0110
1000
1001
,
0220
0000
0000
0330
,
0001
0010
0100
0020
0000
0000
0001
0000
,
0000
0000
0001
0000
0000
0031
0100
0010
,
1000
0100
0010
0200
0000
0000
1000
0000
,
0000
1000
0000
1300
,
0010
0100
0001
0200
0000
0000
0010
0000
,
0000
0010
0000
0310
,
1000
0001
0010
0002
0000
0000
0010
0000
,
0000
0010
0000
0013
,
0100
1000
0010
0200
0000
0000
0001
0000
,
0000
0000
0001
0000
0000
0301
1000
0100
,
0010
0001
0100
0002
0000
0000
0100
0000
,
0000
0100
0000
0103
,
0010
1000
0100
0020
0000
0000
0001
0000
,
0000
0001
0000
0031
,
0100
0000
0000
1000
0000
0000
0001
0000
0100
0000
0000
0001
0000
0000
1000
0000
,
0001
0000
0000
0001
0000
0000
0001
0000
1000
0000
0010
0000
0100
0000
0001
0000
,
2000
0000
0000
0010
0000
0000
3010
0000
0000
0000
0000
0000
0000
0100
0001
0010
,
0200
0000
0000
1000
0000
0000
1300
0000
0000
0000
0000
0000
0000
0010
0001
0100
,
0020
0000
0000
0100
0000
0000
0130
0000
0000
0000
0000
0000
0000
0001
0010
0100
,
2000
0000
0000
0010
0000
0000
0010
0000
3010
0000
0000
0000
0100
0001
0010
0100
,
1000
0000
0001
0100
1000
0000
0100
0000
,
0001
0000
1000
0010
0000
1000
0001
0010
,
0100
0000
1000
0001
0000
0100
0010
0000
,
1000
0000
0001
0010
0000
1000
0010
0000
,
0001
0000
0000
1000
0000
0000
0001
0000
0000
0000
0000
0000
0010
0000
0000
0000
,
0100
0000
1000
0010
0000
1000
0001
0010
,
0100
0000
0000
1000
0000
0000
0010
0000
0000
0000
0100
0000
0000
0001
0000
0000
,
1001
0000
0000
0000
0110
0100
0001
0010
,
0100
0000
1000
0000
0000
0010
0000
0000
0001
0000
0000
0010
0000
0000
1000
0000
,
0001
0000
0100
0000
0010
0000
1000
0000
0001
0000
0000
0001
0000
0000
0001
0000
,
1000
0000
0100
0000
1000
0000
0001
0000
0100
0000
0000
0100
0000
0000
0100
0000
,
0001
0000
1000
0000
0000
0010
0000
0000
0001
0000
0000
0010
0000
0000
1000
0000
,
0010
0000
0100
0000
0001
0000
1000
0000
0100
0000
0000
0100
0000
0000
0100
0000
,
0010
0000
0001
0000
0100
0000
0010
0000
1000
0000
0000
1000
0000
0000
1000
0000
,
0001
0000
0100
0000
0010
0000
1000
0000
0100
0000
0000
0100
0000
0000
0100
0000
,
1000
0000
0001
0000
0000
0010
0000
0000
1000
0000
0000
0010
0000
0000
0001
0000
,
1000
0000
0100
0000
1000
0100
0000
0000
0010
0000
0000
0100
0000
0000
1000
0000
,
0001
0000
0100
0000
0001
0100
0000
0000
0010
0000
0000
1000
0000
0000
0001
0000
,
0010
0000
0100
0000
0010
0100
0000
0000
1000
0000
0000
0010
0000
0000
0100
0000
,
0001
0000
1000
0000
0000
0100
0000
0000
0001
0000
0000
0100
0000
0000
1000
0000
,
0001
0000
0001
0000
0001
0000
1000
0001
1000
0000
0010
0000
0100
0000
0001
0000
,
1000
0000
1000
0000
1000
0000
0100
0010
0100
0000
1000
0000
0010
0000
0100
0000
,
0001
0100
0001
0000
1000
0001
1000
0000
0100
0000
0010
0000
0001
0000
1000
0000
,
0010
0100
0010
0000
1000
0001
1000
0000
0010
0000
0100
0000
0001
0000
1000
0000
,
1100
0000
0000
0110
0000
0000
0011
0000
,
0001
1000
0010
0000
1000
0001
0010
0000
,
0001
0010
0100
0000
0010
0001
0010
0000
,
0100
0000
0010
0000
0001
0000
0000
0000
0000
0000
1000
0001
0000
0100
0000
0000
,
0001
1000
0100
0000
0010
0100
1000
0000
,
0010
0100
0001
0000
1000
0001
0100
0000
,
0001
0010
0100
0000
0010
0001
1000
0000
,
2001
0000
0000
0000
0000
0000
0000
0000
3001
0000
0001
0000
0100
0010
1000
0000
,
2020
0000
0000
0000
,
0000
0000
0000
0000
,
3030
0000
0000
0000
;

//---------------dance-single - ----------------
#NOTES:
     dance-single:
     :
     Challenge:
     13:
     0.639,0.920,0.234,0.126,0.647: // measure 1
0000
0000
0000
0000
,  // measure 2
0000
0000
0000
0000
,  // measure 3
0000
0000
0000
0000
,  // measure 4
0000
0000
0000
0000
,  // measure 5
0000
0000
0000
0000
,  // measure 6
0000
0000
0000
0000
,  // measure 7
1000
0000
0000
0001
0100
0000
0000
0000
0001
0000
0000
1000
0100
0000
0000
0000
,  // measure 8
0010
0000
0000
0001
0100
0000
0000
0000
0010
0000
0000
1000
0100
0000
0000
0000
,  // measure 9
0010
0000
0000
0001
1000
0000
0000
0000
0100
0000
0000
0010
0100
0000
0000
0000
,  // measure 10
2002
0000
0000
0000
0000
0000
3003
0000
1000
0000
1000
0000
0001
1000
0001
0000
,  // measure 11
1000
0010
1000
0000
0010
0100
0020
0000
0000
0000
0000
0000
0100
0000
0000
0000
,  // measure 12
0100
0000
0000
0000
0001
0000
0000
0000
0031
0000
1000
0000
0100
0010
0001
0000
,  // measure 13
0100
0010
0100
0000
0001
1000
0002
0000
0000
0000
0000
0000
0100
0000
0000
0000
,  // measure 14
0100
1000
1000
1003
,  // measure 15
0001
1000
0001
0000
1000
0100
2000
0000
0000
0000
0000
0000
0100
0000
0000
0000
,  // measure 16
0100
0001
0001
3001
,  // measure 17
1000
0010
1000
0000
0001
1000
0002
0000
0000
0000
0000
0000
0010
0000
0000
0000
,  // measure 18
0010
0000
1000
0000
1003
0000
0001
1000
,  // measure 19
0001
1000
0001
0000
0100
0010
0200
0000
0000
0000
0000
0000
0010
0000
0000
0000
,  // measure 20
0010
0000
0000
0000
0001
0000
0000
0000
0301
0000
1000
0000
0010
0100
0001
0000
,  // measure 21
1000
0100
1000
0000
0001
1000
0002
0000
0000
0000
0000
0000
0100
0000
0000
0000
,  // measure 22
0100
1000
1000
1003
,  // measure 23
0001
0100
0001
0000
0100
0010
0200
0000
0000
0000
0000
0000
0010
0000
0000
0000
,  // measure 24
0010
0001
0001
0301
,  // measure 25
1000
0010
0000
1000
0000
0000
0001
0000
0010
0001
0000
0010
0000
0000
0100
0000
,  // measure 26
1100
0000
0000
1100
0000
0000
1100
0000
0010
0001
0010
0001
1000
0010
0100
0000
,  // measure 27
1001
0000
0000
1100
0000
0000
0110
0000
0000
0000
0000
0000
0000
0010
0001
0100
,  // measure 28
0110
0000
0000
1010
0000
0000
1001
0000
0000
0000
0000
0000
0000
1000
0100
0010
,  // measure 29
0011
0000
0000
0110
0000
0000
1100
0000
0000
0000
0000
0000
0000
0100
1000
0001
,  // measure 30
0101
0000
0000
1010
0000
0000
1001
0000
0110
0000
0000
0000
1000
0001
0010
0100
,  // measure 31
1000
0001
0100
0101
0000
0001
1000
0100
,  // measure 32
0010
0100
1000
1001
0000
0001
0100
0010
,  // measure 33
0100
0001
1000
1100
0000
0100
0010
0001
,  // measure 34
1000
0000
0010
0000
1000
0000
1001
0000
0000
0000
0001
0000
0100
0010
0000
1000
,  // measure 35
0100
0000
0000
0010
0000
0000
0011
0000
0000
0000
0000
0000
0001
0000
1000
0000
,  // measure 36
0001
0000
0010
0000
0000
0000
0110
0000
0000
0000
0100
0000
1000
0001
0000
0100
,  // measure 37
0001
0000
0000
1000
0000
0000
1001
0000
0000
0000
0001
0000
0010
0100
0000
1000
,  // measure 38
0001
0000
0100
0000
0010
0000
0100
0000
0001
1000
0001
0000
1000
0001
1000
0000
,  // measure 39
0001
0000
0100
0000
0010
1000
0000
0100
0010
0000
0100
0010
0000
0001
0100
0000
,  // measure 40
0010
0000
1000
0000
0001
0010
0000
0100
0010
0000
0100
0010
0000
0100
1000
0000
,  // measure 41
0010
0000
0100
0000
0001
1000
0000
0100
1000
0000
0100
1000
0000
0001
1000
0000
,  // measure 42
0100
0000
0010
0001
0000
0001
0010
0000
0010
0100
0000
0100
1000
0000
0001
0000
,  // measure 43
0100
0000
0001
0000
1000
0001
0000
1000
0010
0000
1000
0010
0000
1000
0001
0000
,  // measure 44
0010
0000
0100
0000
1000
0010
0000
0100
0010
0000
0100
0010
0000
0100
0001
0000
,  // measure 45
1000
0000
0100
0000
0010
0100
0000
1000
0010
0000
0100
0001
0000
0010
0100
0000
,  // measure 46
1000
0000
0100
1000
0000
1000
0010
0000
0010
0100
0000
0100
0001
0000
0010
0000
,  // measure 47
0100
1000
0100
0000
1000
0001
0000
0010
0001
0000
0100
0010
0000
1000
0100
0000
,  // measure 48
0010
0001
0010
0000
0100
1000
0000
0010
0100
0000
0001
0010
0000
0100
0010
0000
,  // measure 49
0001
1000
0001
0000
1000
0010
0000
0100
0010
0000
0100
0001
0000
1000
0001
0000
,  // measure 50
0010
0000
0100
1000
0000
1000
0010
0000
0010
0100
0000
0100
0001
0000
1000
0000
,  // measure 51
0100
0010
0001
0000
1000
0010
0000
0010
0100
0000
0010
0100
0000
0100
0001
0000
,  // measure 52
0010
0100
1000
0000
0001
0100
0000
0100
0010
0000
0100
0010
0000
0010
1000
0000
,  // measure 53
0001
0010
0001
0010
0001
0010
0001
0010
0001
1000
0001
1000
0001
1000
0001
0000
,  // measure 54
0100
0001
0100
0001
0100
0001
0100
0001
0100
0001
1000
0001
1000
0001
1000
0000
,  // measure 55
1002
0000
0010
0023
0000
0100
0130
0000
,  // measure 56
1000
0010
1000
0010
0100
0001
0100
0001
,  // measure 57
0010
0100
0010
0100
1000
0001
1000
0001
,  // measure 58
1000
0000
0100
0000
1000
0000
0100
0000
0010
0000
0001
1000
0000
0001
0000
0000
,  // measure 59
1000
0010
1000
0000
0001
1000
0001
0000
0010
0001
0010
0000
0001
1000
0001
0000
,  // measure 60
0100
0001
0100
0000
0001
1000
0001
0000
1000
0100
1000
0000
0001
1000
0001
0000
,  // measure 61
0010
0100
0010
0000
0100
1000
0100
0000
1000
0010
1000
0000
0001
0100
0001
0000
,  // measure 62
2002
0000
0000
0000
0000
0000
3003
0000
1000
0000
1000
0000
0100
0010
0001
1000
,  // measure 63
0020
0000
0000
0000
,  // measure 64
0000
0000
0000
0000
,  // measure 65
0030
0000
0000
0000
;

//---------------dance-single - ----------------
#NOTES:
     dance-single:
     :
     Beginner:
     1:
     0.072,0.167,0.054,0.000,0.000:
0000
0000
0000
0000
,
0000
0000
0000
0000
,
0000
0000
0000
0000
,
0000
0000
0000
0000
,
0000
0000
0000
0000
,
0000
0000
0000
0000
,
0000
0000
0000
0000
,
0000
0000
0000
0000
,
0000
0000
0000
0000
,
0000
0000
0000
0000
,
1000
0000
0000
0000
,
0000
0000
0000
0000
,
0010
0000
0000
0000
,
0000
0000
0000
0000
,
0100
0000
0000
0000
,
0000
0000
0000
0000
,
0001
0000
0000
0000
,
0000
0000
0000
0000
,
1000
0000
0000
0000
,
0001
0000
0000
0000
,
1000
0000
0000
0000
,
0001
0000
0000
0000
,
1000
0000
0000
0000
,
0100
0000
0000
0000
,
1000
0000
0000
0000
,
1001
0000
0000
0000
,
0001
0000
0000
0000
,
0010
0000
0000
0000
,
0100
0000
0000
0000
,
0010
0000
0000
0000
,
1001
0000
0000
0000
,
0000
0000
0000
0000
,
1000
0000
0000
0000
,
0000
0000
0000
0000
,
0010
0000
0000
0000
,
0000
0000
0000
0000
,
0100
0000
0000
0000
,
0110
0000
0000
0000
,
0001
0000
0000
0000
,
0010
0000
0000
0000
,
0001
0000
0000
0000
,
0100
0000
0000
0000
,
0010
0000
0000
0000
,
1000
0000
0000
0000
,
0100
0000
0000
0000
,
1000
0000
0000
0000
,
0001
0000
0000
0000
,
0100
0000
0000
0000
,
0010
0000
0000
0000
,
1000
0000
0000
0000
,
0001
0000
0001
0000
,
1000
0000
1000
0000
,
0001
0000
0001
0000
,
1000
0000
1000
0000
,
1001
0000
0000
0000
,
0001
0000
0000
0000
,
0100
0000
0000
0000
,
0010
0000
0000
0000
,
1000
0000
0000
0000
,
0010
0000
0000
0000
,
0100
0000
0000
0000
,
1001
0000
0000
0000
,
1001
0000
0000
0000
;
