#TITLE:Digital MinD;
#SUBTITLE:(A/T Libra mix);
#ARTIST:TaQ;
#TITLETRANSLIT:;
#SUBTITLETRANSLIT:;
#ARTISTTRANSLIT:;
#CREDIT:DigiMindAxel;
#BANNER:Digital MinD (AT Libra mix).png;
#BACKGROUND:Digital MinD (AT Libra mix)-bg.png;
#LYRICSPATH:;
#CDTITLE:beatmania IIDX.png;
#MUSIC:Digital MinD (AT Libra mix).ogg;
#METERTYPE:DDR X;
#OFFSET:-0.542;
#SAMPLESTART:29.930;
#SAMPLELENGTH:12.000;
#SELECTABLE:YES;
#BPMS:0.000=155.000;
#STOPS:;
#BGCHANGES:0.000=Digital MinD (AT Libra mix).avi=1.000=1=1=0,
99999=-nosongbg-=1.000=0=0=0 // don't automatically add -songbackground-
;

//---------------dance-single - ----------------
#NOTES:
     dance-single:
     :
     Easy:
     3:
     0.165,0.312,0.010,0.138,0.000: // measure 1
0000
0000
0000
0000
,  // measure 2
0000
0000
0000
0000
,  // measure 3
0000
0000
0000
0000
,  // measure 4
0000
0000
0000
0000
,  // measure 5
0000
0000
0000
0000
,  // measure 6
1000
0000
0001
0000
,  // measure 7
1000
0000
0001
0000
,  // measure 8
1000
0000
0100
0000
,  // measure 9
1000
0000
0100
0000
,  // measure 10
0020
0000
0000
0000
,  // measure 11
0000
0000
0000
0030
,  // measure 12
0001
0000
0100
0000
,  // measure 13
0001
0000
1000
0000
,  // measure 14
0001
0000
0100
0000
,  // measure 15
0001
0000
1000
0000
,  // measure 16
0100
0000
0010
0000
,  // measure 17
0100
0000
1000
0000
,  // measure 18
0100
0000
0010
0000
,  // measure 19
0002
0000
0000
0000
,  // measure 20
1003
0000
0001
0000
,  // measure 21
0100
0000
0001
0000
,  // measure 22
1000
0000
0001
0000
,  // measure 23
0100
0000
0001
0000
,  // measure 24
1000
0000
0100
0000
,  // measure 25
0010
0000
0001
0000
,  // measure 26
0010
0000
0100
0000
,  // measure 27
1000
0000
0001
0000
,  // measure 28
2000
0000
0000
0000
,  // measure 29
0000
0000
0000
3000
,  // measure 30
0002
0000
0000
0000
,  // measure 31
0000
0000
0000
0003
,  // measure 32
0010
0000
0100
0000
,  // measure 33
0010
0000
0100
0000
,  // measure 34
1000
0000
0010
0000
,  // measure 35
0100
0000
0001
0000
,  // measure 36
1000
0000
0000
0000
,  // measure 37
0000
0000
0000
0000
,  // measure 38
0000
1000
0000
0000
,  // measure 39
0000
0000
0000
0000
,  // measure 40
1001
0000
0010
0000
,  // measure 41
0100
0000
1000
0000
,  // measure 42
0001
0000
0010
0000
,  // measure 43
0100
0000
1000
0000
,  // measure 44
0001
0000
1000
0000
,  // measure 45
0100
0000
1000
0000
,  // measure 46
0001
0000
1000
0000
,  // measure 47
0100
0000
1000
0000
,  // measure 48
0002
0003
2000
3000
,  // measure 49
0002
0003
2000
3000
,  // measure 50
0002
0003
2000
3000
,  // measure 51
0002
2003
3002
0003
,  // measure 52
0100
0000
0001
0100
,  // measure 53
0001
0000
1000
0100
,  // measure 54
1000
0000
0010
0100
,  // measure 55
0010
0000
1000
0001
,  // measure 56
1000
0000
0100
0000
,  // measure 57
0010
0000
0001
0000
,  // measure 58
0100
0010
0100
0000
,  // measure 59
0001
1000
0001
1000
,  // measure 60
0200
0000
0000
0000
,  // measure 61
0000
0000
0000
0000
,  // measure 62
0000
0000
0000
0000
,  // measure 63
0300
0000
0000
0000
,  // measure 64
0000
0010
0000
0000
;

//---------------dance-single - ----------------
#NOTES:
     dance-single:
     :
     Medium:
     8:
     0.399,0.437,0.168,0.118,0.000: // measure 1
0000
0000
0000
0000
,  // measure 2
0000
0000
0000
0000
,  // measure 3
0000
0000
0000
0000
,  // measure 4
0000
0000
0000
0000
,  // measure 5
0000
0000
0000
0000
,  // measure 6
1000
0001
1000
0001
,  // measure 7
1000
0100
1000
0100
,  // measure 8
0010
0100
0010
0100
,  // measure 9
0010
0001
0010
0001
,  // measure 10
0100
0000
0100
0000
0100
0100
0000
0100
,  // measure 11
0000
0000
0000
0110
,  // measure 12
0010
0000
1000
0000
0001
0100
0001
0000
,  // measure 13
1000
0000
0010
0000
0100
0010
0100
0000
,  // measure 14
0001
0000
1000
0000
0100
1000
0100
0000
,  // measure 15
0010
0000
0001
0000
0100
0010
0100
0000
,  // measure 16
0001
0000
1000
0000
0010
1000
0010
0000
,  // measure 17
1000
0000
0001
0000
0010
0001
0010
0000
,  // measure 18
0001
0000
1000
0000
0100
1000
0100
0000
,  // measure 19
1000
0001
1000
0001
1000
0001
1000
0000
,  // measure 20
0001
0100
0001
0000
1001
0000
0100
0000
,  // measure 21
0010
0001
0010
0000
1001
0000
0001
0000
,  // measure 22
0100
0010
0100
0000
1001
0000
1000
0000
,  // measure 23
0100
0010
0100
0000
1001
0000
0001
0000
,  // measure 24
0100
0001
0100
0000
1001
0000
0001
0000
,  // measure 25
0010
0001
0010
0000
0110
0000
0100
0000
,  // measure 26
1000
0010
1000
0000
0110
0000
0010
0000
,  // measure 27
0100
0001
0100
0000
1001
0000
0001
0000
,  // measure 28
1000
2200
0000
3300
,  // measure 29
0010
0100
0010
0110
,  // measure 30
0001
0022
0000
0033
,  // measure 31
0100
0010
0100
0110
,  // measure 32
0010
1000
0001
0010
0100
0000
1000
0000
,  // measure 33
0100
1000
0001
0010
0100
0000
0010
0000
,  // measure 34
0001
1000
0100
0010
0001
0000
0100
0000
,  // measure 35
0001
1000
0010
0100
0001
0000
1000
0000
,  // measure 36
0001
2002
0000
0000
,  // measure 37
0000
0000
0000
0000
,  // measure 38
3003
2002
0000
0000
,  // measure 39
0000
0000
0000
3003
,  // measure 40
1001
0010
0100
1000
,  // measure 41
0001
0010
0100
1000
,  // measure 42
0001
0100
0010
0100
,  // measure 43
0001
0100
0010
0100
,  // measure 44
0001
1000
0001
0000
0010
0000
0100
0000
,  // measure 45
1000
0001
1000
0000
0010
0000
0100
0000
,  // measure 46
0001
1000
0001
0000
0100
0000
0010
0000
,  // measure 47
1000
0001
1000
0000
0002
0000
1003
0000
,  // measure 48
0100
1000
0100
0000
0010
0100
0010
0000
,  // measure 49
0001
0010
0001
0000
1000
0010
1000
0000
,  // measure 50
0010
0100
0010
0000
0100
0001
0100
0000
,  // measure 51
0001
1000
0001
1000
0002
0000
0000
0000
,  // measure 52
0103
0001
0000
1000
0010
0100
0010
0000
,  // measure 53
1000
0100
0000
0010
0001
1000
0001
0000
,  // measure 54
0010
0100
0000
1000
0001
0010
0001
0000
,  // measure 55
0100
0001
0000
1000
0010
0100
0010
0000
,  // measure 56
1000
0001
0000
0100
0001
0010
0000
0100
,  // measure 57
1000
0001
0000
0010
0100
1000
0000
0001
,  // measure 58
0100
0010
0000
1000
0001
0010
0000
0100
,  // measure 59
1000
0001
0100
0010
0100
0010
0100
0000
,  // measure 60
0100
2002
0000
0000
,  // measure 61
0000
0000
0000
0000
,  // measure 62
0000
0000
0000
0000
,  // measure 63
0000
3003
0000
0000
,  // measure 64
0000
0010
0000
0000
;

//---------------dance-single - ----------------
#NOTES:
     dance-single:
     :
     Hard:
     11:
     0.534,0.593,0.089,0.148,0.217:
0000
0000
0000
0000
,
0000
0000
0000
0000
,
0000
0000
0000
0000
,
0000
0000
0000
0000
,
0000
0000
0000
0000
,
0100
0000
0000
0000
0001
0000
0100
0001
0000
0000
0000
0000
1000
0000
0100
1000
,
0000
0000
0000
0000
0010
0000
0100
0010
0000
0000
0000
0000
1000
0000
0001
1000
,
0000
0000
0000
0000
0001
0000
0010
0001
0000
0000
0000
0000
0010
0000
0100
0010
,
0000
0000
0000
0000
0100
0000
1000
0100
0000
0000
0000
0000
1000
0000
0001
1000
,
0002
0000
0100
0000
0100
0100
0000
1000
,
0000
1000
0000
1000
1003
0000
1001
0000
,
0001
0000
0100
0000
0001
0000
1000
0100
0000
0000
0100
0000
1000
0000
0010
0100
,
0000
0000
0001
0000
0100
0000
0001
1000
0000
0000
1000
0000
0010
0000
1000
0001
,
0000
0000
0001
0000
0010
0000
0001
0100
0000
0000
0100
0000
0010
0000
1000
0100
,
0000
0000
0100
0000
1000
0000
0001
0100
0000
0000
0100
0000
0010
0000
1000
0100
,
0000
0000
0100
0000
0010
0000
0001
0100
0000
0000
0100
0000
0010
0000
1000
0100
,
0000
0000
0100
0000
0010
0000
0001
0100
0000
0000
0100
0000
0010
0000
1000
0100
,
0000
0000
0100
0000
0010
0000
0001
1000
0000
0000
1000
0000
0010
0000
1000
0001
,
1000
0100
0010
0001
1000
0100
0010
0000
,
0001
0000
1000
0000
0100
0000
1000
0001
1000
0000
0000
0000
0010
0000
1000
0010
,
1000
0000
0100
0000
0010
0000
0001
1000
0001
0000
0000
0000
0100
0000
0001
1000
,
0001
0000
1000
0000
0010
0000
0100
0010
0100
0000
0000
0000
0001
0000
1000
0100
,
1000
0000
0001
0000
0100
0000
0001
1000
0001
0000
0000
0000
0010
0000
0100
1000
,
0100
0000
1000
0000
0010
0000
0100
0001
0100
0000
0000
0000
0001
0000
0100
0010
,
0100
0000
0001
0000
1000
0000
0100
1000
0100
0000
0000
0000
0010
0000
0001
0100
,
0001
0000
0010
0000
0100
0000
1000
0010
1000
0000
0000
0000
0001
0000
1000
0100
,
1000
0000
0001
0000
0100
0000
0010
0100
0010
0000
0000
0000
1001
0000
0000
0000
,
0001
0100
0120
0000
0000
0100
0000
0000
,
0130
0001
0010
0000
0100
1000
0001
0000
,
0101
0000
0210
0000
0000
0010
0000
0000
,
0310
1000
0001
0000
0010
0100
1000
0000
,
0001
0000
0100
0000
0001
0000
1000
0100
1000
0000
0000
0000
0001
0000
0100
0010
,
0100
0000
0001
0000
1000
0000
0100
0010
0100
0000
0000
0000
1000
0000
0001
0100
,
0001
0000
0010
0000
0100
0000
1000
0001
1000
0000
0000
0000
0010
0000
0100
0001
,
0100
0000
0001
0000
1000
0000
0100
1000
0100
0000
0010
0000
0001
0000
0000
0000
,
0100
2002
0000
0000
,
0000
0000
0000
0000
,
3003
2002
0000
0000
,
0000
0000
0000
3003
,
1001
0000
1000
0000
0100
0010
0001
0010
,
0100
0000
0100
0000
1000
0001
0100
0001
,
1000
0000
1000
0000
0100
0010
0001
0010
,
0100
0000
0100
0000
0010
0001
0100
0010
,
2000
0001
3001
0000
0100
0000
0010
0000
,
2000
0001
3001
0000
0010
0000
0100
0000
,
2000
0001
3001
0000
0100
0000
0010
0000
,
2000
0001
3001
0000
0200
0000
0310
0000
,
1000
0100
0001
1000
0001
0100
1000
0001
,
1000
0010
0001
1000
0001
0010
1000
0001
,
1000
0010
0000
0010
0000
0100
0000
0100
,
0000
0010
0100
0010
2000
0000
0000
0000
,
3001
0001
1000
0100
0001
0001
0100
1000
,
0010
0010
1000
0100
0001
0001
0100
1000
,
0001
0001
1000
0010
0001
0001
0010
1000
,
0001
0001
1000
0010
0001
0001
0010
1000
,
0100
0001
0000
1000
0010
0001
0000
1000
,
0100
0001
0000
1000
0010
0001
0000
1000
,
0001
0100
0000
1000
0001
0010
0000
1000
,
0001
0100
0010
1000
0100
0010
0001
1000
,
0010
2002
0000
0000
,
0000
0000
0000
0000
,
0000
0000
0000
0000
,
0000
3003
0000
0000
,
0000
1000
0000
0000
;

//---------------dance-single - ----------------
#NOTES:
     dance-single:
     :
     Challenge:
     13:
     0.707,0.780,0.118,0.286,0.350:
0000
0000
0000
0000
,
0000
0000
0000
0000
,
0000
0000
0000
0000
,
0000
0000
0000
0000
,
0000
0000
0000
0000
,
0001
0000
0100
0000
0001
0100
0001
0000
1000
0000
0001
0000
1000
0100
1000
0000
,
0001
0000
0100
0000
0010
0100
0010
0000
1000
0000
0001
0000
0010
0100
0010
0000
,
0001
0000
0100
0000
0010
1000
0010
0000
1000
0000
0001
0000
1000
0001
1000
0000
,
0100
0000
1000
0000
0001
0100
0001
0000
1000
0000
0001
0000
1000
0100
1000
0000
,
0001
0100
0001
0000
1000
0100
0000
0010
,
0000
0000
0010
0000
0000
0000
0001
0000
0100
0000
0010
0000
1000
0001
0000
0000
,
0010
0000
0100
0000
1000
0000
0001
0100
0010
0000
0100
0000
0001
0000
0010
0100
,
1000
0000
0001
0000
1000
0000
0010
0100
0001
0000
0100
0000
0001
0000
0010
0100
,
1000
0000
0010
0000
1000
0000
0100
0010
0001
0000
1000
0000
0100
0000
1000
0001
,
0100
0000
0001
0000
0010
0000
0100
1000
0010
0000
0100
0000
0001
0000
0010
0100
,
1000
0000
0001
0000
1000
0000
0010
0100
0001
0000
0100
0000
0010
0000
0100
0001
,
0010
0000
0100
0000
1000
0000
0001
0100
0010
0000
0100
0000
0001
0000
0010
0100
,
1000
0000
0001
0000
1000
0000
0010
0100
0001
0000
0100
0000
0001
0000
0010
0100
,
1000
1000
0001
0001
0100
0100
0010
0010
,
1000
0000
0100
0000
0010
0000
0001
0100
0010
0000
0100
0000
0001
0100
0001
0000
,
1000
0001
1000
0000
0100
0000
0010
0001
0100
0000
0001
0000
1000
0100
1000
0000
,
0001
1000
0001
0000
0010
0000
0100
1000
0001
0000
0100
0000
0010
0100
0010
0000
,
1000
0001
1000
0000
0001
0000
0100
0001
0010
0000
0100
0000
1000
0001
1000
0000
,
0001
0100
0001
0000
1000
0000
0100
0010
0001
0000
0100
0000
0010
0100
0010
0000
,
1000
0001
1000
0000
0100
0000
0010
0000
0001
0100
0000
0100
0000
0100
0000
0100
,
0001
0000
1000
0000
0100
0000
0010
0100
1000
0000
0001
0000
0100
0001
0100
0000
,
0001
1000
0001
0000
0010
0000
0100
1000
0010
0000
0100
0000
0110
0000
0000
0000
,
0010
0000
0001
0000
0100
0000
0010
0000
1000
0000
0100
0000
0010
0000
0001
1000
,
0001
0100
1000
0100
0001
0100
0110
0000
,
0010
0000
1000
0000
0100
0000
0010
0000
0001
0000
0100
0000
0001
0000
1000
0001
,
1000
0010
0001
0010
1000
0001
0101
0000
,
0010
0000
0001
0000
1000
0000
0100
0010
0100
0000
1000
0000
0010
0100
0001
0000
,
1000
0100
1000
0000
0100
0000
0010
0001
0010
0000
0001
0000
0100
0010
1000
0000
,
0100
0010
0100
0000
1000
0000
0001
0010
0100
0000
1000
0000
0001
0100
0010
0000
,
0100
0010
0100
0000
0001
0000
1000
0100
0010
0000
0100
0000
1000
0000
0001
0000
,
0100
1002
0200
0300
,
2000
3000
0200
0300
,
1003
2001
0200
0300
,
0002
0003
0200
0300
,
3001
0100
0001
0000
1000
0100
0010
0100
,
1000
0001
0001
0000
0100
0001
0010
0001
,
1000
0100
0100
0000
1000
0001
0010
0100
,
0010
0001
0001
0000
0100
0010
1000
0100
,
0020
0001
0031
0000
1000
0100
0010
0100
,
2000
0001
3001
0000
0010
0001
0100
0010
,
2000
0100
3100
0000
0010
0100
1000
0001
,
0200
0010
0310
0000
2000
0000
3001
1000
,
0002
0010
0013
0100
2000
0010
3010
0100
,
0002
0010
0013
0100
2000
0001
3001
0010
,
0100
1100
0000
1001
0000
0101
0000
0110
,
0100
0001
0010
0100
1000
0001
0100
0001
,
2000
0000
0100
0000
3100
0000
0010
0001
2000
0000
0100
0000
3100
0000
0010
0000
,
0002
0000
0010
0000
0013
0000
0100
1000
0020
0000
0100
0000
0130
0000
0001
1000
,
0020
0000
0100
0000
0130
0000
0001
0010
0200
0000
1000
0000
1300
0000
0010
0001
,
2000
0000
0100
0000
3100
0000
0010
0001
0200
0000
0010
0000
0310
0000
1000
0100
,
0010
0000
0010
0000
0001
0000
0010
0100
1000
0000
1000
0000
0010
0000
0100
0001
,
0010
0000
0010
0000
0100
0000
1000
0001
0010
0000
0010
0000
0100
0000
1000
0100
,
0002
0000
0100
0000
0103
0000
1000
0010
0002
0000
0010
0000
0013
0000
1000
0010
,
0100
0110
0001
0011
0100
1000
0001
0010
,
0100
0220
0000
0000
,
0000
0000
0000
0000
,
0000
0000
0000
0000
,
0000
0330
0000
0000
,
0000
0001
0000
0000
;

//---------------dance-double - ----------------
#NOTES:
     dance-double:
     :
     Easy:
     5:
     0.183,0.312,0.010,0.197,0.000:
00000000
00000000
00000000
00000000
,
00000000
00000000
00000000
00000000
,
00000000
00000000
00000000
00000000
,
00000000
00000000
00000000
00000000
,
00000000
00000000
00000000
00000000
,
10000000
00000000
00010000
00000000
,
10000000
00000000
00010000
00000000
,
01000000
00000000
00001000
00000000
,
01000000
00000000
00001000
00000000
,
00020000
00000000
00000000
00000000
,
00000000
00000000
00000000
00030000
,
00002000
00000000
00013000
00000000
,
00000020
00000000
00000130
00000000
,
00000002
00000000
00000013
00000000
,
00000200
00000000
00010300
00000000
,
00001000
00000000
00100000
00000000
,
00001000
00000000
00100000
00000000
,
01000000
00000000
10000000
00000000
,
00020000
00000000
00000000
00000000
,
10030000
00000000
00100000
00000000
,
10000000
00000000
00100000
00000000
,
01000000
00000000
00001000
00000000
,
00010000
00000000
00000010
00000000
,
00010000
00000000
00000010
00000000
,
00000100
00000000
00000001
00000000
,
00000010
00000000
00000100
00000000
,
00010000
00000000
00001000
00000000
,
02000000
00200000
00000000
00000000
,
00000000
00000000
00000000
03300000
,
00200000
02000000
00000000
00000000
,
00000000
00000000
00000000
03300000
,
00100000
10000000
00100000
00000000
,
10000000
00010000
10000000
00000000
,
00001000
00100000
00001000
00000000
,
00010000
00001000
00010000
00001000
,
00010000
00000000
00000000
00000000
,
00000000
00000000
00000000
00000000
,
00000000
00000010
00000000
00000000
,
00000000
00000000
00000000
00000000
,
00000110
00000000
00000100
00000000
,
00000001
00000000
00000100
00000000
,
00000010
00000000
00010000
00000000
,
00001000
00000000
00010000
00000000
,
00000100
00000000
00010000
00000000
,
00001000
00000000
00010000
00000000
,
00100000
00000000
01000000
00000000
,
10000000
00000000
00010000
00000000
,
20000000
30000000
02000000
03000000
,
20000000
30000000
02000000
03000000
,
00200000
00300000
00002000
00003000
,
00020000
00032000
00023000
00030000
,
00000010
00000000
00000100
00000010
,
00000100
00000000
00000001
00000100
,
00000001
00000000
00010000
00000100
,
00010000
00000000
00001000
00010000
,
00001000
00000000
00100000
00000000
,
01000000
00000000
10000000
00000000
,
00010000
10000000
00010000
00000000
,
00100000
01000000
00100000
01000000
,
20000000
00000000
00000000
00000000
,
00000000
00000000
00000000
00000000
,
00000000
00000000
00000000
00000000
,
30000000
00000000
00000000
00000000
,
00000000
00001000
00000000
00000000
;

//---------------dance-double - ----------------
#NOTES:
     dance-double:
     :
     Medium:
     8:
     0.397,0.406,0.148,0.128,0.000:
00000000
00000000
00000000
00000000
,
00000000
00000000
00000000
00000000
,
00000000
00000000
00000000
00000000
,
00000000
00000000
00000000
00000000
,
00000000
00000000
00000000
00000000
,
00100000
01000000
00100000
01000000
,
10000000
00100000
10000000
00100000
,
01000000
00001000
01000000
00001000
,
00100000
00001000
00100000
00001000
,
00020000
00000000
00000100
00000000
00000100
00000100
00000000
00000100
,
00000000
00000000
00000000
00030001
,
00000100
00000000
00000001
00000000
00000010
00000100
00000010
00000000
,
00000001
00000000
00000100
00000000
00000010
00000100
00000010
00000000
,
00010000
00000000
00001000
00000000
00100000
01000000
00100000
00000000
,
00001000
00000000
10000000
00000000
01000000
00100000
01000000
00000000
,
10000000
00000000
00100000
00000000
01000000
00100000
01000000
00000000
,
00100000
00000000
10000000
00000000
01000000
00100000
01000000
00000000
,
10000000
00000000
00100000
00000000
01000000
00010000
01000000
00000000
,
00001000
00010000
00001000
00010000
00001000
00010000
00001000
00000000
,
00010000
00000010
00010000
00000000
00000010
00000000
00000100
00000000
,
00000001
00000100
00000001
00000000
00001001
00000000
00001000
00000000
,
00000010
00000100
00000010
00000000
00011000
00000000
00001000
00000000
,
01000000
00100000
01000000
00000000
10010000
00000000
10000000
00000000
,
01000000
00100000
01000000
00000000
10010000
00000000
00010000
00000000
,
00100000
00010000
00100000
00000000
00011000
00000000
00001000
00000000
,
00010000
00000010
00010000
00000000
00000110
00000000
00000100
00000000
,
00000001
00000100
00000001
00000000
00001001
00000000
00001000
00000000
,
00000010
00022000
00000000
00033000
,
00100000
01000000
00100000
01100000
,
10000000
22000000
00000000
33000000
,
00001000
00010000
00001000
00011000
,
00010000
00000010
00000100
00000010
00010000
00000000
00000001
00000000
,
00000010
00000001
00000100
00000010
00000100
00000000
00000001
00000000
,
00000010
00000100
00010000
00000100
00000010
00000000
00000100
00000000
,
00010000
00001000
00100000
01000000
00100000
00000000
00001000
00000000
,
01000000
20020000
00000000
00000000
,
00000000
00000000
00000000
00000000
,
30030000
20020000
00000000
00000000
,
00000000
00000000
00000000
30030000
,
10010000
00100000
01000000
10000000
,
01000000
00100000
00010000
00001000
,
00000100
00000010
00000001
00001000
,
00000001
00000100
00000010
00010000
,
00001000
00010000
00001000
00000000
00100000
00000000
01000000
00000000
,
10000000
00010000
10000000
00000000
00100000
00000000
01000000
00000000
,
00001000
00010000
00001000
00000000
00010000
00000000
00000010
00000000
,
00000100
00000010
00000100
00000000
00000002
00000000
00001003
00000000
,
00000001
00000010
00000001
00000000
00000100
00000010
00000100
00000000
,
00000010
00010000
00000010
00000000
00010000
00001000
00010000
00000000
,
00001000
01000000
00001000
00000000
10000000
01000000
10000000
00000000
,
00010000
10000000
00010000
10000000
00020000
00000000
00000000
00000000
,
01030000
00010000
00000000
10000000
01000000
10000000
00000000
00100000
,
10000000
01000000
00000000
00100000
00001000
00100000
00000000
00010000
,
00001000
00000100
00000000
00000010
00000100
00000010
00000000
00000100
,
00000001
00000010
00000000
00000100
00010000
00000100
00000000
00010000
,
00001000
00100000
00000000
01000000
10000000
01000000
00000000
00100000
,
01000000
10000000
00000000
00100000
01000000
00100000
00000000
01000000
,
00001000
00100000
00000000
00001000
00010000
00000010
00000000
00000100
,
00000001
00000010
00000100
00010000
00000100
00010000
00000100
00000000
,
00000100
00002002
00000000
00000000
,
00000000
00000000
00000000
00000000
,
00000000
00000000
00000000
00000000
,
00000000
00003003
00000000
00000000
,
00000000
01000000
00000000
00000000
;

//---------------dance-double - ----------------
#NOTES:
     dance-double:
     :
     Hard:
     11:
     0.517,0.593,0.069,0.148,0.217:
00000000
00000000
00000000
00000000
,
00000000
00000000
00000000
00000000
,
00000000
00000000
00000000
00000000
,
00000000
00000000
00000000
00000000
,
00000000
00000000
00000000
00000000
,
00000000
00000000
00000000
00000000
00000000
00000000
00010000
00100000
00000000
00000000
00000000
00000000
00000000
00000000
01000000
00100000
,
00000000
00000000
00000000
00000000
00000000
00000000
00001000
00100000
00000000
00000000
00000000
00000000
00000000
00000000
00010000
00001000
,
00000000
00000000
00000000
00000000
00000000
00000000
00000010
00000100
00000000
00000000
00000000
00000000
00000000
00000000
00001000
00000010
,
00000000
00000000
00000000
00000000
00000000
00000000
00001000
00000001
00000000
00000000
00000000
00000000
00000000
00000000
00000010
00000100
,
00000020
00000000
00000100
00000000
00000100
00000100
00000000
00001000
,
00000000
00001000
00000000
00001000
00001030
00000000
00001001
00000000
,
00000001
00000000
00000100
00000000
00000001
00000000
00010000
00001000
00000000
00000000
00100000
00000000
01000000
00000000
00100000
00010000
,
00000000
00000000
10000000
00000000
00100000
00000000
10000000
01000000
00000000
00000000
00100000
00000000
00010000
00000000
00001000
00010000
,
00000000
00000000
00001000
00000000
00000010
00000000
00001000
00000001
00000000
00000000
00000010
00000000
00000001
00000000
00000100
00000010
,
00000000
00000000
00001000
00000000
00010000
00000000
00001000
00100000
00000000
00000000
01000000
00000000
10000000
00000000
01000000
00100000
,
00000000
00000000
00001000
00000000
00010000
00000000
00000010
00000100
00000000
00000000
00000001
00000000
00000010
00000000
00000001
00000100
,
00000000
00000000
00000010
00000000
00010000
00000000
00001000
00010000
00000000
00000000
00001000
00000000
01000000
00000000
00001000
10000000
,
00000000
00000000
01000000
00000000
00100000
00000000
01000000
10000000
00000000
00000000
00010000
00000000
01000000
00000000
00100000
01000000
,
00100000
10000000
01000000
00100000
01000000
10000000
00001000
00000000
,
00010000
00000000
00001000
00000000
00010000
00000000
00000010
00001000
00000010
00000000
00000000
00000000
00000100
00000000
00000001
00000010
,
00000001
00000000
00000010
00000000
00000100
00000000
00010000
00001000
00010000
00000000
00000000
00000000
00001000
00000000
00100000
01000000
,
00100000
00000000
01000000
00000000
10000000
00000000
00010000
10000000
00010000
00000000
00000000
00000000
01000000
00000000
00100000
01000000
,
00100000
00000000
10000000
00000000
01000000
00000000
00100000
00001000
00100000
00000000
00000000
00000000
00001000
00000000
00010000
00000100
,
00010000
00000000
00000100
00000000
00000010
00000000
00000001
00000100
00000001
00000000
00000000
00000000
00010000
00000000
00000010
00010000
,
00000010
00000000
00001000
00000000
00010000
00000000
00100000
01000000
00100000
00000000
00000000
00000000
00001000
00000000
00100000
00001000
,
00100000
00000000
01000000
00000000
10000000
00000000
00010000
01000000
00010000
00000000
00000000
00000000
10000000
00000000
01000000
10000000
,
01000000
00000000
00100000
00000000
00001000
00000000
00010000
00001000
00010000
00000000
00000000
00000000
00011000
00000000
00000000
00000000
,
00000010
00000010
00000200
00000000
00000000
00000000
00000000
00000000
,
00000310
00000100
00000001
00000000
00000010
00000100
00010000
00000000
,
00001000
00001000
02000000
00000000
00000000
00000000
00000000
00000000
,
03100000
10000000
01000000
00000000
10000000
01000000
00100000
00000000
,
00001000
00000000
00010000
00000000
00001000
00000000
01000000
00010000
01000000
00000000
00000000
00000000
00100000
00000000
10000000
01000000
,
10000000
00000000
00100000
00000000
01000000
00000000
00001000
01000000
00001000
00000000
00000000
00000000
00010000
00000000
00000100
00010000
,
00000100
00000000
00000010
00000000
00000001
00000000
00001000
00000010
00001000
00000000
00000000
00000000
00000001
00000000
00000010
00000001
,
00000010
00000000
00000100
00000000
00010000
00000000
00001000
01000000
00001000
00000000
01000000
00000000
00100000
00000000
00000000
00000000
,
01000000
02200000
00000000
00000000
,
00000000
00000000
00000000
00000000
,
03300000
02200000
00000000
00000000
,
00000000
00000000
00000000
03300000
,
10010000
00000000
01000000
00000000
00100000
00010000
00001000
00000010
,
00000100
00000000
00000100
00000000
00000001
00000010
00000100
00001000
,
00010000
00000000
00010000
00000000
01000000
00100000
10000000
00100000
,
01000000
00000000
01000000
00000000
00001000
00010000
00001000
00010000
,
00000020
00000100
00000130
00000000
00000001
00000000
00000010
00000000
,
00000200
00010000
00010300
00000000
00001000
00000000
00100000
00000000
,
02000000
00100000
03100000
00000000
00010000
00000000
10000000
00000000
,
02000000
00100000
03100000
00000000
00002000
00000000
00013000
00000000
,
00000100
00000010
00000001
00000010
00000100
00010000
00001000
01000000
,
00100000
01000000
00010000
00001000
00000010
00000100
00000010
00010000
,
00101000
01000000
00000000
01000000
00000000
10000000
00000000
10000000
,
00000000
01000000
00100000
00010000
00002000
00000000
00000000
00000000
,
00003010
00000010
00000100
00000001
00000010
00000010
00000100
00001000
,
00010000
00010000
01000000
00100000
10000000
10000000
01000000
00100000
,
00001000
00001000
00010000
00000010
00000100
00000100
00000001
00000010
,
00000100
00000100
00001000
00010000
00100000
00100000
01000000
00100000
,
00010000
10000000
00000000
00010000
01000000
10000000
00000000
01000000
,
00001000
01000000
00000000
10000000
01000000
00100000
00000000
00001000
,
00010000
00000010
00000000
00000001
00000010
00010000
00000000
00000100
,
00000010
00000001
00000100
00000010
00010000
00001000
00100000
01000000
,
10000000
02200000
00000000
00000000
,
00000000
00000000
00000000
00000000
,
00000000
00000000
00000000
00000000
,
00000000
03300000
00000000
00000000
,
00000000
01000000
00000000
00000000
;

//---------------dance-double - ----------------
#NOTES:
     dance-double:
     :
     Challenge:
     13:
     0.693,0.780,0.109,0.256,0.350:
00000000
00000000
00000000
00000000
,
00000000
00000000
00000000
00000000
,
00000000
00000000
00000000
00000000
,
00000000
00000000
00000000
00000000
,
00000000
00000000
00000000
00000000
,
10000000
00000000
01000000
00000000
10000000
00010000
10000000
00000000
01000000
00000000
00100000
00000000
00001000
01000000
00001000
00000000
,
00010000
00000000
00000100
00000000
00000010
00000001
00000010
00000000
00000001
00000000
00001000
00000000
00000010
00001000
00000010
00000000
,
00001000
00000000
00010000
00000000
01000000
00100000
01000000
00000000
00010000
00000000
10000000
00000000
01000000
00100000
01000000
00000000
,
10000000
00000000
01000000
00000000
00100000
00010000
00100000
00000000
00010000
00000000
00001000
00000000
00000001
00000100
00000001
00000000
,
00000020
00000100
00000100
00000000
00000100
00000100
00000000
00010000
,
00000000
00010000
00000000
00010000
00010030
00001000
00011000
00000000
,
00100000
00000000
01000000
00000000
00100000
00000000
00010000
10000000
00100000
00000000
10000000
00000000
01000000
00000000
00100000
00010000
,
00001000
00000000
00000010
00000000
00000100
00000000
00000010
00001000
00000001
00000000
00000010
00000000
00000100
00000000
00010000
00001000
,
01000000
00000000
00100000
00000000
01000000
00000000
00010000
10000000
00100000
00000000
01000000
00000000
00001000
00000000
00010000
00000100
,
00000010
00000000
00000001
00000000
00000100
00000000
00000010
00000100
00000001
00000000
00010000
00000000
00000100
00000000
00010000
00001000
,
01000000
00000000
00100000
00000000
01000000
00000000
00010000
00100000
01000000
00000000
10000000
00000000
00100000
00000000
01000000
00100000
,
10000000
00000000
01000000
00000000
00100000
00000000
00001000
00010000
00000100
00000000
00000010
00000000
00000001
00000000
00000100
00000001
,
00000010
00000000
00000100
00000000
00010000
00000000
00001000
00100000
01000000
00000000
00100000
00000000
00010000
00000000
01000000
00010000
,
10000000
10000000
01000000
01000000
00100000
00100000
00010000
00010000
,
00001000
00000000
00000100
00000000
00001000
00000000
00000010
00000100
00000001
00000000
00000010
00000000
00000100
00001000
00000100
00000000
,
00010000
00001000
00010000
00000000
00001000
00000000
01000000
00100000
10000000
00000000
00100000
00000000
01000000
00010000
01000000
00000000
,
00100000
01000000
00100000
00000000
10000000
00000000
01000000
10000000
00100000
00000000
01000000
00000000
00001000
00010000
00001000
00000000
,
00010000
00000100
00010000
00000000
00000100
00000000
00000010
00000001
00000100
00000000
00000010
00000000
00010000
00001000
00010000
00000000
,
00001000
01000000
00001000
00000000
01000000
00000000
00100000
10000000
00010000
00000000
00100000
00000000
01000000
10000000
01000000
00000000
,
00100000
00001000
00100000
00000000
00001000
00000000
00010000
00000010
00000100
00000001
00000000
00000001
00000000
00000001
00000000
00000001
,
00000100
00000000
00000010
00000000
00000100
00000000
00000001
00000010
00000100
00000000
00010000
00000000
00001000
00100000
00001000
00000000
,
00100000
01000000
00100000
00000000
00001000
00000000
00100000
01000000
10000000
00000000
00010000
00000000
10010000
00000000
00000000
00000000
,
01000000
00000000
01000000
00000000
00100000
00000000
10000000
00000000
01000000
00000000
01000000
00000000
10000000
00000000
00100000
01000000
,
00100000
10000000
01000000
00100000
00001000
00010000
00010010
00000000
,
00000100
00000000
00000100
00000000
00000001
00000000
00000010
00000000
00000100
00000000
00000100
00000000
00010000
00000000
00001000
00010000
,
00001000
01000000
00100000
10000000
01000000
00100000
00110000
00000000
,
01000000
00000000
10000000
00000000
00100000
00000000
01000000
00100000
01000000
00000000
00001000
00000000
00010000
00000010
00000100
00000000
,
00000010
00000100
00000001
00000000
00000010
00000000
00000100
00010000
00000100
00000000
00010000
00000000
00001000
00100000
01000000
00000000
,
00100000
01000000
10000000
00000000
00010000
00000000
01000000
00100000
01000000
00000000
00001000
00000000
00010000
00000001
00000100
00000000
,
00000001
00010000
00000100
00000000
00001000
00000000
00010000
00100000
01000000
00000000
10000000
00000000
00100000
00000000
10000000
00000000
,
00010000
02200000
00000000
00000000
,
00000000
00000000
00000000
00000000
,
03300000
20020000
00000000
00000000
,
00000000
00000000
00000000
30030000
,
00100000
10000000
00100000
10000000
00001000
00100000
00001000
00010000
,
00000100
00000010
00000010
00000000
00000001
00000100
00000001
00001000
,
00000100
00010000
00010000
00000000
00001000
00100000
00001000
10000000
,
01000000
00100000
00100000
00000000
00010000
10000000
01000000
00100000
,
00002000
00010000
00013000
00000000
00000100
00000010
00000001
00000100
,
00000020
00001000
00001030
00000000
00000100
00010000
00001000
00100000
,
02000000
10000000
13000000
00000000
00100000
00010000
00001000
00000010
,
00000200
00000001
00000301
00000000
00002000
00000000
00000001
00003001
,
00000020
00000001
00000031
00000100
00020000
00001000
00031000
00100000
,
02000000
10000000
13000000
00010000
02000000
00100000
03100000
10000000
,
00001000
01001000
00000000
00011000
00000000
00010010
00000000
00000110
,
00000100
00000001
00000010
00000100
00010000
00010000
00001000
00001000
,
02000000
00000000
00100000
00000000
03100000
00000000
10000000
01000000
00200000
00000000
00001000
00000000
00301000
00000000
00010000
00000000
,
00000020
00000000
00000100
00000000
00000130
00000000
00000001
00000010
00000200
00000000
00010000
00000000
00010300
00000000
00001000
01000000
,
00200000
00000000
01000000
00000000
01300000
00000000
00010000
10000000
02000000
00000000
00100000
00000000
03100000
00000000
00010000
00001000
,
00000020
00000000
00000100
00000000
00000130
00000000
00000001
00000010
00000200
00000000
00010000
00000000
00010300
00000000
00001000
10000000
,
01000000
00000000
00001000
00000000
01000000
00000000
10000000
00010000
01000000
00000000
10000000
00000000
01000000
00000000
00010000
00100000
,
00001000
00000000
00000100
00000000
00000010
00000000
00000001
00000100
00000010
00000000
00000100
00000000
00000001
00000000
00000010
00000100
,
00020000
00000000
00001000
00000000
00031000
00000000
00100000
01000000
20000000
00000000
00100000
00000000
30100000
00000000
01000000
00010000
,
00001000
00000010
00000100
00000001
00000010
00000100
00000100
00010000
,
00010000
02002000
00000000
00000000
,
00000000
00000000
00000000
00000000
,
00000000
00000000
00000000
00000000
,
00000000
03003000
00000000
00000000
,
00000000
10000000
00000000
00000000
;

//---------------dance-single - ----------------
#NOTES:
     dance-single:
     :
     Beginner:
     2:
     0.110,0.312,0.148,0.000,0.000: // measure 1
0000
0000
0000
0000
,  // measure 2
0000
0000
0000
0000
,  // measure 3
0000
0000
0000
0000
,  // measure 4
0000
0000
0000
0000
,  // measure 5
0000
0000
0000
0000
,  // measure 6
1000
0000
0000
0000
,  // measure 7
1000
0000
0000
0000
,  // measure 8
0100
0000
0000
0000
,  // measure 9
0100
0000
0000
0000
,  // measure 10
0010
0000
0000
0000
,  // measure 11
0000
0000
0000
0000
,  // measure 12
0001
0000
0000
0000
,  // measure 13
1000
0000
0000
0000
,  // measure 14
0001
0000
0000
0000
,  // measure 15
1000
0000
0000
0000
,  // measure 16
0001
0000
0000
0000
,  // measure 17
1000
0000
0000
0000
,  // measure 18
0001
0000
0000
0000
,  // measure 19
1000
0000
0000
0000
,  // measure 20
0100
0000
0000
0000
,  // measure 21
0010
0000
0000
0000
,  // measure 22
0100
0000
0000
0000
,  // measure 23
1000
0000
0000
0000
,  // measure 24
0001
0000
0000
0000
,  // measure 25
0100
0000
0000
0000
,  // measure 26
0001
0000
0000
0000
,  // measure 27
1000
0000
0000
0000
,  // measure 28
1001
0000
0000
0000
,  // measure 29
0000
0000
0000
0000
,  // measure 30
1001
0000
0000
0000
,  // measure 31
0000
0000
0000
0000
,  // measure 32
0001
0000
0000
0000
,  // measure 33
1000
0000
0000
0000
,  // measure 34
0100
0000
0000
0000
,  // measure 35
0010
0000
0000
0000
,  // measure 36
0000
0100
0000
0000
,  // measure 37
0010
0000
0000
0000
,  // measure 38
0001
0000
0000
0000
,  // measure 39
0000
0000
0000
0000
,  // measure 40
1000
0000
0000
0000
,  // measure 41
0100
0000
0000
0000
,  // measure 42
1000
0000
0000
0000
,  // measure 43
0100
0000
0000
0000
,  // measure 44
1000
0000
0000
0000
,  // measure 45
0010
0000
0000
0000
,  // measure 46
0100
0000
0000
0000
,  // measure 47
0001
0000
0000
0000
,  // measure 48
1000
0000
0001
0000
,  // measure 49
1000
0000
0001
0000
,  // measure 50
1000
0000
0001
0000
,  // measure 51
1000
0000
0000
0000
,  // measure 52
1001
0000
0010
0000
,  // measure 53
0110
0000
0010
0000
,  // measure 54
0110
0000
0010
0000
,  // measure 55
0110
0000
0010
0000
,  // measure 56
0110
0000
0110
0000
,  // measure 57
1001
0000
1001
0000
,  // measure 58
0110
0000
0110
0000
,  // measure 59
1001
0000
1001
0000
,  // measure 60
1001
0000
0000
0000
,  // measure 61
0000
0000
0000
0000
,  // measure 62
0000
0000
0000
0000
,  // measure 63
0000
0000
0000
0000
,  // measure 64
0000
1000
0000
0000
;
