#TITLE:Damage Per Second;
#SUBTITLE:;
#ARTIST:Maozon;
#TITLETRANSLIT:;
#SUBTITLETRANSLIT:;
#ARTISTTRANSLIT:;
#CREDIT:DigiMindAxel;
#BANNER:Damage Per Second.png;
#BACKGROUND:Damage Per Second-bg.png;
#LYRICSPATH:;
#CDTITLE:beatmania IIDX.png;
#MUSIC:Damage Per Second.ogg;
#METERTYPE:DDR X;
#OFFSET:-0.732;
#SAMPLESTART:31.898;
#SAMPLELENGTH:12.000;
#SELECTABLE:YES;
#BPMS:0.000=177.000,100.000=88.500,112.000=177.000,120.000=88.500,132.000=177.000;
#STOPS:;
#BGCHANGES:-2.000=Damage Per Second.avi=1.000=1=1=0,
99999=-nosongbg-=1.000=0=0=0 // don't automatically add -songbackground-
;

//---------------dance-single - ----------------
#NOTES:
     dance-single:
     :
     Easy:
     5:
     0.207,0.322,0.085,0.186,0.000:
0000
0000
0000
0000
,
0000
0000
0000
0000
,
0000
0000
0000
0000
,
0000
0000
0000
0000
,
0000
0000
0000
0000
,
0000
0000
0000
0000
,
0000
0000
0000
0000
,
1001
0000
0000
0000
,
1001
0000
0000
0000
,
0010
0000
0100
0000
,
0010
0000
0100
0000
,
0001
0000
0010
0000
,
0001
0000
2000
0000
,
3001
0000
1000
0000
,
0001
0000
1000
0000
,
0100
0000
0010
0000
,
0002
0000
0000
0000
,
1003
0000
0100
0000
,
1000
0100
1000
0000
,
0010
0000
0100
0000
,
0010
0100
0010
0000
,
0100
0000
0001
0000
,
0100
0001
0100
0001
,
2000
0000
0000
0000
,
3001
0000
0000
0000
,
1001
0000
0100
0000
,
0010
0000
0002
0000
,
0103
0000
0010
0000
,
1001
0000
0000
0000
,
0110
0000
0000
0000
,
0020
0000
2030
0000
,
3002
0000
0000
0000
0013
0000
0100
1000
,
0020
0000
0230
0000
,
0301
0000
0000
0000
,
1001
0000
0000
0000
,
1000
0000
0100
0000
,
1000
0001
1000
0000
,
0001
0000
0100
0000
,
0001
1000
0001
0000
,
0010
0000
0100
0000
,
2000
0000
0000
0000
,
3001
0000
0100
0000
,
0020
0000
0000
0000
,
1030
0000
0001
0000
,
0100
0001
0100
0000
,
0001
0000
1000
0000
,
0100
1000
0100
0000
,
2000
0000
0000
0000
,
3002
0000
0000
0000
,
0203
0000
0000
0000
,
0302
0000
0000
0000
,
1003
0000
0100
0000
,
0010
0000
0001
0000
,
1000
0000
0100
0000
,
0010
0000
0001
0000
,
1000
0000
0100
0000
,
0010
0000
0001
0000
,
1001
0000
0000
0000
,
2000
0000
0000
0000
,
3001
0000
0100
0000
,
0010
0100
0001
0100
,
0010
0000
1000
0000
,
0100
0010
0001
0010
,
0100
0000
1000
0000
,
0010
0100
0001
0100
,
0020
0000
0000
0000
,
2030
0000
0000
0000
,
3001
0100
0010
0100
,
0001
1000
0100
0000
,
1000
0100
0010
0100
,
2000
0000
3002
0000
,
0103
0010
0100
0000
,
0001
1000
0001
0000
,
1001
0000
0000
0000
0000
0000
0000
0220
,
0000
0000
0000
0000
,
0000
0000
0000
0330
,
0110
0000
0000
0000
;

//---------------dance-single - ----------------
#NOTES:
     dance-single:
     :
     Medium:
     7:
     0.380,0.579,0.305,0.347,0.000:
0000
0000
0000
0000
,
0000
0000
0000
0000
,
0000
0000
0000
0000
,
0000
0000
0000
0000
,
0000
0000
0000
0000
,
0000
0000
0000
0000
,
0000
0000
0000
0000
,
1001
0000
0000
1000
0000
0000
0000
1001
,
0000
0000
0000
0001
0000
0000
0000
0000
,
0010
0100
1000
0100
,
0010
0001
0100
0001
,
0010
0100
0010
0001
,
1000
0001
2000
3002
,
1003
0010
0100
0001
,
0010
1000
0010
0001
,
0100
0001
0010
0001
,
0200
0000
0000
0300
,
0001
1000
0000
0000
1100
0000
0000
1000
,
0000
1000
0000
0010
0100
0000
0001
0000
,
0100
0001
0000
0000
1001
0000
0000
0001
,
0000
0001
0000
0100
0010
0000
1000
0000
,
0100
1000
0000
0000
1001
0000
0000
0001
,
0000
0001
0000
1000
0100
0000
0010
0000
,
2002
0000
0000
3003
,
0110
0000
0000
0110
0000
0000
0110
0000
,
1002
2003
3002
2003
,
3002
0000
2003
0000
3001
0010
0100
1000
,
1002
2003
3002
2003
,
3001
0000
0000
0011
0000
0000
0000
0110
,
0000
0000
0000
1010
0000
0000
0000
0000
,
2000
3002
2003
3002
,
2003
0000
3002
0000
1003
0010
0001
0010
,
2000
3002
2003
3002
,
1003
0000
0000
1100
0000
0000
0000
1001
,
0000
0000
0000
0101
0000
0000
0000
0000
,
0001
0000
0100
0001
0000
1000
0100
0000
,
0010
0001
0100
1000
,
0100
0000
0001
1000
0000
0010
0100
0000
,
0001
0010
0200
0320
,
0031
0000
0110
0000
,
1000
0000
0110
0000
,
0001
0000
0110
0000
,
1000
0000
0001
1000
,
1001
0000
0001
0010
0000
0001
1000
0000
,
0100
0010
0100
1000
,
0010
0000
0100
0001
0000
0010
0100
0000
,
1000
0001
0200
0302
,
2003
0000
3020
0000
,
0032
0000
0023
0000
,
2030
0000
0000
0000
3002
0000
0000
0003
,
0000
1001
0000
0000
1010
0000
0000
0000
,
1000
0100
0010
0000
,
0100
0010
0001
0000
,
1000
0010
0100
0000
,
0010
0100
0001
0000
,
0010
0100
1000
0000
,
0001
0010
0100
0000
,
2002
0000
0000
0000
,
3003
0000
0000
0000
,
0110
0000
0100
1000
0010
0000
0100
0000
,
0001
0000
0010
0100
1000
0000
0001
0000
,
1001
0000
1000
0100
0010
0000
0001
0000
,
1000
0010
0100
0000
0001
0000
1000
0000
,
1001
0000
0001
0100
0010
0000
0100
0000
,
0001
0000
1000
0100
0010
0000
0100
0000
,
1010
0000
0000
0110
0000
0000
0000
0011
,
0000
0000
0000
1001
0000
0000
0000
0000
,
0110
0000
0010
1000
0001
0000
0010
0000
,
0100
0000
0010
0001
1000
0000
0010
0000
,
0110
0000
0100
0001
0010
0000
0100
0000
,
1000
0001
1000
0000
0001
1000
0001
0000
,
0200
0001
0001
0301
,
2000
0100
0100
3100
,
0110
0000
0000
0101
0000
0000
0002
2000
,
0000
0000
0000
0000
,
0000
0000
0000
3003
,
1001
0000
0000
0000
;

//---------------dance-single - ----------------
#NOTES:
     dance-single:
     :
     Hard:
     11:
     0.578,0.997,0.288,0.398,0.165: // measure 1
0000
0000
0000
0000
,  // measure 2
0000
0000
0000
0000
,  // measure 3
0000
0000
0000
0000
,  // measure 4
0000
0000
0000
0000
,  // measure 5
0000
0000
0000
0000
,  // measure 6
0000
0000
0000
0000
,  // measure 7
0000
0000
0000
0000
,  // measure 8
1020
0000
0000
0230
0000
0300
0000
0201
,  // measure 9
0000
0000
0000
0320
0000
0000
0030
0000
,  // measure 10
1001
0000
0001
0010
0000
0001
0010
0000
,  // measure 11
0100
1000
0000
0100
0010
0000
0010
0001
,  // measure 12
1000
0000
0010
1000
0000
0010
1000
0000
,  // measure 13
0100
0010
0000
0001
0200
0000
0320
0000
,  // measure 14
0130
0000
0001
0010
0000
0001
0010
0000
,  // measure 15
0100
0010
0000
0001
0100
0010
1000
0010
,  // measure 16
0100
0000
0001
1000
0000
0001
1000
0000
,  // measure 17
0020
0000
0000
0030
,  // measure 18
0100
0001
0100
0001
1000
0000
0000
1100
,  // measure 19
0000
1100
0000
1000
0001
0010
0100
0010
,  // measure 20
0000
0001
0010
0001
0100
0000
0000
0110
,  // measure 21
0000
0110
0000
0100
0010
0001
0100
0000
,  // measure 22
0001
0100
0001
0100
0010
1000
0010
1000
,  // measure 23
0100
0010
0100
0010
0001
0100
1000
0100
,  // measure 24
0002
0000
0000
0000
,  // measure 25
1003
0000
0000
0010
0000
0000
0100
0000
0000
0001
0000
0000
1001
0000
0000
0000
,  // measure 26
0110
0000
0010
0100
1000
0001
0100
0010
0000
0100
0001
0010
0100
1000
0010
0000
,  // measure 27
0110
0000
0010
0100
1000
0001
0100
0010
0100
0000
0010
1000
0100
0010
0001
0000
,  // measure 28
0101
0000
0100
0010
0001
0010
0100
1000
0000
0010
1000
0001
0100
0002
0000
0000
,  // measure 29
1003
0000
0020
0200
0000
0330
0000
2002
,  // measure 30
0000
3003
0000
0202
0000
0000
0303
0000
,  // measure 31
1001
0000
0001
0100
0010
1000
0100
0010
0000
0100
0010
0001
1000
0010
0110
0000
,  // measure 32
1001
0000
1000
0100
0010
0001
0100
0010
1000
0000
0001
0100
0001
0010
0100
0000
,  // measure 33
1010
0000
0010
0100
0001
1000
0100
0010
0000
0100
0010
0001
1000
0010
0100
0000
,  // measure 34
1001
0000
0002
0200
0000
0303
0000
0220
,  // measure 35
0000
0330
0000
2200
0000
0000
3300
0000
,  // measure 36
0010
0000
0010
0001
0000
0100
0010
0000
,  // measure 37
1000
0100
0010
0100
1000
0001
0100
0001
,  // measure 38
1000
0000
0010
0100
0000
0010
0100
0000
,  // measure 39
0001
0010
0001
1000
0020
0000
2030
0000
,  // measure 40
3001
0000
0100
0010
1002
0000
2003
0000
,  // measure 41
3200
0302
0203
1300
,  // measure 42
0010
0000
0100
0010
1001
1000
1000
0000
,  // measure 43
0100
0100
0100
0000
1000
1000
1000
0010
,  // measure 44
0110
0000
0010
1000
0000
0010
0100
0000
,  // measure 45
0001
0010
0100
0010
0001
1000
0010
1000
,  // measure 46
0001
0000
0010
0100
0000
1000
0010
0000
,  // measure 47
0100
0001
0010
0001
0200
0000
0320
0000
,  // measure 48
0130
0000
0001
1000
0020
0000
0230
0000
,  // measure 49
0302
0000
0000
0000
1003
0000
0100
0000
0010
0000
0000
0001
0000
0000
0100
0000
,  // measure 50
0002
0000
2003
0100
0000
0000
0100
0000
,  // measure 51
0000
0000
3100
0000
0000
0010
0000
0000
0001
0000
0000
0101
0000
0000
0000
0000
,  // measure 52
0100
0010
0001
0010
0100
1000
0000
0001
,  // measure 53
0010
0100
1000
0010
0000
0100
0010
0100
,  // measure 54
0000
0001
0010
0100
1000
0010
0000
1000
,  // measure 55
0100
0010
0001
0100
0000
0010
0100
0010
,  // measure 56
0000
1000
0010
0100
0001
1000
0000
0001
,  // measure 57
0100
0010
1000
0001
0000
0010
0100
0010
,  // measure 58
0002
0000
0000
0000
,  // measure 59
1003
0000
0000
0000
,  // measure 60
1001
0000
0001
0100
0010
1000
0100
0010
,  // measure 61
0000
0100
0010
0001
1000
0010
0100
0000
,  // measure 62
0110
0000
0100
0001
1000
0100
0010
0001
,  // measure 63
0100
1000
0100
0001
1000
0010
0100
0000
,  // measure 64
0110
0000
0100
0001
0010
0100
1000
0001
,  // measure 65
0100
1000
0100
0001
1000
0100
0010
0001
,  // measure 66
0101
0000
0002
2000
0000
3003
0000
2020
,  // measure 67
0000
3030
0000
0220
0000
0000
0330
0000
,  // measure 68
1001
0000
1000
0100
0010
0001
0100
1000
,  // measure 69
0000
0100
0001
0010
0100
1000
0020
0000
,  // measure 70
0030
0000
0100
0001
0010
1000
0010
0001
,  // measure 71
0100
0010
0100
0001
0010
0100
1000
0001
,  // measure 72
0200
0000
0000
0000
0010
0010
0000
0310
,  // measure 73
2000
0001
0000
0001
3001
1000
0100
0010
,  // measure 74
0011
0000
0010
0110
0000
1000
0020
0200
,  // measure 75
0000
0000
0000
0000
,  // measure 76
0000
0000
0000
0330
,  // measure 77
0110
0000
0000
0000
;

//---------------dance-single - ----------------
#NOTES:
     dance-single:
     :
     Challenge:
     14:
     0.711,1.000,0.364,0.390,0.436:
0000
0000
0000
0000
,
0000
0000
0000
0000
,
0000
0000
0000
0000
,
0000
0000
0000
0000
,
0000
0000
0000
0000
,
0000
0000
0000
0000
,
0000
0000
0000
0000
,
1010
0000
0100
0220
0000
0330
0000
0022
,
0000
0033
0000
0220
0000
0000
0330
0000
,
0001
0100
0001
1000
0000
0001
1000
0100
,
0010
0100
0000
0010
0100
1000
0001
0010
,
0100
1000
0001
0100
0000
0001
0100
0001
,
1000
0100
0000
0010
0002
0000
2003
0000
,
3100
0000
0010
0000
0100
0000
1000
0000
0000
0000
0100
0000
1000
0000
0001
0100
,
0001
0000
1000
0000
0000
0001
1000
0000
0010
0000
0100
0001
0000
0100
0001
0000
,
1000
0100
0010
0001
0000
0010
0001
0100
,
0020
0000
0000
0030
,
1000
0100
0001
0100
1000
0001
0100
0002
,
0000
2003
0000
3001
0010
1000
0010
0001
,
0000
1000
0010
0001
0010
1000
0001
0200
,
0000
0302
0000
1003
0100
0010
0001
0000
,
0100
0001
1000
0001
0100
0001
1000
0100
,
1000
0010
0001
0010
0100
0001
1000
0100
,
0220
0000
0000
0330
,
0011
0000
0000
0110
0000
0000
0011
0000
0000
0110
0000
0000
1100
0000
0000
0000
,
1001
0000
0000
0000
1000
0000
0100
0000
0010
0000
0001
0000
1000
0000
0010
1000
0000
0000
1000
0000
0100
0000
0010
0001
0010
0000
0100
0000
0110
0000
0000
0000
,
0101
0000
0000
0000
0001
0000
0010
0000
0100
0000
1000
0000
0001
0000
0100
0001
1000
0000
0100
1000
0100
0000
0010
0001
0000
0010
0001
0100
0010
0000
0010
0000
,
1001
0000
0000
0000
0001
0000
0010
0000
0100
0000
1000
0000
0001
0000
0100
0001
0000
0000
1000
0000
0100
0000
0010
0001
0010
0000
0001
0100
0001
0100
0010
0000
,
1010
0000
0100
0220
0000
0330
0000
2002
,
0000
3003
0000
0022
0000
0000
0033
0000
,
1001
0000
0000
0000
0001
0000
1000
0010
1000
0000
0100
0000
0010
0000
0001
1000
0000
0000
0001
0000
1000
0000
0010
0100
0010
0000
1000
0000
1001
0000
0000
0000
,
0110
0000
0000
0000
0100
0000
0001
1000
0001
0000
0010
0000
0100
0000
1000
0010
1000
0000
0001
0010
0001
0000
1000
0001
0000
1000
0001
0010
0100
0000
0100
0000
,
1001
0000
0000
0000
1000
0000
0001
0010
0001
0000
1000
0000
0100
0000
0010
0100
0000
0000
1000
0000
0001
0000
0100
0010
0100
0000
0001
0000
1000
0000
0000
0000
,
1001
0000
0010
0011
0000
0010
0100
2002
,
0000
3003
0000
0220
0000
0000
0330
0000
,
1000
0100
1000
0001
0000
1000
0001
0010
,
0100
1000
0001
1000
0100
1000
0010
0100
,
0001
0010
0100
1000
0000
0100
1000
0001
,
0010
0100
0010
0001
2000
0000
3002
0000
,
0103
0000
0010
0100
0002
0010
0013
0100
,
2000
0000
0001
0000
3001
0000
1000
0000
0010
0000
0100
0001
0000
0100
0001
0000
,
0010
0000
0100
1000
0002
0010
0013
0100
,
2000
0010
3010
0100
0002
0010
0013
0100
,
1000
0010
1000
0001
0000
1000
0001
0010
,
0100
1000
0010
1000
0001
0010
0100
1000
,
0001
0010
0001
1000
0000
0001
1000
0100
,
0010
0100
1000
0010
0200
0000
0320
0000
,
1030
0000
0001
0100
1000
0100
0001
0010
,
0100
0000
1000
0010
0000
1000
0001
0000
0010
0000
0100
1000
0000
0100
1000
0000
,
0001
0000
0100
0010
0000
1000
0010
0000
,
0100
0000
0110
0000
0000
0101
0000
0000
0110
0000
0000
0101
0000
0000
0000
0000
,
0001
1000
0100
0001
0100
1000
0000
0001
,
0100
1000
0100
0001
0000
1000
0010
1000
,
0000
0001
0100
1000
0100
0001
0000
1000
,
0100
0001
0100
1000
0000
0001
1000
0001
,
0000
1000
0010
0001
0010
1000
0000
0001
,
0010
1000
0010
0001
0000
0100
0010
0100
,
2002
0000
0000
0000
,
3003
0000
0000
0000
,
1001
0000
0000
0000
1000
0000
0100
0000
0010
0000
0001
0000
1000
0000
0010
1000
,
0000
0000
0001
0000
0010
0000
0100
1000
0100
0000
0010
0100
0010
0000
0000
0000
,
1001
0000
0000
0000
0001
0000
0010
0000
0100
0000
1000
0000
0001
0000
0100
0001
,
1000
0000
0010
0100
0010
0000
1000
0001
0000
1000
0001
0100
0010
0000
0010
0000
,
1001
0000
0000
0000
1000
0000
0100
0010
0001
0000
1000
0010
1000
0000
0001
0010
,
0100
0000
1000
0010
1000
0000
0001
0010
0001
0000
1000
0001
1000
0001
0100
0000
,
0110
0000
0010
2020
0000
3030
0000
2002
,
0000
3003
0000
0022
0000
0000
0033
0000
,
1001
0000
0000
0000
1000
0000
0010
0100
0010
0000
1000
0010
1000
0000
0001
0010
,
0000
0000
0001
0000
1000
0000
0010
1000
0010
0000
0100
0010
0200
0000
0000
0000
,
0302
0000
0000
0000
1003
0000
0100
0010
0001
0000
1000
0010
1000
0000
0010
0100
,
0001
0000
1000
0100
1000
0000
0001
1000
0000
0001
1000
0010
0100
0000
0100
0000
,
0001
0010
0100
0010
0001
0001
1000
0100
,
0010
0100
1000
0001
0001
0010
0100
1000
,
1001
0000
0010
0011
0000
0100
0010
2002
,
0000
0000
0000
0000
,
0000
0000
0000
3003
,
1001
0000
0000
0000
;

//---------------dance-double - ----------------
#NOTES:
     dance-double:
     :
     Easy:
     5:
     0.230,0.322,0.085,0.279,0.000:
00000000
00000000
00000000
00000000
,
00000000
00000000
00000000
00000000
,
00000000
00000000
00000000
00000000
,
00000000
00000000
00000000
00000000
,
00000000
00000000
00000000
00000000
,
00000000
00000000
00000000
00000000
,
00000000
00000000
00000000
00000000
,
20020000
00000000
00000000
00000000
00000000
30030000
00000000
20020000
,
00000000
00000000
30030000
00000000
,
01000000
00000000
10000000
00000000
,
01000000
10000000
01000000
00000000
,
00100000
00000000
00010000
00000000
,
00100000
00010000
00200000
00000000
,
00301000
00000000
00010000
00000000
,
00000100
00000010
00000100
00000000
,
00001000
00000000
00000001
00000000
,
00002000
00000000
00000000
00000000
,
00003001
00000000
00000100
00000000
,
00000010
00000100
00000010
00000100
,
00000001
00000000
00000010
00000000
,
00000100
00010000
00000100
00010000
,
00001000
00000000
00100000
00000000
,
01000000
10000000
01000000
10000000
,
00200000
00000000
00000000
00000000
,
01300000
00000000
00000000
00000000
,
20010000
00000000
32000000
00000000
,
03200000
00000000
00320000
00000000
,
00031000
00000000
00000010
00000000
,
00000110
00000000
00000000
00000000
,
00001001
00000000
00000000
00000000
,
00000020
00000000
00020030
00000000
,
00032000
00000000
00000000
00000000
00103000
00000000
01000000
10000000
,
00200000
00000000
02300000
00000000
,
03010000
00000000
00000000
00000000
,
10010000
00000000
00000000
00000000
,
10000000
00000000
01000000
00000000
,
10000000
00010000
10000000
00000000
,
00001000
00000000
00100000
00000000
,
00001000
00010000
00001000
00000000
,
00020000
00000000
00030200
00000000
,
00000320
00000000
00000000
00000000
,
00000032
00000000
00000203
00000000
,
00000320
00000000
00000000
00000000
,
00010030
00000000
00001000
00000000
,
01000000
00100000
01000000
00000000
,
00010000
00000000
10000000
00000000
,
01000000
10000000
01000000
00000000
,
20000000
00000000
00000000
00000000
,
30020000
00000000
00000000
00000000
,
02030000
00000000
00000000
00000000
,
03002000
00000000
00000000
00000000
,
00013000
00000000
00000100
00000000
,
00000010
00000000
00000001
00000000
,
00010000
00000000
00000100
00000000
,
00000010
00000000
00000001
00000000
,
00010000
00000000
00000100
00000000
,
00000010
00000000
00000001
00000000
,
00001001
00000000
00000000
00000000
,
00000020
00000000
00000000
00000000
,
00000130
00000010
00000100
00000000
,
00000001
00000010
00000100
00000010
,
00000001
00000000
00000100
00000001
,
00001000
00000100
00000010
00000100
,
00001000
00000000
00000100
00001000
,
00010000
01000000
00100000
10000000
,
00200000
00000000
00000000
00000000
,
02300000
00000000
00000000
00000000
,
03010000
01000000
00100000
01000000
,
00010000
10000000
01000000
00000000
,
10000000
01000000
00100000
00010000
,
00002000
00000000
00003020
00000000
,
00000130
00000010
00000100
00000000
,
00000001
00001000
00000001
00000000
,
00001001
00000000
00000000
00000000
00000000
00000000
00000000
00000220
,
00000000
00000000
00000000
00000000
,
00000000
00000000
00000000
00000330
,
00000110
00000000
00000000
00000000
;

//---------------dance-double - ----------------
#NOTES:
     dance-double:
     :
     Medium:
     7:
     0.402,0.644,0.330,0.390,0.000:
00000000
00000000
00000000
00000000
,
00000000
00000000
00000000
00000000
,
00000000
00000000
00000000
00000000
,
00000000
00000000
00000000
00000000
,
00000000
00000000
00000000
00000000
,
00000000
00000000
00000000
00000000
,
00000000
00000000
00000000
00000000
,
10020000
00000000
00000000
10030000
00000000
00000000
00000000
20010000
,
00000000
00000000
00000000
30010000
00000000
00000000
00000000
00000000
,
10000000
01000000
10000000
00010000
,
10000000
01000000
00100000
00001000
,
00010000
00000100
00000010
00000100
,
00010000
00000010
00000200
00000320
,
00000130
00000001
00000010
00000100
,
00000010
00000001
00000100
00000010
,
00010000
00001000
00100000
01000000
,
20000000
00000000
00000000
30000000
,
00100000
01000000
00000000
00000000
10010000
00000000
00000000
00100000
,
00000000
00100000
00000000
10000000
01000000
00000000
00100000
00000000
,
00001000
00010000
00000000
00000000
00000110
00000000
00000000
00000100
,
00000000
00000100
00000000
00000001
00000010
00000000
00000100
00000000
,
00010000
00001000
00000000
00000000
01100000
00000000
00000000
00100000
,
00000000
00100000
00000000
01000000
00010000
00000000
00100000
00000000
,
02200000
00000000
00000000
03300000
,
01010000
00000000
00000000
10100000
00000000
00000000
01100000
00000000
,
20010000
30020000
20030000
30020000
,
20030000
00000000
30020000
00000000
10030000
01000000
00100000
00011000
,
00001002
00002003
00003002
00002003
,
00003001
00000000
00000000
00000011
00000000
00000000
00000000
00010010
,
00000000
00000000
00000000
00011000
00000000
00000000
00000000
00000000
,
10020000
20030000
30020000
20030000
,
30020000
00000000
20030000
00000000
30010000
00100000
00001000
00011000
,
00001002
00002003
00003002
00002003
,
00003001
00000000
00000000
00000011
00000000
00000000
00000000
00010010
,
00000000
00000000
00000000
00011000
00000000
00000000
00000000
00000000
,
10000000
00000000
00100000
01000000
00000000
00010000
01000000
00000000
,
00010000
00001000
00000010
00000100
,
00000010
00000000
00001000
00000001
00000000
00000010
00000100
00000000
,
00001000
00010000
00200000
02300000
,
03200000
00010000
00310000
00000000
,
02000000
00100000
03100000
00000000
,
20000000
00100000
30100000
00000000
,
02000000
00001000
00001000
03001000
,
00011000
00000000
00010000
00000010
00000000
00000100
00000010
00000000
,
00001000
00000001
00000010
00000100
,
00001000
00000000
00010000
00100000
00000000
01000000
00100000
00000000
,
00010000
01000000
00020000
20030000
,
30020000
00100000
00130000
00000000
,
02000000
10000000
13000000
00000000
,
00200000
01000000
01000000
01300000
,
00000000
01100000
00000000
00000000
10010000
00000000
00000000
00000000
,
10000000
01000000
00100000
00001000
,
00010000
00000100
00000010
00000000
,
00000001
00000010
00000100
00010000
,
00001000
00100000
01000000
00000000
,
10000000
00100000
01000000
00010000
,
00001000
00000010
00000100
00000000
,
00002002
00000000
00000000
00000000
,
00003003
00000000
00000000
00000000
,
00001001
00000000
00000001
00000100
00000010
00000000
00010000
00000000
,
00001000
00000000
00100000
01000000
10000000
00000000
01100000
00000000
,
01100000
00000000
01000000
00010000
10000000
00000000
01000000
00000000
,
00100000
00001000
00010000
00000000
00000010
00000000
00000110
00000000
,
00000110
00000000
00000100
00000010
00000001
00000000
00000010
00000000
,
00000100
00001000
00010000
00100000
,
10020000
00000000
00000000
10030000
00000000
00000000
00000000
20010000
,
00000000
00000000
00000000
30010000
00000000
00000000
00000000
00000000
,
10010000
00000000
10000000
01000000
00100000
00000000
00001000
00000000
,
00010000
00000000
00000100
00000010
00000001
00000000
00001001
00000000
,
00001001
00000000
00000010
00000100
00010000
00000000
00001000
00000000
,
01000000
00100000
01000000
00000000
00100000
01000000
00100000
00000000
,
20010000
01000000
01000000
31000000
,
00200000
00010000
00010000
00310000
,
01100000
00000000
00000000
00011000
00000000
00000000
00000020
00000200
,
00000000
00000000
00000000
00000000
,
00000000
00000000
00000000
00000330
,
00000110
00000000
00000000
00000000
;

//---------------dance-double - ----------------
#NOTES:
     dance-double:
     :
     Hard:
     12:
     0.561,0.965,0.279,0.398,0.165:
00000000
00000000
00000000
00000000
,
00000000
00000000
00000000
00000000
,
00000000
00000000
00000000
00000000
,
00000000
00000000
00000000
00000000
,
00000000
00000000
00000000
00000000
,
00000000
00000000
00000000
00000000
,
00000000
00000000
00000000
00000000
,
20010000
00000000
00000000
00020000
00000000
30030000
00000000
01200000
,
00000000
00000000
00000000
02000000
00000000
00000000
03300000
00000000
,
10010000
00000000
00010000
01000000
00000000
00010000
01000000
00000000
,
00001000
00010000
00000000
00000100
00000010
00000000
00000001
00000100
,
00000001
00000000
00001000
00000100
00000000
00001000
00000100
00000000
,
00001000
00010000
00000000
01000000
00200000
00000000
02300000
00000000
,
03100000
00000000
10000000
00100000
00000000
10000000
00100000
00000000
,
10000000
00010000
00000000
01000000
00001000
00010000
00001000
00010000
,
00000010
00000000
00000100
00000010
00000000
00000100
00000010
00000000
,
00002000
00000000
00000000
00003000
,
00000100
00000010
00000100
00000010
00000001
00000000
00000000
00000110
,
00000000
00000110
00000000
00000010
00000100
00010000
00001000
01000000
,
00000000
00100000
10000000
00100000
01000000
00000000
00000000
10010000
,
00000000
10010000
00000000
00010000
10000000
01000000
00100000
00000000
,
00001000
00010000
00001000
00010000
00000010
00000100
00000010
00000100
,
00000001
00000010
00000001
00000010
00000100
00010000
00001000
01000000
,
00200000
00000000
00000000
00000000
,
01300000
00000000
00000000
01010000
00000000
00000000
01000000
00000000
00000000
01010000
00000000
00000000
01100000
00000000
00000000
00000000
,
10010000
00000000
10000000
01000000
00100000
00010000
00100000
01000000
00000000
10000000
01000000
00100000
00010000
00100000
01000000
00000000
,
10010000
00000000
00010000
00100000
01000000
00100000
00001000
00010000
00000100
00000000
00000010
00000001
00000100
00000010
00001000
00000000
,
00001001
00000000
00000001
00000010
00000100
00001000
00000100
00000010
00000000
00000001
00000010
00000100
00001000
00000020
00000000
00000000
,
00000130
00000000
00020000
00002000
00000000
00033000
00000000
02200000
,
00000000
03300000
00000000
20200000
00000000
00000000
30300000
00000000
,
10010000
00000000
10000000
00100000
01000000
00010000
01000000
00100000
00000000
10000000
00100000
01000000
00010000
01000000
00100000
00000000
,
10010000
00000000
00100000
01000000
10000000
01000000
00100000
00010000
00001000
00000000
00000010
00000100
00000001
00000100
00000010
00000000
,
00001001
00000000
00000001
00000100
00000010
00001000
00000010
00000100
00000000
00000001
00000100
00000010
00001000
00000010
00000100
00000000
,
00001001
00000000
00000200
00020000
00000000
00030300
00000000
00022000
,
00000000
00033000
00000000
02200000
00000000
00000000
03300000
00000000
,
10000000
00000000
10000000
00100000
00000000
10000000
00010000
00000000
,
00100000
01000000
10000000
01000000
00100000
00001000
00010000
00000100
,
00000010
00000000
00000001
00001000
00000000
00000010
00001000
00000000
,
00000001
00000010
00000100
00010000
00002000
00000000
02003000
00000000
,
03100000
00000000
10000000
01000000
00200000
00000000
00302000
00000000
,
00023000
00030200
00000320
00000031
,
00001000
00000000
00000010
00010000
00001000
00001000
00001000
00000000
,
01000000
01000000
01000000
00000000
00100000
00100000
00100000
10000000
,
01000000
00000000
00100000
01000000
00000000
10000000
00100000
00000000
,
01000000
00001000
00010000
00000100
00000010
00000001
00000010
00000100
,
00010000
00000000
00001000
01000000
00000000
00100000
01000000
00000000
,
00010000
00100000
01000000
00100000
00002000
00000000
00023000
00000000
,
00030010
00000000
00000100
00000001
00000020
00000000
00000230
00000000
,
00020300
00000000
00000000
00000000
00031000
00000000
00100000
00000000
01000000
00000000
00000000
10000000
00000000
00000000
00010000
00000000
,
01000000
00000000
00100000
01000000
00000000
00100000
01000000
00000000
,
00010000
00000000
10000000
00000000
00000000
10010000
00000000
00000000
10000000
00000000
00000000
10010000
00000000
00000000
00000000
00000000
,
00010000
02000000
00000000
00000000
03010000
00000000
00000000
10000000
,
00000000
10000000
00000000
10000000
01000000
00100000
00000000
00001000
,
00000000
00020000
00000000
00000000
00030010
00000000
00000000
00000100
,
00000000
00000100
00000000
00000100
00000001
00000010
00000100
00000000
,
00000000
00020000
00000000
00000000
00031000
00000000
00000000
00100000
,
00000000
00100000
00000000
00100000
01000000
10000000
00000000
00010000
,
20000000
00000000
00000000
00000000
,
31000000
00000000
00000000
00000000
,
10010000
00000000
10000000
01000000
00100000
00010000
00100000
01000000
,
00000000
10000000
01000000
00100000
00010000
00100000
01000000
00000000
,
10010000
00000000
00010000
00100000
01000000
00100000
00001000
00010000
,
00000100
00000010
00000001
00000010
00000100
00010000
00000010
00000000
,
00000110
00000000
00000001
00000100
00000010
00001000
00000010
00000100
,
00000001
00000010
00000100
00010000
00001000
00100000
01000000
10000000
,
10010000
00000000
00200000
02000000
00000000
03300000
00000000
02002000
,
00000000
03003000
00000000
00020020
00000000
00000000
00030030
00000000
,
00000110
00000000
00001000
00000100
00000010
00000001
00000010
00000100
,
00000000
00001000
00000100
00000010
00000001
00000010
00000200
00000000
,
00000300
00000000
00010000
00001000
01000000
00100000
10000000
00100000
,
01000000
00001000
00100000
01000000
00100000
00001000
10000000
00100000
,
20000000
00000000
00000000
00000000
00010000
00010000
00000000
30010000
,
00200000
00001000
00000000
00001000
00301000
00010000
00000100
00000010
,
00000011
00000000
00000100
00000110
00000000
00010000
00001000
00020000
,
00000000
00000000
00000000
00000000
,
00000000
00000000
00000000
00030000
,
00011000
00000000
00000000
00000000
;

//---------------dance-double - ----------------
#NOTES:
     dance-double:
     :
     Challenge:
     14:
     0.711,1.000,0.364,0.390,0.436:
00000000
00000000
00000000
00000000
,
00000000
00000000
00000000
00000000
,
00000000
00000000
00000000
00000000
,
00000000
00000000
00000000
00000000
,
00000000
00000000
00000000
00000000
,
00000000
00000000
00000000
00000000
,
00000000
00000000
00000000
00000000
,
10010000
00000000
01000000
22000000
00000000
33000000
00000000
02200000
,
00000000
03300000
00000000
00022000
00000000
00000000
00033000
00000000
,
00010000
00000010
00010000
00000001
00000000
00010000
00000001
00000010
,
00000100
00000010
00000000
00000100
00000010
00000001
00000100
00000010
,
00010000
00001000
00100000
00010000
00000000
00100000
00010000
10000000
,
01000000
00100000
00000000
01000000
00200000
00000000
00302000
00000000
,
00013000
00000000
00000010
00000000
00010000
00000000
00000001
00000000
00000000
00000000
00010000
00000000
00000001
00000000
00000100
00000001
,
00000100
00000000
00000001
00000000
00000000
00000010
00000100
00000000
00010000
00000000
00001000
00100000
00000000
00001000
00100000
00000000
,
01000000
10000000
00100000
01000000
00000000
00100000
01000000
00010000
,
00200000
00000000
00000000
00300000
,
00001000
00010000
00000010
00000100
00000010
00010000
00000001
00000020
,
00000000
00000230
00000000
00001300
00000001
00000010
00000100
00001000
,
00000000
00010000
01000000
00100000
01000000
00010000
10000000
02000000
,
00000000
03200000
00000000
00310000
10000000
01000000
00100000
00000000
,
00001000
00100000
01000000
00100000
00001000
00100000
01000000
00100000
,
00001000
00010000
00000010
00000100
00000010
00010000
00000100
00000010
,
00000022
00000000
00000000
00000033
,
00000110
00000000
00000000
00001100
00000000
00000000
00000110
00000000
00000000
00001100
00000000
00000000
00001001
00000000
00000000
00000000
,
00000110
00000000
00000000
00000000
00000100
00000000
00000010
00000000
00000001
00000000
00000010
00000000
00000100
00000000
00010000
00001000
00000000
00000000
01000000
00000000
00100000
00000000
10000000
00100000
10000000
00000000
00010000
00000000
10010000
00000000
00000000
00000000
,
01100000
00000000
00000000
00000000
00100000
00000000
01000000
00000000
10000000
00000000
01000000
00000000
00100000
00000000
00001000
00010000
00001000
00000000
00010000
00000010
00000100
00000000
00000001
00000100
00000000
00000001
00000100
00000010
00000100
00000000
00000100
00000000
,
00001001
00000000
00000000
00000000
00000001
00000000
00000010
00000000
00000100
00000000
00000010
00000000
00000001
00000000
00010000
00000100
00000000
00000000
00010000
00000000
00001000
00000000
01000000
00100000
01000000
00000000
00010000
10000000
00010000
10000000
00010000
00000000
,
01010000
00000000
00100000
20200000
00000000
30300000
00000000
02002000
,
00000000
03003000
00000000
00022000
00000000
00000000
00033000
00000000
,
00000110
00000000
00000000
00000000
00000100
00000000
00000001
00000010
00000001
00000000
00001000
00000000
00000010
00000000
00010000
00001000
00000000
00000000
00100000
00000000
01000000
00000000
10000000
00010000
10000000
00000000
00100000
00000000
01100000
00000000
00000000
00000000
,
10010000
00000000
00000000
00000000
00010000
00000000
00100000
01000000
00100000
00000000
00010000
00000000
01000000
00000000
00001000
00010000
00001000
00000000
00010000
00000010
00010000
00000000
00000010
00000100
00000000
00000010
00000100
00000001
00000100
00000000
00000100
00000000
,
00001001
00000000
00000000
00000000
00000001
00000000
00001000
00000100
00001000
00000000
00000001
00000000
00000010
00000000
00000100
00010000
00000000
00000000
00001000
00000000
01000000
00000000
00100000
01000000
00100000
00000000
10000000
00000000
01000000
00000000
00000000
00000000
,
10010000
00000000
00100000
10100000
00000000
01000000
00001000
00202000
,
00000000
00303000
00000000
00020020
00000000
00000000
00030030
00000000
,
00000010
00000100
00000010
00001000
00000000
00000010
00001000
00000001
,
00000010
00000100
00010000
00001000
00100000
01000000
10000000
00010000
,
01000000
00100000
01000000
00010000
00000000
01000000
00010000
10000000
,
01000000
00100000
00001000
00010000
00000200
00000000
00000320
00000000
,
00000130
00000000
00001000
00000001
00000200
00000001
00000301
00010000
,
00002000
00000000
00100000
00000000
00103000
00000000
01000000
00000000
10000000
00000000
00010000
00100000
00000000
00010000
00100000
00000000
,
01000000
00000000
10000000
01000000
00200000
00001000
00301000
00010000
,
00000020
00000100
00000130
00000001
00002000
00000100
00003100
00010000
,
00001000
01000000
00001000
10000000
00000000
00001000
10000000
00100000
,
00010000
00100000
01000000
00001000
00010000
00000100
00000010
00000001
,
00000100
00000001
00000100
00000010
00000000
00000100
00000010
00010000
,
00000100
00010000
00001000
01000000
00200000
00000000
02300000
00000000
,
03010000
00000000
10000000
00010000
01000000
00010000
00100000
00001000
,
00010000
00000000
00000010
00000100
00000000
00000010
00000100
00000000
00000001
00000000
00010000
00000100
00000000
00010000
00000100
00000000
,
00010000
00000000
00001000
00001000
00000000
01000000
01000000
00000000
,
00010000
00000000
10010000
00000000
00000000
10100000
00000000
00000000
10010000
00000000
00000000
01010000
00000000
00000000
00000000
00000000
,
00010000
10000000
01000000
00010000
01000000
10000000
00000000
00010000
,
01000000
10000000
01000000
00010000
00000000
01000000
00001000
00010000
,
00000000
00000001
00000100
00001000
00000100
00000001
00000000
00001000
,
00000100
00000001
00000100
00001000
00000000
00000100
00001000
00010000
,
00000000
10000000
00100000
00010000
00100000
10000000
00000000
00010000
,
00100000
10000000
00100000
00010000
00000000
00100000
00001000
00010000
,
00020020
00000000
00000000
00000000
,
00030030
00000000
00000000
00000000
,
00001001
00000000
00000000
00000000
00000001
00000000
00000010
00000000
00000100
00000000
00000010
00000000
00000001
00000000
00010000
00000010
,
00000000
00000000
00010000
00000000
00001000
00000000
01000000
00100000
01000000
00000000
00010000
01000000
00010000
00000000
00000000
00000000
,
10010000
00000000
00000000
00000000
10000000
00000000
01000000
00000000
00100000
00000000
01000000
00000000
10000000
00000000
00010000
01000000
,
00010000
00000000
01000000
00001000
01000000
00000000
00001000
00010000
00000000
00001000
00010000
00000010
00000100
00000000
00000100
00000000
,
00001001
00000000
00000000
00000000
00000001
00000000
00000010
00000001
00000010
00000000
00000100
00000010
00000100
00000000
00010000
00000100
,
00010000
00000000
00001000
00010000
00001000
00000000
01000000
00100000
01000000
00000000
00010000
10000000
00010000
10000000
00010000
00000000
,
00110000
00000000
10000000
22000000
00000000
33000000
00000000
02200000
,
00000000
03300000
00000000
00022000
00000000
00000000
00033000
00000000
,
00000110
00000000
00000000
00000000
00000100
00000000
00000001
00000010
00000001
00000000
00001000
00000010
00001000
00000000
00000010
00000100
,
00000000
00000000
00000001
00000000
00000010
00000000
00000100
00010000
00000100
00000000
00010000
00001000
00020000
00000000
00000000
00000000
,
00032000
00000000
00000000
00000000
01003000
00000000
00100000
01000000
00100000
00000000
10000000
00100000
10000000
00000000
00100000
01000000
,
00100000
00000000
01000000
00010000
01000000
00000000
00010000
00001000
00000000
00010000
00001000
00000100
00000010
00000000
00000010
00000000
,
00000001
00001000
00000010
00001000
00000001
00000001
00000010
00000100
,
00000010
00000100
00010000
00001000
00001000
00100000
01000000
10000000
,
10100000
00000000
01000000
01100000
00000000
00001000
00010000
00020020
,
00000000
00000000
00000000
00000000
,
00000000
00000000
00000000
00030030
,
00000110
00000000
00000000
00000000
;

//---------------dance-single - ----------------
#NOTES:
     dance-single:
     :
     Beginner:
     2:
     0.097,0.193,0.068,0.000,0.000:
0000
0000
0000
0000
,
0000
0000
0000
0000
,
0000
0000
0000
0000
,
0000
0000
0000
0000
,
0000
0000
0000
0000
,
0000
0000
0000
0000
,
0000
0000
0000
0000
,
1001
0000
0000
0000
,
0000
0000
0000
0000
,
0001
0000
0000
0000
,
1000
0000
0000
0000
,
0001
0000
0000
0000
,
1000
0000
0000
0000
,
0100
0000
0000
0000
,
1000
0000
0000
0000
,
0100
0000
0000
0000
,
1000
0000
0000
0000
,
0010
0000
0000
0000
,
0010
0000
0000
0000
,
0100
0000
0000
0000
,
0100
0000
0000
0000
,
0001
0000
1000
0000
,
0001
0000
1000
0000
,
0001
0000
0000
0000
,
0000
0000
0000
0000
,
1001
0000
0100
0000
,
0010
0000
0001
0000
,
1000
0000
0001
0000
,
1001
0000
0000
0000
,
0000
0000
0000
0000
,
0001
0000
1000
0000
,
0001
0000
0100
0000
,
0010
0000
0100
0000
,
1001
0000
0000
0000
,
0000
0000
0000
0000
,
0010
0000
0000
0000
,
0100
0000
0000
0000
,
0010
0000
0000
0000
,
0100
0000
0000
0000
,
1000
0000
0000
0000
,
1000
0000
0000
0000
,
0001
0000
0000
0000
,
0001
0000
0000
0000
,
0100
0000
0000
0000
,
0001
0000
0000
0000
,
1000
0000
0000
0000
,
0100
0000
0000
0000
,
0010
0000
0000
0000
,
0000
0000
0000
0000
,
0001
0000
0000
0000
,
0000
0000
0000
0000
,
1001
0000
0000
0000
,
0000
0000
0000
0000
,
0000
0000
0000
0000
,
0000
0000
0000
0000
,
1000
0000
0000
0000
,
0001
0000
0000
0000
,
1000
0000
0000
0000
,
1001
0000
0000
0000
,
0010
0000
0100
0000
,
0010
0000
0000
0000
,
0001
0000
0100
0000
,
0001
0000
0000
0000
,
1000
0000
0001
0000
,
1000
0000
0001
0000
,
1000
0000
0000
0000
,
0001
0000
0000
0000
,
1000
0000
0000
0000
,
0100
0000
0000
0000
,
0010
0000
0000
0000
,
0001
0000
0000
0000
,
0100
0000
0000
0000
,
0100
0000
0000
0000
,
0110
0000
0000
0000
0000
0000
0000
0100
,
0000
0000
0000
0000
,
0000
0000
0000
0000
,
1001
0000
0000
0000
;
