#TITLE:두근두근;
#SUBTITLE:(Original Ver.);
#ARTIST:써니힐;
#TITLETRANSLIT:DUGEUN DUGEUN;
#SUBTITLETRANSLIT:;
#ARTISTTRANSLIT:SUNNY HILL;
#CREDIT:DigiMindAxel;
#BANNER:DUGEUN DUGEUN (Original Ver.).png;
#BACKGROUND:DUGEUN DUGEUN (Original Ver.)-bg.png;
#LYRICSPATH:DUGEUN DUGEUN (Original Ver.).lrc;
#CDTITLE:DigiMindAxel original simfile.png;
#MUSIC:DUGEUN DUGEUN (Original Ver.).ogg;
#METERTYPE:DDR X;
#OFFSET:-0.488;
#SAMPLESTART:57.844;
#SAMPLELENGTH:12.000;
#SELECTABLE:YES;
#BPMS:0.000=63.500,14.000=127.000;
#STOPS:41.500=1.417
;
#BGCHANGES:-1.000=DUGEUN DUGEUN (Original Ver.).avi=1.000=1=1=0,
99999=-nosongbg-=1.000=0=0=0 // don't automatically add -songbackground-
;

//---------------dance-single - ----------------
#NOTES:
     dance-single:
     :
     Easy:
     2:
     0.169,0.181,0.078,0.177,0.000:
0000
0000
0000
0000
,
0000
0000
0000
0000
,
0001
0100
0001
2000
,
0000
0000
3001
0000
,
0100
0000
0001
0000
,
1000
0000
0100
0000
,
1000
0000
0001
0000
,
1000
0000
0100
0000
,
1000
0000
0001
0000
,
1000
0000
0100
0000
,
0010
0000
0000
0010
0000
0000
2001
0000
,
0000
3010
0000
0200
,
0000
0310
0000
2000
,
0000
3001
0000
0020
,
0000
0031
0000
0200
,
0000
0310
0000
2000
,
0000
3100
0000
0020
,
0000
0130
0000
2000
,
0000
3001
0100
0020
,
0000
0000
0000
0230
,
0000
0000
0000
0320
,
0000
0000
0000
0230
,
0000
0000
0000
0301
,
0000
1000
0000
0100
,
0000
1000
0000
0001
,
0000
0100
0000
0010
,
0000
0100
0010
1000
,
0000
1001
0000
0001
,
0000
1001
0000
1000
,
0000
0110
0000
0001
,
0000
0010
0100
1000
,
0000
1001
0000
0001
,
0000
1001
0000
1000
,
0000
0110
0000
0001
,
0000
0100
0010
2000
,
0000
3001
0000
1000
,
0100
0010
0001
2000
,
0000
3002
0000
0103
,
0000
0001
1000
0100
,
0000
0100
0000
0000
0010
0000
0001
0000
,
0000
0001
0000
0000
0000
0000
0100
0000
;

//---------------dance-single - ----------------
#NOTES:
     dance-single:
     :
     Medium:
     7:
     0.326,0.316,0.055,0.233,0.000:
0000
0000
0000
0000
,
0000
0000
0000
0000
,
2000
3020
0230
0302
,
0000
0000
0000
0003
1000
0000
0000
0001
,
0100
0001
0000
1000
0001
1000
0000
0001
,
0100
0000
0000
0000
0001
0000
0000
1000
,
0100
1000
0000
0001
1000
0001
0000
0100
,
0001
0000
0000
0000
1000
0000
0000
0100
,
1000
0100
0000
0010
0001
0010
0000
0001
,
1000
0000
0000
0000
0001
0000
0000
0100
,
0010
0100
0000
1001
0000
0000
1001
0000
,
0000
1000
0010
1000
0000
0001
0010
0001
,
0000
1000
0010
1000
0001
0000
0010
0000
,
0000
0100
0010
0100
0000
1000
0010
1000
,
0000
0001
0010
0001
1000
0000
0010
0000
,
0000
0100
0001
0100
0000
0001
1000
0001
,
0000
1000
0100
1000
0001
0000
0100
0000
,
0000
0010
0100
0010
0000
1000
0100
1000
,
0000
0001
0100
0001
1000
0000
0200
0000
,
0000
1000
1300
0000
0000
0000
0020
0000
,
0000
0100
0130
0000
0000
0000
0002
0000
,
0000
0010
0013
0000
0000
0000
0200
0000
,
0000
0010
0310
0000
0001
0000
1001
0000
,
1000
0010
0100
0000
0010
0100
0010
0000
,
0100
0010
1000
0000
0001
1000
0001
0000
,
0010
0100
1000
0000
0100
1000
0100
0000
,
0000
1000
0100
0010
0001
1000
0002
0000
,
0000
0100
0103
0000
0000
0001
2000
0000
,
0000
0100
3100
0000
0000
0010
0002
0000
,
0000
1000
2003
0000
0000
0000
3010
0000
,
0100
0000
0001
0010
0100
1000
0020
0000
,
0000
0100
0130
0000
0000
0001
2000
0000
,
0000
0010
3010
0000
0000
0100
0002
0000
,
0000
1000
1003
0000
0001
0000
0010
0000
,
0100
0000
0010
0001
0100
0010
2000
0000
,
0100
0000
3100
0000
0000
0010
0002
0000
,
0203
2300
3200
0302
,
0010
0000
0013
0000
0100
1000
0001
0000
,
0100
0000
0010
0000
0100
0000
0001
0010
,
0100
1000
0000
0000
1001
0000
1000
0010
,
0100
0001
0000
0000
1001
0000
1000
0000
;

//---------------dance-single - ----------------
#NOTES:
     dance-single:
     :
     Hard:
     9:
     0.404,0.406,0.100,0.321,0.022: // measure 1
0000
0000
0000
0000
,  // measure 2
0000
0000
0000
0000
,  // measure 3
0001
0001
1000
1000
0100
0010
0002
0000
,  // measure 4
0000
0000
0000
0003
1001
0000
1000
0010
,  // measure 5
1000
0001
0000
1000
0001
0010
0000
0001
,  // measure 6
0010
1000
0010
0001
2000
0000
0000
0100
,  // measure 7
3100
0000
0010
0000
0001
1000
0000
0001
,  // measure 8
1000
0010
0001
0010
1000
0000
0001
0000
,  // measure 9
1000
0100
0001
0100
1000
0000
0001
0100
,  // measure 10
0010
0000
1000
0000
0200
0000
0000
0010
,  // measure 11
0310
0001
1000
0200
1300
0000
1001
0000
,  // measure 12
0001
0100
0001
1000
0000
0100
1000
0001
,  // measure 13
0000
1000
0001
0100
1000
0100
0002
0000
,  // measure 14
0000
0010
0013
0000
0100
0000
1000
0001
,  // measure 15
0000
1000
0001
0010
1000
0010
0001
0000
,  // measure 16
0100
0000
0010
0100
0001
1000
0002
0000
,  // measure 17
0203
2300
3200
0310
,  // measure 18
1000
0001
0100
0000
0001
1000
0100
0010
,  // measure 19
0100
0010
0001
0100
0001
0100
0010
0000
,  // measure 20
0000
0000
1000
0000
0200
0000
0000
1000
0000
0000
1000
0000
2300
0000
0000
0000
,  // measure 21
0001
3001
1000
0000
0010
0100
0001
0000
,  // measure 22
0000
0000
0010
0000
0200
0000
0000
1000
0000
0000
1000
0000
2300
0000
0000
0000
,  // measure 23
0010
3010
1000
0000
0001
0000
1001
0000
,  // measure 24
0001
0100
0001
1000
0100
0010
0100
1000
,  // measure 25
0000
0001
0100
0001
1000
0100
0010
0000
,  // measure 26
0001
1000
0000
0100
0000
1000
1001
0000
,  // measure 27
0000
1000
0010
0001
0010
1000
0200
0000
,  // measure 28
0000
0010
0310
0000
0001
0010
0200
0000
,  // measure 29
0000
1000
1300
0000
0010
0001
0002
0000
,  // measure 30
0000
0100
0203
0000
0000
0000
0301
1000
,  // measure 31
0000
0100
0010
0001
0010
0100
2000
0000
,  // measure 32
0000
0010
3010
0000
0100
0001
0020
0000
,  // measure 33
0000
0100
0130
0000
1000
0001
0020
0000
,  // measure 34
0000
0100
0230
0000
1000
0000
1300
0001
,  // measure 35
1000
0000
0001
0000
0010
0000
0100
0000
0010
0000
0001
0000
1001
0000
0000
1000
,  // measure 36
0000
0000
2020
0000
0000
0000
0000
0000
3030
0000
0010
0100
0002
0000
0000
0000
,  // measure 37
0023
0230
2300
3001
,  // measure 38
1000
0020
0000
0000
1030
0001
0010
0100
,  // measure 39
0000
0100
1000
0100
1000
0001
1001
1000
,  // measure 40
0010
0100
0000
0000
0110
0000
1001
0001
,  // measure 41
0100
0020
0000
0000
0130
0000
0001
0000
;

//---------------dance-single - ----------------
#NOTES:
     dance-single:
     :
     Beginner:
     1:
     0.054,0.090,0.044,0.000,0.000:
0000
0000
0000
0000
,
0000
0000
0000
0000
,
1000
0000
0000
0000
,
0000
0000
1000
0000
,
0000
0000
0000
0000
,
0000
0000
0010
0000
,
0000
0000
0000
0000
,
0000
0000
0100
0000
,
0000
0000
0001
0000
,
0000
0000
1000
0000
,
0000
0000
0000
0001
,
0000
0000
0000
0000
,
0000
0000
0000
0010
,
0000
0000
0000
0000
,
0000
0000
0000
0100
,
0000
0000
0000
0010
,
0000
0000
0000
0100
,
0000
0000
0000
1000
,
0000
0000
0000
0001
,
0000
0000
0000
0000
,
0000
0000
0000
0100
,
0000
0000
0000
0000
,
0000
0000
0000
0010
,
0000
0000
0000
1000
,
0000
0000
0000
0001
,
0000
0000
0000
0000
,
0000
0000
0000
1001
,
0000
0000
0000
1000
,
0000
0000
0000
0001
,
0000
0000
0000
0000
,
0000
0000
0000
1001
,
0000
0000
0000
0001
,
0000
0000
0000
1000
,
0000
0000
0000
0000
,
0000
0000
0000
0010
,
0000
0000
0000
0100
,
0000
0000
0000
0010
,
0000
0000
0000
0100
,
0000
0000
0000
0110
,
0000
0000
0000
1001
,
0000
0000
0000
1000
;
