#TITLE:ドルアーガの塔メドレー;
#SUBTITLE:;
#ARTIST:内田哲也;
#TITLETRANSLIT:DRUAGA NO TOU MEDLEY;
#SUBTITLETRANSLIT:;
#ARTISTTRANSLIT:TETSUYA UCHIDA;
#CREDIT:DigiMindAxel;
#BANNER:DRUAGA NO TOU MEDLEY.png;
#BACKGROUND:DRUAGA NO TOU MEDLEY-bg.png;
#LYRICSPATH:;
#CDTITLE:TAIKO NO TATSUJIN.png;
#MUSIC:DRUAGA NO TOU MEDLEY.ogg;
#METERTYPE:DDR X;
#OFFSET:-5.742;
#SAMPLESTART:87.390;
#SAMPLELENGTH:12.000;
#SELECTABLE:YES;
#BPMS:0.000=188.000,78.000=94.000,110.000=188.000,126.500=94.000,127.000=188.000,140.000=94.000,140.500=188.000,153.500=94.000,154.000=188.000,168.500=94.000,194.500=188.000,259.500=94.000;
#STOPS:194.500=0.638
,266.500=0.319
;
#BGCHANGES:;

//---------------dance-single - ----------------
#NOTES:
     dance-single:
     :
     Easy:
     6:
     0.324,0.399,0.108,0.116,0.000:
1000
0001
1000
0000
,
0001
0100
0100
0000
,
0001
0100
0010
0000
,
0100
0010
1000
0000
,
0001
1000
0001
0000
,
1000
0100
0100
0000
,
1000
0100
1000
0000
,
0001
0010
0001
0000
,
0100
0010
0100
0010
,
1000
1000
0000
0010
,
0100
0001
0001
0002
,
0000
1003
0001
1000
,
0001
0000
0100
0010
,
0100
0000
0001
0010
,
0100
0000
1000
0100
,
0010
0000
0001
1000
,
0001
0000
0100
0001
,
0100
0000
0010
1000
,
0010
0000
0100
0010
,
0100
0000
0001
1001
,
1000
1001
0001
1001
,
1000
1001
0001
0110
,
1000
0110
0001
0110
,
1000
0000
1001
0000
0010
0100
0010
0000
,
0100
0001
0100
0000
0010
1000
0010
0000
,
1000
0100
1000
0000
0001
0010
0001
0010
,
0001
0010
0001
0010
0001
1000
0001
1000
,
0001
1000
0001
1000
0001
0000
0000
0000
,
0000
0000
1000
0100
,
0010
0001
1000
1000
,
1000
0000
0001
0010
,
0100
0000
1000
0000
0001
0000
0000
1000
,
0000
0100
0000
0010
0000
0001
0000
1000
,
0000
1000
0000
0001
0000
0010
0000
0100
,
0000
1000
0000
0001
0000
0100
0000
0001
,
0000
1000
0001
0010
,
0100
1000
0010
0100
,
0001
0010
0001
1000
,
0100
0000
0010
0000
0000
0001
0000
0100
,
0000
0001
0000
1000
0000
0010
0000
1000
,
0000
0100
0000
0010
0000
0001
0000
1000
,
0000
0010
0000
0100
0000
0001
0000
1000
,
0000
0002
0000
0000
0000
0023
0000
0000
,
0000
0230
0000
0000
0000
2300
0000
0000
,
0000
3001
0000
0000
0000
0200
0000
0000
,
0000
0320
0000
0000
0000
2030
0000
0000
,
0000
3002
0000
0000
0000
0103
0000
0000
,
0110
0000
0000
0110
0000
0000
2002
0000
,
0000
0000
3003
0000
0000
0000
0000
1000
,
0000
0001
0000
1000
0000
0100
0000
0010
,
0000
0001
0000
0100
0000
0010
0000
0100
,
0000
0100
0000
0010
0000
0010
0000
1000
,
0000
0100
0000
0010
0000
0001
0000
1000
,
0000
0000
0000
0001
0000
1000
0000
0100
,
0000
0000
0000
1000
0000
0001
0000
0100
,
0000
0001
0000
0010
0000
0100
0000
1000
,
0000
0010
0000
0100
0000
0010
0000
0020
,
0000
0000
0000
1030
0000
2000
0000
0000
,
0000
3000
0000
0001
0000
0001
0000
1000
,
0000
0100
0000
0010
0000
0001
0000
1000
,
0000
1000
0000
0010
0000
0100
0000
1001
,
0000
0000
0000
0010
0000
0100
0000
1000
,
0000
0001
0000
1000
0000
0001
0000
0010
,
0000
0010
0000
0100
0000
0100
0000
0001
,
0000
0010
0000
0100
0000
1000
0000
0001
,
0000
0001
0000
1000
0000
0001
0000
1000
,
0000
0020
0000
0000
0000
0030
1001
0000
,
0001
0010
0100
0000
0010
0001
1000
0000
,
0010
0100
0001
0000
1000
1000
0000
0000
;

//---------------dance-single - ----------------
#NOTES:
     dance-single:
     :
     Medium:
     10:
     0.483,0.599,0.083,0.091,0.121:
1001
0000
1000
0100
1000
0000
0100
0000
,
0010
0000
0001
1000
0001
1000
0001
0000
,
0010
0000
0200
0000
1300
0001
0100
0000
,
0010
0000
1000
0001
1000
0000
0010
0000
,
0100
0001
0100
0010
1000
0000
0100
0000
,
0010
0000
0001
1000
0001
1000
0001
0000
,
0100
2000
3100
0002
,
1003
0000
0010
0100
0010
0000
0000
0000
,
1000
0000
0100
0000
0010
0001
0010
0001
,
0010
0100
1000
0000
0010
0000
0100
0000
,
0010
1000
0010
1000
0010
0100
0002
0000
,
0000
1003
1001
0001
,
0100
0001
0100
0000
0010
0000
1000
0000
,
0100
0000
0010
0001
1000
0000
0100
0000
,
0010
0100
1000
0000
0001
0000
0100
0010
,
0100
0010
0100
0000
0001
1000
0100
0000
,
0001
0000
0100
0000
1000
0000
0010
0100
,
0010
0000
1000
0100
0010
0000
0001
0010
,
0100
0000
1000
0001
2000
0000
0100
0000
,
3100
0000
1001
1000
,
0001
0100
0001
1000
,
0010
0100
0001
0010
,
0100
1000
0001
0010
,
0100
0000
1000
0000
0010
0100
0010
1000
,
0100
0000
0010
0000
0001
0000
0010
0000
0001
0000
0000
1000
0000
0001
0000
0000
,
0100
0000
0000
0001
0000
0010
0000
0000
0001
1000
0000
0001
1000
0000
0001
1000
,
0000
0001
1000
0000
0001
1000
0000
0100
0010
0000
0100
0010
0000
0100
0010
0000
,
0100
0010
0000
0100
0010
0000
0100
0010
0100
0000
0000
0000
0000
0000
0000
0000
,
0000
0000
0000
0000
1000
0001
1000
0001
,
1000
0100
0010
0001
,
0100
0000
0010
0000
0100
0001
0100
0001
,
1000
0100
1000
0000
0100
0000
0000
0010
,
0001
0010
0001
0100
0010
0100
0000
0001
,
0000
0010
0000
0100
0000
1000
0010
1000
,
0010
1000
0000
0001
0000
0100
0000
0010
,
0000
0000
1000
0001
1000
0001
0100
0001
,
1000
0100
0010
0001
,
0100
0010
0100
0001
1000
0001
1000
0000
,
0100
0000
0010
0000
0000
0100
1000
0100
,
1000
0001
0100
0001
0000
0010
0000
0100
,
0000
0010
0000
0001
1000
0001
1000
0010
,
0100
0010
0000
1000
0000
0001
0000
0000
,
0000
1000
1000
1000
1000
0100
0100
0100
,
0100
0010
0010
0010
0010
0001
0001
0001
,
0001
0200
0000
0000
0300
0001
0001
0001
,
0001
0010
0010
0010
0010
0100
0100
0100
,
0100
0000
1000
0000
1000
0000
1000
0000
1000
0000
0010
0100
0000
0010
0000
0000
,
0100
0010
0000
0100
0000
0000
0001
1000
0000
0001
0000
1000
0020
0000
0000
0000
,
0000
0000
0030
0000
0000
1000
0010
1000
0001
0010
0001
0000
0000
0000
1001
0000
,
0000
0001
0000
1000
0000
0001
0010
0100
,
0000
1000
0010
1000
0000
0002
0000
1000
,
0000
1003
0000
0001
0100
0001
0000
0010
,
0000
0100
0000
1000
0000
0001
1000
0010
,
0000
1000
0000
0001
0000
0010
0100
1000
,
0000
0010
0100
0001
0000
0200
0000
0010
,
0000
0310
0000
1000
0100
1000
0000
0100
,
0000
0001
0000
0100
0000
1000
0000
0020
,
0000
0000
0000
0130
0000
0002
0000
0000
,
0000
0000
0000
1003
0000
1000
0000
0001
,
0000
0001
0000
0100
0010
1000
0001
1000
,
0000
0100
0000
0010
0000
0001
0000
0101
,
0000
0000
0010
0100
0000
0001
1000
0001
,
0000
0010
0000
0100
0000
0010
0001
0100
,
0000
0100
0000
0010
1000
0100
0010
0001
,
0000
0100
0000
0010
1000
0100
0010
0001
,
0001
1000
1000
0010
0100
0001
0010
0100
,
1000
0010
0100
0001
0001
0001
1001
0001
,
0101
0000
0000
0000
0010
1000
0010
0000
1010
0000
0000
0000
0100
0010
0100
0000
,
0110
0000
0000
0000
0001
0010
0001
0000
1001
0000
1000
0001
0000
0000
0000
0000
;

//---------------dance-single - ----------------
#NOTES:
     dance-single:
     :
     Hard:
     13:
     0.628,0.742,0.166,0.233,0.262:
1001
0000
1000
0001
0100
0001
1000
0000
,
0001
0000
0010
0010
0100
0100
0001
0100
,
1000
0000
0020
0000
1030
0100
0010
0001
,
0100
0000
0010
1000
0001
1000
0010
0000
,
2000
3010
0200
0301
,
2000
0000
3010
0010
0100
0100
1000
0100
,
0001
0000
1000
0100
0010
0001
0100
0000
,
0001
0100
0010
0000
1000
0000
0000
0000
,
0001
0000
1001
0000
1000
0100
0001
0100
,
1000
0010
0100
0000
0001
0000
1000
0000
,
0001
0010
1000
0010
0001
0100
0020
0000
,
0000
0000
1030
0000
1001
0000
0001
1000
,
0100
1000
0001
0000
0100
0000
0010
1000
,
0010
1000
0001
0010
0100
0000
1001
0000
,
1000
0010
0001
0010
1000
0000
0010
0010
,
0100
0100
0001
0000
1000
0100
0010
0000
,
1000
0010
0001
0000
1001
0000
0001
0100
,
0010
0100
0001
0010
0100
0000
1000
0010
,
0100
0001
0100
0000
0001
0010
0100
0000
,
0110
0000
0000
0000
0000
0000
0000
0000
1001
0000
0100
0000
0010
0000
0001
1000
,
0000
0000
0100
0000
0010
0000
0001
1000
0000
0000
0010
0000
0100
0000
0001
1000
,
0000
0000
0010
0000
0100
0000
0001
2000
0000
0000
3001
0000
0001
0000
0010
0100
,
0000
0000
1000
0000
0001
0000
0010
0100
0000
0000
0010
0000
0001
0000
0010
0100
,
0000
0000
1000
0000
0001
0000
0010
0100
0020
0000
0032
0000
0103
0001
1000
0100
,
0000
0000
2000
0000
3100
1000
0010
0000
0100
0001
0000
0001
0000
1000
0010
0000
,
0100
0010
0000
0010
0000
1000
0001
0000
0100
0001
0000
0001
1000
0000
1000
0001
,
0000
0001
0100
0000
0001
1000
0000
1000
0100
0000
0100
1000
0000
1000
0001
0000
,
0010
0001
0000
0001
1000
0000
0010
0100
0020
0000
0000
0000
0000
0000
0000
0000
,
0000
0100
0130
0000
0001
0010
1000
0010
,
0001
0010
0100
0000
1000
0010
0001
0010
,
1000
0010
0100
0000
0001
0010
0100
0010
,
0001
0100
1000
0100
0001
1000
0000
0010
,
0100
0010
1000
0100
0001
0100
0000
1000
,
0010
0001
0010
1000
0010
0100
0000
0001
,
0100
1000
0100
0001
0010
0100
1000
0100
,
0010
0000
0001
0010
0100
0001
0100
1000
,
0001
0000
1000
0010
0100
1000
0100
0001
,
1000
0000
0001
0100
0010
0001
0010
1000
,
0001
0010
0100
0010
0000
0001
0100
1000
,
0100
0001
1000
0100
0000
0010
0100
1000
,
0001
0010
1000
0010
0001
0100
0000
0010
,
1000
0100
0001
0100
1000
0001
0100
0100
,
0000
0000
1001
0000
1000
0000
1100
0000
0000
0000
0000
0010
0100
0000
0001
0000
,
0000
0000
1000
0000
0001
0000
0011
0000
0000
0000
0000
0100
0010
0000
1000
0100
,
0000
0220
0000
0000
0330
0201
0010
0001
,
0310
0002
0010
0100
1003
0020
0100
1000
,
0130
0000
2000
0000
0100
0000
0010
0000
3001
0000
1000
0100
0000
0001
0000
0100
,
1000
0100
0000
0010
0000
0001
0010
1000
0000
0010
0000
0001
2000
0000
0000
0000
,
0000
0000
3000
0000
0000
0100
0010
0001
0010
0100
1001
0000
0000
0000
1001
0000
,
0000
0001
0100
0010
0100
0001
0010
2000
,
0000
0000
0000
3010
0000
0000
0001
0000
0000
0100
0000
0000
0000
0000
0000
0010
0000
0000
0000
0010
0000
2000
0000
0000
,
0000
3001
0000
1000
0100
0001
0100
1000
,
0010
0100
0001
0010
0100
1000
0000
0002
,
0000
1003
0010
0100
0000
0001
0010
1000
,
0010
0000
0000
0001
0000
0000
0100
0000
0000
0010
0000
0000
0000
0000
0000
0100
0000
0000
0000
0100
0000
0002
0000
0000
,
0000
1003
0000
0010
1000
0100
0010
0001
,
0100
0000
0000
0010
0000
0000
0100
0000
0000
0001
0000
0000
0100
0000
0000
0010
0000
0000
0000
1000
0000
0020
0000
0000
,
0000
0000
0000
0130
0000
0000
0000
0000
0000
0110
0000
0000
0000
0000
0000
0100
0000
0000
0000
0001
0000
0200
0000
0000
,
0000
0000
0000
0310
0000
0000
0000
0000
0000
0110
0000
0000
0000
0000
0000
1000
0000
0000
0000
0010
0000
0100
0000
0000
,
0000
1001
0000
0001
0010
1000
0010
0001
,
0100
0010
0100
0001
1000
0100
0010
0100
,
0000
1000
0001
0010
0100
0010
0001
0200
,
0000
0000
0000
0310
0000
0000
1000
0000
0000
0100
0000
0000
0000
0000
0000
1000
0000
0000
0000
0010
0000
0200
0000
0000
,
0000
0301
0000
1000
0010
0001
0010
1000
,
0001
0010
0100
1000
0001
0001
1000
0020
,
0000
1030
0001
0000
1000
0100
2000
0000
0000
3001
0100
0000
0001
0000
1000
0000
,
0010
0000
0100
0001
0100
0001
1000
0000
0001
0000
1000
0000
1001
0000
1000
0010
,
0110
0000
0000
0100
0001
0010
0100
0000
1000
0020
0000
0030
0100
0100
0100
0000
,
0110
0000
0000
0010
1000
0010
0100
0000
0001
0100
0010
1000
0000
0000
0000
0000
;

//---------------dance-single - ----------------
#NOTES:
     dance-single:
     :
     Challenge:
     15:
     0.768,0.885,0.150,0.258,0.727:
2001
0000
0000
3020
0000
0000
1030
0100
0010
0001
0000
0100
,
0020
0000
0000
0000
0000
0000
1000
0000
0000
1030
0000
0000
0001
0000
0000
0001
0000
0000
1000
0000
0010
0000
0100
0000
,
0001
0000
0000
2001
0000
0000
3001
0010
0001
0010
0100
1000
,
0020
0000
0130
0001
1000
0010
1000
0000
,
0001
0000
0001
0100
0000
0010
1000
0001
1000
0001
0000
0100
,
0020
0000
0000
0000
0000
0000
1000
0000
0030
1000
0000
0000
0001
0000
0000
0001
0000
0000
1000
0000
0010
0000
0100
0000
,
0001
0000
0000
0001
0010
0100
1000
0000
0001
1000
0000
1000
,
0020
0000
0000
0130
0000
0000
0101
0000
0000
1000
0000
1000
,
0020
0000
0000
0130
0000
0000
0001
0100
0001
1000
0100
1000
,
0100
0010
0001
0010
0000
0000
0001
0000
0001
0020
0000
0000
,
0130
1000
0001
0010
0001
0010
0100
1000
0100
0020
0000
0000
,
0000
0130
1002
0203
,
0301
0000
0100
0000
0010
0000
1000
0000
0000
0000
0001
0000
0200
0000
0000
0000
0000
0000
0301
0000
0000
1000
0000
0000
,
0100
0000
0000
1000
0000
0000
0001
0000
0100
0000
0001
0000
1000
0000
0000
0000
0000
0000
1200
0000
0000
0000
0000
0000
,
1300
0000
0100
0000
1000
0000
0001
0000
0010
0000
0001
0000
0200
0000
0000
0000
0000
0000
0001
0000
0000
0301
0000
0000
,
1000
0000
0000
1000
0000
0000
0001
0000
0000
0000
0000
0000
0100
0000
0000
0000
0100
0000
0010
0000
0000
0000
1000
0000
,
0001
0000
1000
0000
0100
0000
1000
0000
0000
0000
0010
0000
0200
0000
0000
0000
0000
0000
0301
0000
0000
1000
0000
0000
,
0100
0000
0000
1000
0000
0000
0001
0000
0010
0000
0100
0000
1000
0000
0000
0000
0000
0000
1000
0000
0010
0000
0100
0000
,
0001
0000
0000
0000
0001
0000
1000
0000
0000
0000
1000
0000
0020
0000
0000
0000
0000
0000
0130
0000
0000
0001
0000
0000
,
0020
0000
0000
0000
0030
0000
0000
0000
0101
0000
0100
0000
0001
0000
1000
0100
,
0000
0000
1000
0000
0010
0100
0010
1000
0000
0000
0001
0000
1000
0000
0001
0010
,
0000
0000
0100
0000
0010
0001
0010
0200
0000
0000
1300
0000
1000
0000
0010
0100
,
0000
0000
0001
0000
1000
0100
1000
0010
0000
0000
0100
0000
0001
0000
0100
0010
,
0000
0000
0100
0000
0001
1000
0100
0010
0001
0000
0001
0000
1000
0100
1000
0010
,
0000
0000
1000
0000
0001
0010
0001
0100
0010
1000
0000
0100
0001
0100
1000
0000
,
0010
0100
0000
0001
1000
0001
0100
0000
0001
0100
0000
0100
1000
0000
1000
0100
,
0000
0100
0001
0000
1000
0010
0000
0010
0001
0000
0001
0010
0000
0010
1000
0000
,
0010
0100
0000
0100
0001
0010
0100
1000
0002
0000
0000
0000
0000
0000
0000
0000
,
0000
0000
0103
0000
0010
0100
0010
0100
0010
0000
1000
0000
0100
0000
0001
0000
,
0100
1000
0010
0001
0010
1000
0010
0100
,
0001
0010
0100
1000
0100
0001
0100
1000
,
0010
0000
0001
0000
0010
0000
1000
0000
0010
0000
0100
0001
0100
0000
0001
0000
,
0100
0010
0001
0010
1000
0001
0010
0100
,
1000
0100
0010
0001
0100
0010
0001
0010
,
1000
0001
0010
0100
0010
0001
1000
0010
,
0100
0010
0100
0000
0001
0000
1000
0000
0010
0000
0100
0000
1000
0000
0100
0000
,
0001
1000
0010
0100
0001
1000
0010
0100
,
1000
0100
0001
1000
0010
0100
0001
0010
,
1000
0000
0010
0000
0001
0000
1000
0010
1000
0000
0001
0000
1000
0000
0010
0000
,
0100
1000
0100
0001
0010
0100
1000
0001
,
1000
0010
0100
1000
0100
0001
0010
0100
,
1000
0000
0001
0000
0100
0000
0010
0000
1000
0000
0010
0100
0010
0000
0100
0000
,
0000
0000
0001
0100
0001
0100
0001
0100
0001
0100
1000
0100
1000
0100
1000
0100
,
1000
0100
0001
0010
0001
0010
0001
0010
0001
0010
1000
0010
1000
0010
1000
0010
,
1000
0010
0002
0000
0000
0000
0000
0000
0003
0000
1000
0100
1000
0100
1000
0100
,
1000
0100
0001
0100
0001
0100
0001
0100
0001
0100
1000
0010
1000
0010
1000
0010
,
1000
0010
0001
0010
0001
0010
0001
0010
0001
0010
1000
0100
0000
1100
0000
0010
,
0001
0100
0000
0101
0000
0010
0100
0010
0000
1001
0000
1000
0010
0100
0010
0100
,
0010
0100
0010
0100
0000
0001
0001
1000
1000
0100
0110
0000
0000
0000
1001
0000
,
0000
0000
1000
0000
0100
0000
0010
0000
0100
0000
1000
0001
1000
0001
2000
0000
,
0000
0000
0000
3010
0000
0000
0100
0000
0000
0001
0000
0000
0010
0000
0000
0100
0000
0000
0000
1000
0000
0001
0000
0000
,
0000
0001
0000
0100
0000
0000
0000
0000
0000
0010
0000
0000
1000
0000
0000
0100
0000
0000
0001
0000
0000
0100
0000
0000
,
1000
0010
0100
0001
0001
1000
1000
0010
,
0000
0000
0100
0000
0001
0000
0010
0000
0100
0000
0010
0001
0010
0001
0020
0000
,
0000
0000
0000
0130
0000
0000
1000
0000
0000
0010
0000
0000
0000
0000
0000
0100
0000
0000
0000
0010
0000
1000
0000
0000
,
0000
1000
0000
0001
0000
0000
0000
0000
0000
0100
0000
0000
0001
0000
0000
0010
0000
0000
1000
0000
0000
0010
0000
0000
,
0001
0000
0000
0100
0000
0000
0010
0000
0000
1000
0000
0000
1000
0000
0000
0010
0000
0000
0000
0100
0000
0002
0000
0000
,
0000
0000
0000
1003
0000
0000
0000
0000
0000
0100
0000
0000
0000
0010
0000
0001
0000
0000
0000
0001
0000
2000
0000
0000
,
0000
0000
0000
3100
0000
0000
0000
0000
0000
0110
0000
0000
0000
0000
0000
0001
0000
0000
0000
0100
0000
0010
0000
0000
,
0000
0102
0000
0013
0100
1000
0001
0100
,
0001
0001
1000
1000
0100
0010
0001
1001
,
0000
0000
0010
0000
1000
0000
0100
0000
1000
0000
0001
0100
0001
0100
0002
0000
,
0000
0000
0000
0013
0000
0000
0100
0000
0000
1000
0000
0000
0010
0000
0000
0100
0000
0000
0000
0010
0000
1000
0000
0000
,
0000
1000
0000
0001
0000
0000
0000
0000
0000
0010
0000
0000
0100
0000
0000
1000
0000
0000
0001
0000
0000
1000
0000
0000
,
0010
0001
0010
1000
0001
0100
0010
2000
,
0000
0000
0000
0000
0000
0000
0000
0000
0000
0000
0000
0000
3010
0000
0000
0000
0000
0000
0000
0000
0000
0000
0000
0000
0100
0000
0000
0000
0000
0000
0000
0000
0000
0000
0000
0000
0000
0000
0000
0000
0000
0000
0000
0000
0000
0000
0000
0000
0001
0000
0000
0000
0000
0000
0100
0000
0000
0000
0000
0000
0001
0000
0000
0000
0000
0000
0100
0000
0000
0000
0000
0000
0002
0000
0000
0000
0000
0000
0000
0000
0000
0000
0000
0000
0000
0000
0000
0000
0000
0000
0000
0000
0000
0000
0000
0000
0000
0000
0000
0000
0000
0000
0000
0000
0000
0000
0000
0000
0103
0000
0000
0000
0000
0000
0000
0000
0000
0000
0000
0000
0020
0000
0000
0000
0000
0000
0000
0000
0000
0000
0000
0000
0000
0000
0000
0000
0000
0000
0000
0000
0000
0000
0000
0000
1030
0000
0000
0000
0000
0000
0000
0000
0000
0000
0000
0000
0000
0000
0000
0000
0001
0000
0000
0000
0000
0000
0000
0000
0100
0000
0000
0000
0000
0000
0000
0000
0000
0000
0000
0000
0000
0000
0000
0000
0000
0000
0000
0000
0000
0000
0000
0000
,
0100
0000
0010
1000
0100
0010
0002
0000
0100
0000
0103
0000
1001
0000
1000
0001
,
0101
0000
0100
0010
1000
0100
0010
0000
0001
1000
0010
0000
0100
0010
0100
0000
,
1010
0000
0010
0100
0001
0010
0100
0000
1000
0001
0100
0110
0000
0000
0000
0000
;

//---------------dance-single - ----------------
#NOTES:
     dance-single:
     :
     Beginner:
     3:
     0.132,0.169,0.042,0.000,0.000:
1000
0000
1000
0000
,
1000
0000
0000
0000
,
0001
0000
0001
0000
,
0001
0000
0000
0000
,
0100
0000
0010
0000
,
0100
0000
0000
0000
,
0010
0000
0100
0000
,
0010
0000
0000
0000
,
1000
0000
0001
0000
,
1000
0000
0000
0000
,
0001
0000
1000
0000
,
0000
0000
0010
0000
,
0100
0000
0010
0000
,
0000
1000
0000
0001
,
0000
1000
0000
0000
,
0000
0000
0100
0000
,
1000
0000
0100
0000
,
0000
0010
0000
0001
,
0000
0010
0000
0000
,
0000
0000
1001
0000
,
0000
0001
0000
1000
,
0000
0001
0000
0010
,
0000
0100
0000
1000
,
0000
0001
0000
1000
,
0000
0010
0000
0100
,
0000
0001
0000
0001
,
0000
1000
0000
1000
,
0000
0001
0000
0000
,
0000
0000
1001
0000
,
0000
0000
1000
0000
,
0000
0000
0001
0000
,
0000
0000
0000
0000
1000
0000
0000
0001
,
0000
0000
0000
0000
0000
0000
0000
1000
,
0000
0000
0000
0000
0000
0000
0000
0001
,
0000
0000
0000
0000
0000
0000
0000
1000
,
0000
0001
0000
0000
,
0000
1000
0000
0000
,
0000
0010
0000
0000
,
0000
0000
0100
0000
0000
0010
0000
0000
,
0000
0000
0000
0000
0000
0100
0000
0000
,
0000
0000
0000
0000
0000
0010
0000
0000
,
0000
0000
0000
0000
0000
0100
0000
0000
,
0000
1001
0000
0000
0000
0000
0000
0000
,
0000
0001
0000
0000
0000
0000
0000
0000
,
0000
1000
0000
0000
0000
0001
0000
0000
,
0000
0000
0000
0000
0000
0100
0000
0000
,
0000
0000
0000
0000
0000
0010
0000
0000
,
0000
0000
0000
0000
,
0000
0000
0000
0000
0000
0110
0000
1000
,
0000
0000
0000
0001
0000
0000
0000
1000
,
0000
0000
0000
0001
0000
0000
0000
0010
,
0000
0000
0000
0001
0000
0000
0000
0010
,
0000
0000
0000
0000
0000
0000
0000
0100
,
0000
0000
0000
1000
0000
0000
0000
0100
,
0000
0000
0000
1000
0000
0000
0000
0001
,
0000
0000
0000
0001
0000
0000
0000
1000
,
0000
0000
0000
1000
0000
0000
0000
0010
,
0000
0000
0000
0100
0000
0000
0000
0010
,
0000
0000
0000
0100
0000
0000
0000
0001
,
0000
0000
0000
1000
0000
0000
0000
0001
,
0000
0000
0000
0000
0000
0000
0000
0100
,
0000
0000
0000
0010
0000
0000
0000
0100
,
0000
0000
0000
0001
0000
0000
0000
1000
,
0000
0000
0000
1000
0000
0000
0000
0001
,
0000
0000
0000
0001
0000
0000
0000
0100
,
0000
0000
0000
0100
0000
0000
0000
0100
,
0000
0000
0000
0100
0000
0000
1001
0000
,
0000
0001
1000
0001
;

//---------------dance-double - ----------------
#NOTES:
     dance-double:
     :
     Easy:
     6:
     0.330,0.399,0.083,0.116,0.000:
10000000
01000000
10000000
01000000
,
00100000
00001000
00001000
00000000
,
00010000
00000010
00010000
00000010
,
00000100
00000001
00000010
00000000
,
00000001
00000010
00000001
00000010
,
00000100
00010000
00010000
00000000
,
00001000
00010000
00001000
00000000
,
01000000
00001000
01000000
00000000
,
00100000
01000000
00100000
01000000
,
00010000
00010000
00000000
00100000
,
01000000
10000000
10000000
20020000
,
00000000
30030000
00100000
10000000
,
00001000
00010000
00001000
00010000
,
00000010
00000000
00000100
00000010
,
00000100
00000001
00000010
00000100
,
00001000
00000000
00000010
00010000
,
00000010
00010000
00001000
00100000
,
01000000
00000000
10000000
00100000
,
10000000
00100000
01000000
00100000
,
01000000
00000000
10010000
01000000
,
00100000
00001000
00010000
00000010
,
00000100
00000001
00000010
00000100
,
00000010
00000001
00001000
00000100
,
00010000
00000000
00001000
00000000
00100000
01000000
00100000
00000000
,
00010000
01000000
00010000
00000000
10000000
00100000
10000000
00000000
,
00100000
01000000
00100000
00000000
10000000
00100000
10000000
00100000
,
01000000
00001000
01000000
00001000
00010000
00001000
00010000
00001000
,
00000100
00000010
00000100
00000010
00000100
00000000
00000000
00000000
,
00000000
00000000
00001001
00000100
,
00000010
00000001
00000100
00000100
,
00000100
00000000
00000001
00000010
,
00000100
00001000
00010000
00000000
,
00000000
00001000
00000000
00100000
00000000
01000000
00000000
10000000
,
00000000
00100000
00000000
00100000
00000000
10000000
00000000
01000000
,
00000000
00100000
00000000
00010000
00000000
00001000
00000000
00010000
,
00000000
00000010
00000100
00000001
,
00000100
00000010
00010000
00001000
,
00100000
01000000
10000000
01000000
,
00100000
00000000
00001000
00000000
00000000
00010000
00000000
00000010
,
00000000
00010000
00000000
00000001
00000000
00010000
00000000
00000100
,
00000000
00010000
00000000
00001000
00000000
00100000
00000000
01000000
,
00000000
00100000
00000000
00001000
00000000
00010000
00000000
00001000
,
00000000
02100000
00000000
00000000
00000000
03200000
00000000
00000000
,
00000000
02300000
00000000
00000000
00000000
03020000
00000000
00000000
,
00000000
10030000
00000000
00000000
00000000
00012000
00000000
00000000
,
00000000
00023000
00000000
00000000
00000000
00030020
00000000
00000000
,
00000000
00000230
00000000
00000000
00000000
00000310
00000000
00000000
,
00000110
00000000
00000000
00001001
00000000
00000000
00002002
00000000
,
00000000
00000000
00003003
00000000
00000000
00000000
00000000
00000001
,
00000000
00001000
00000000
00000001
00000000
00000010
00000000
00000100
,
00000000
00000010
00000000
00000001
00000000
00000100
00000000
00000010
,
00000000
00000010
00000000
00010000
00000000
00010000
00000000
00001000
,
00000000
01000000
00000000
00100000
00000000
10000000
00000000
00100000
,
00000000
00000000
00000000
00100000
00000000
01000000
00000000
00010000
,
00000000
00000000
00000000
00010000
00000000
10000000
00000000
01000000
,
00000000
00100000
00000000
01000000
00000000
10000000
00000000
00010000
,
00000000
00100000
00000000
01000000
00000000
00100000
00000000
00002000
,
00000000
00000000
00000000
00013000
00000000
00020000
00000000
00000000
,
00000000
00000000
00000000
00031000
00000000
00010000
00000000
00000010
,
00000000
00010000
00000000
00000100
00000000
00000010
00000000
00000001
,
00000000
00000001
00000000
00000010
00000000
00000100
00000000
00001001
,
00000000
00000000
00000000
00000100
00000000
00000010
00000000
00000001
,
00000000
00001000
00000000
00000001
00000000
00001000
00000000
00000100
,
00000000
00000100
00000000
00010000
00000000
00010000
00000000
00001000
,
00000000
00100000
00000000
01000000
00000000
10000000
00000000
00010000
,
00000000
00010000
00000000
10000000
00000000
01000000
00000000
00100000
,
00000000
00010000
10000000
00010000
00000000
00000000
10010000
00000000
,
10000000
00100000
10000000
00000000
00001000
00100000
00001000
00000000
,
00010000
00000100
00010000
00000100
00000010
00000010
00000000
00000000
;

//---------------dance-double - ----------------
#NOTES:
     dance-double:
     :
     Medium:
     10:
     0.495,0.599,0.133,0.083,0.125:
10010000
00000000
10000000
00100000
10000000
00000000
00100000
00000000
,
01000000
00000000
00001000
00010000
00001000
00010000
00001000
00000000
,
00010000
00000000
00000020
00000000
00000130
00000001
00000010
00000100
,
00001000
00000000
00000001
00000100
00000001
00000000
00000100
00000000
,
00000010
00000100
00000010
00010000
00001000
00000000
00100000
00000000
,
01000000
00000000
00100000
01000000
00100000
01000000
10000000
00000000
,
00010000
02000000
03010000
00200000
,
01300000
00000000
10000000
00010000
10000000
00000000
00000000
00000000
,
01000000
00000000
00100000
00000000
00001000
00010000
00001000
00010000
,
00000010
00010000
00000010
00000000
00000100
00000000
00000001
00000000
,
00000010
00000100
00000010
00000100
00001000
00010000
00200000
00000000
,
00000000
01300000
01100000
00100000
,
10000000
01000000
00100000
00010000
10000000
00000000
01000000
00000000
,
10000000
00000000
00100000
01000000
00002000
00000000
00013000
00000000
,
00000010
00001000
00000100
00000010
00000001
00000000
00000100
00000001
,
00000100
00000001
00010000
00000000
00001000
01000000
00100000
00000000
,
01000000
00000000
00010000
00000000
10000000
00000000
01000000
00100000
,
00010000
00000000
10000000
01000000
00100000
00000000
00001000
01000000
,
00001000
00000000
00010000
00000010
00010000
00000000
00000010
00000000
,
00000100
00000000
00001001
00000100
,
00000010
00000001
00000010
00000100
,
00001000
00010000
01000000
00100000
,
10000000
00100000
01000000
00010000
,
00001000
00000000
00000010
00000000
00000100
00000001
00000010
00000000
,
00000001
00000000
00000010
00000000
00000100
00000000
00000000
00000000
00010000
00000000
00000000
00001000
00000000
01000000
00000000
00000000
,
00010000
00000000
00000000
10000000
00000000
00010000
00000000
00000000
10000000
01000000
00000000
10000000
01000000
00000000
10000000
01000000
,
00000000
10000000
01000000
00000000
10000000
01000000
00000000
10000000
00010000
00000000
10000000
00010000
00000000
10000000
00010000
00000000
,
10000000
00010000
00000000
10000000
00010000
00000000
10000000
00010000
10000000
00000000
00000000
00000000
00000000
00000000
00000000
00000000
,
00000000
00000000
00000000
00000000
00100000
01000000
00100000
01000000
,
00100000
10000000
01000000
00100000
,
01000000
00000000
10000000
00000000
00100000
01000000
00100000
01000000
,
00001000
00100000
00001000
00000000
00010000
00000000
00000000
00000100
,
00000010
00000100
00000010
00000001
00000100
00000001
00000000
00000100
,
00000000
00000010
00000000
00010000
00000000
00001000
00010000
00001000
,
00010000
00100000
00000000
01000000
00000000
10000000
00000000
00010000
,
00000000
00000000
00100000
01000000
00100000
01000000
00001000
01000000
,
00001000
00010000
00000010
00000100
,
00000001
00001000
00000001
00000010
00000100
00000010
00000100
00000000
,
00010000
00000000
00001000
00000000
00000000
01000000
00100000
01000000
,
00100000
10000000
01000000
10000000
00000000
00100000
00000000
01000000
,
00000000
00010000
00000000
01000000
00001000
01000000
00001000
00010000
,
00000010
00000100
00000000
00000001
00000000
00000100
00000000
00000000
,
00000000
00001001
00000001
00000001
00000001
00000010
00000010
00000010
,
00000010
00000100
00000100
00000100
00000100
00010000
00010000
00010000
,
00010000
00011000
00000000
00000000
00000000
10001000
00001000
00001000
,
00001000
00100000
00100000
00100000
00100000
01000000
01000000
01000000
,
01000000
00000000
10000000
00000000
10000000
00000000
10000000
00000000
10000000
00000000
00010000
10000000
00000000
00010000
00000000
00000000
,
10000000
00010000
00000000
10000000
00000000
00000000
00100000
01000000
00000000
00100000
00000000
01000000
00002000
00000000
00000000
00000000
,
00000000
00000000
00003000
00000000
00000000
00010000
00001000
00010000
00001000
00010000
00000010
00000000
00000000
00000000
00000110
00000000
,
00000000
00000100
00000001
00000100
00000000
00000001
00000010
00000100
,
00000000
00010000
00001000
01000000
00000000
00100000
00000000
10010000
,
00000000
10010000
00000000
00100000
10000000
00100000
10000000
01000000
,
00000000
00100000
00000000
00010000
00000000
01000000
00001000
01000000
,
00000000
00001000
00010000
00001000
00000000
00010000
00000010
00000100
,
00000000
00000001
00000010
00000100
00000000
00010000
00000000
00011000
,
00000000
00011000
00000000
01000000
00100000
01000000
00100000
10000000
,
00000000
01000000
00000000
00100000
00000000
01000000
00000000
20000000
,
00000000
00000000
00000000
30010000
00000000
00200000
00000000
00000000
,
00000000
00000000
00000000
01300000
00000000
10000000
00000000
00100000
,
00000000
00100000
00000000
10000000
01000000
00100000
00010000
01000000
,
00000000
00010000
00000000
10000000
00000000
00010000
00000000
00011000
,
00000000
00000000
00010000
00000010
00000000
00000100
00000010
00000100
,
00000000
00000001
00000100
00000010
00000000
00010000
00001000
01000000
,
00000000
01000000
00000000
00010000
01000000
00100000
10000000
00010000
,
00000000
00100000
00000000
01000000
10000000
00010000
01000000
00002000
,
00000000
00013000
00000010
00000200
00000000
00000310
00001000
00000001
,
00000001
00000010
00000100
00010000
00001000
00010000
10001000
10000000
,
11000000
00000000
00000000
00000000
00100000
01000000
00100000
00000000
01100000
00000000
00000000
00000000
01000000
00010000
01000000
00000000
,
10001000
00000000
00000000
00000000
00010000
00001000
00010000
00000000
00000010
00000100
00000001
00000010
00000000
00000000
00000000
00000000
;

//---------------dance-double - ----------------
#NOTES:
     dance-double:
     :
     Hard:
     13:
     0.607,0.714,0.249,0.075,0.274:
10010000
00000000
10000000
00000000
00010000
00100000
01000000
00100000
,
00010000
00000000
01000000
01000000
00001000
00001000
00010000
00000010
,
00000100
00000000
00001001
00000000
00000001
00000010
00000100
00000010
,
00000001
00000100
00000010
00010000
,
00011000
00011000
01001000
01001000
,
01100000
00000000
00100000
00100000
10000000
10000000
01000000
00100000
,
00010000
00000000
01000000
00010000
10000000
01000000
00100000
00000000
,
00001000
00010000
00000010
00000000
,
00000100
00000000
00000001
00000000
00000010
00000100
00001000
00010000
,
01000000
00100000
10000000
00000000
00100000
00000000
01000000
00000000
,
00100000
10000000
01000000
00100000
00001000
00010000
00000020
00000000
,
00000000
00000130
00001001
00000001
,
00000100
00000001
00000010
00000001
00000100
00000000
00000001
00001000
,
00000001
00000010
00000100
00010000
00001000
00000000
00011000
00000000
,
00001000
01000000
00100000
10000000
01000000
00000000
10000000
10000000
,
00010000
00010000
00100000
00000000
01000000
10000000
00100000
00000000
,
10000000
01000000
00100000
00000000
01100000
00000000
00100000
00010000
,
10000000
00010000
00100000
00001000
00010000
00000000
00000100
00000010
,
00000001
00001000
00000001
00000000
00000010
00000000
00000100
00000000
,
00011000
00000000
00000000
00000000
00000000
00000000
00000000
00000000
01100000
00000000
00100000
00000000
00100000
00000000
10000000
01000000
,
00000000
00000000
00100000
00000000
00100000
00000000
00010000
01000000
00000000
00000000
00001000
00000000
00001000
00000000
00010000
00000100
,
00000000
00000000
00000010
00000000
00000010
00000000
00000001
00000100
00000001
00000000
00001000
00000000
00001000
00000000
00000100
00010000
,
00000000
00000000
00100000
00000000
00100000
00000000
01000000
00100000
00000000
00000000
00010000
00000000
00010000
00000000
10000000
00100000
,
00000000
00000000
01000000
00000000
01000000
00000000
00010000
10000000
00010000
00000000
00100000
00000000
01000000
10000000
01000000
00100000
,
00000000
00000000
00001000
00000000
00010000
00000100
00010000
00000000
00000010
00000100
00000000
00000100
00000000
00000001
00000100
00000000
,
00000001
00001000
00000000
00001000
00000000
00000100
00001000
00000000
00010000
00100000
00000000
00100000
01000000
00000000
01000000
00100000
,
00000000
00100000
00010000
00000000
10000000
00100000
00000000
00100000
01000000
00000000
01000000
00100000
00000000
00100000
10000000
00000000
,
01000000
00100000
00000000
00100000
00001000
00000000
00010000
00001000
00020000
00000000
00000000
00000000
00000000
00000000
00000000
00000000
,
00000000
00001000
00031000
00000000
00010000
00000100
00000010
00000100
,
00010000
00000100
00000010
00000000
00000001
00000010
00000100
00000010
,
00000001
00000010
00000100
00000000
00010000
00001000
00100000
01000000
,
00100000
00001000
00100000
01000000
10000000
00010000
00000000
10000000
,
00100000
01000000
00100000
10000000
00100000
01000000
00000000
00001000
,
01000000
00100000
01000000
00001000
01000000
00100000
00000000
01000000
,
00001000
00010000
00000010
00000100
00000001
00000100
00000010
00010000
,
00001000
00000000
01000000
00100000
10000000
01000000
10000000
00100000
,
01000000
00000000
00001000
10000000
01000000
10000000
00001000
00010000
,
00000010
00000000
00000100
00000001
00000010
00000100
00000010
00000001
,
00001000
00000010
00001000
00010000
00000000
00100000
01000000
10000000
,
00100000
10000000
01000000
00100000
00000000
00001000
00100000
01000000
,
00100000
00001000
00010000
00000010
00000100
00000010
00000000
00001000
,
00000001
00000010
00000100
00000010
00000001
00001000
00000100
00011000
,
00000000
00000000
01000000
00000000
00100000
00000000
10010000
00000000
00000000
00000000
00000000
00010000
10000000
00000000
10000000
00000000
,
00000000
00000000
00100000
00000000
01000000
00000000
10010000
00000000
00000000
00000000
00000000
10000000
00010000
00000000
00010000
00100000
,
00000000
00022000
00000000
00000000
00033000
00000010
00000100
00001001
,
00000000
00000000
00000000
00000100
00000001
00000000
00000001
00000000
00000000
00000000
00000010
00000000
00000100
00000000
00001001
00000000
,
00000000
00000000
00000000
00000001
00001000
00000000
00001000
00000100
00000000
00000000
00010000
00001000
00000000
00001000
00000000
00001000
,
01000000
00100000
00000000
00100000
00000000
00100000
10000000
01000000
00000000
01000000
00000000
01000000
00200000
00000000
00000000
00000000
,
00000000
00000000
00000000
00000000
00300000
00010000
10000000
01000000
00100000
00010000
10010000
00000000
00000000
00000000
01100000
00000000
,
00000000
00100000
01000000
10000000
00010000
00100000
00001000
00020000
,
00000000
00000000
00000000
00000000
00000000
00000000
00001000
00000000
00000000
00031000
00000000
00000000
00000000
00000000
00000000
00010000
00000000
00000000
00000000
00010000
00000000
00000010
00000000
00000000
,
00000000
00000110
00000000
00000100
00000010
00000001
00000010
00000100
,
00010000
00010000
00001000
00001000
00100000
01000000
10000000
00020000
,
00000000
00000000
01000000
01030000
00000000
00010000
00100000
02000000
,
00000000
00000000
00000000
00000000
00000000
00000000
10000000
00000000
00000000
13000000
00000000
00000000
00000000
00000000
00000000
00100000
00000000
00000000
00000000
00100000
00000000
01000000
00000000
00000000
,
00000000
01001000
00000000
00001000
00010000
00000010
00000100
00000010
,
00000010
00000000
00000000
00001000
00000000
00000000
00001000
00000000
00000000
00000100
00000000
00000000
00000010
00000000
00000000
00000001
00000000
00000000
00000000
00000001
00000000
00000100
00000000
00000000
,
00000000
00000000
00000000
00000010
00000000
00000000
00000000
00000000
00000000
00011000
00000000
00000000
00000000
00000000
00000000
00001000
00000000
00000000
00000000
00001000
00000000
01000000
00000000
00000000
,
00000000
00000000
00000000
00100000
00000000
00000000
00000000
00000000
00000000
10010000
00000000
00000000
00000000
00000000
00000000
10000000
00000000
00000000
00000000
10000000
00000000
00100000
00000000
00000000
,
00000000
01100000
00000000
00100000
01000000
10000000
01000000
00100000
,
00001000
00001000
00010000
00010000
00000010
00000100
00000001
00001001
,
00000000
00001000
00000010
00010000
00001000
01000000
00100000
02000000
,
00000000
00000000
00000000
00000000
00000000
00000000
00100000
00000000
00000000
03100000
00000000
00000000
00000000
00000000
00000000
10000000
00000000
00000000
00000000
10000000
00000000
00001000
00000000
00000000
,
00000000
00101000
00000000
00001000
00010000
00000100
00000010
00000001
,
00000001
00000100
00000100
00000010
00001000
00010000
00100000
01000000
,
00000000
10000000
00100000
00000000
10000000
01000000
00100000
00000000
00000000
00001000
00010000
00000000
00000010
00000000
00000100
00000000
,
00000100
00000000
00000001
00000010
00000100
00000010
00000001
00000000
00001000
00000000
00000010
00000000
00011000
00000000
00001000
01000000
,
00001000
00000000
00000000
10000000
01000000
00100000
01000000
00000000
10000000
00100000
10000000
00000000
00010000
00100000
00001000
00000000
,
00011000
00000000
00000000
00010000
00000010
00000100
00000010
00000000
00001000
00000100
00000010
00001001
00000000
00000000
00000000
00000000
;

//---------------dance-double - ----------------
#NOTES:
     dance-double:
     :
     Challenge:
     15:
     0.761,0.885,0.158,0.175,0.736: // measure 1
10010000
00000000
00000000
01000000
00000000
00000000
01000000
10000000
00100000
01000000
00000000
00001000
,  // measure 2
00020000
00000000
00000000
00000000
00000000
00000000
00000001
00000000
00000000
00030001
00000000
00000000
00000100
00000000
00000000
00000100
00000000
00000000
00000001
00000000
00000010
00000000
00000100
00000000
,  // measure 3
00001000
00000000
00000000
00021000
00000000
00000000
00031000
01000000
00100000
01000000
00001000
00100000
,  // measure 4
02000000
00000000
13000000
00100000
10000000
01000000
00100000
00000000
,  // measure 5
00001000
00010000
00001000
00010000
00000000
00000010
00000100
00000001
00000100
00000001
00000000
00000010
,  // measure 6
00000200
00000000
00000000
00000000
00000000
00000000
00010000
00000000
00000000
00010300
00000000
00000000
00001000
00000000
00000000
00001000
00000000
00000000
00100000
00000000
01000000
00000000
10000000
00000000
,  // measure 7
00100000
00000000
00000000
01000000
00001000
00010000
00000100
00000000
00000010
00000001
00000000
00000001
,  // measure 8
00000200
00000000
00000000
00000310
00000000
00000000
00000110
00000000
00000000
00010000
00000000
00010000
,  // measure 9
00002000
00000000
00000000
01003000
00000000
00000000
00100000
10000000
00100000
10000000
01000000
00100000
,  // measure 10
00001000
00010000
00000100
00000010
00000000
00000000
00000001
00000000
00000001
00000200
00000000
00000000
,  // measure 11
00000301
00000010
00000100
00010000
00001000
00100000
01000000
00100000
01000000
20000000
00000000
00000000
,  // measure 12
00000000
30010000
10010000
01000000
,  // measure 13
01000000
00000000
00100000
00000000
10000000
00000000
01000000
00000000
00000000
00000000
00100000
00000000
00002000
00000000
00000000
00000000
00000000
00000000
00013000
00000000
00000000
00000010
00000000
00000000
,  // measure 14
00000100
00000000
00000000
00000010
00000000
00000000
00010000
00000000
00000100
00000000
00000010
00000000
00000001
00000000
00000000
00000000
00000000
00000000
00002001
00000000
00000000
00000000
00000000
00000000
,  // measure 15
00003010
00000000
00010000
00000000
00000100
00000000
00010000
00000000
00000010
00000000
00001000
00000000
00020000
00000000
00000000
00000000
00000000
00000000
00100000
00000000
00000000
00130000
00000000
00000000
,  // measure 16
01000000
00000000
00000000
01000000
00000000
00000000
10000000
00000000
00000000
00000000
00000000
00000000
00100000
00000000
10000000
00000000
00100000
00000000
10000000
00000000
00000000
00000000
01000000
00000000
,  // measure 17
00100000
00000000
00001000
00000000
00100000
00000000
00001000
00000000
00000000
00000000
00010000
00000000
00000020
00000000
00000000
00000000
00000000
00000000
00000130
00000000
00000000
00000001
00000000
00000000
,  // measure 18
00000010
00000000
00000000
00000100
00000000
00000000
00000010
00000000
00000001
00000000
00000100
00000000
00000001
00000000
00000000
00000000
00000000
00000000
00000100
00000000
00000010
00000000
00010000
00000000
,  // measure 19
00000100
00000000
00000000
00000000
00010000
00000000
00001000
00000000
00000000
00000000
00001000
00000000
01000000
00000000
00000000
00010000
00000000
00000000
00100000
00000000
00000000
01000000
00000000
00000000
,  // measure 20
11000000
00000000
00000000
00000000
00000000
00000000
00000000
00000000
10010000
00000000
10000000
00000000
00100000
00000000
01000000
00001000
,  // measure 21
00000000
00000000
00010000
00000000
00000100
00001000
00000010
00000100
00000000
00000000
00000001
00000000
00000010
00000000
00000100
00010000
,  // measure 22
00000000
00000000
00001000
00000000
01000000
00100000
01000000
00010000
00000000
00000000
10000000
00000000
00100000
00000000
01000000
00001000
,  // measure 23
00000000
00000000
00010000
00000000
00000010
00000100
00000010
00001000
00000000
00000000
00000001
00000000
00000010
00000000
00000100
00010000
,  // measure 24
00000000
00000000
00001000
00000000
00100000
01000000
00100000
00010000
10000000
00000000
00100000
00000000
01000000
00010000
01000000
00001000
,  // measure 25
00000000
00000000
00010000
00000000
00000010
00000100
00000010
00000100
00000001
00000010
00000000
00000010
00000100
00010000
00001000
00000000
,  // measure 26
01000000
00100000
00000000
00100000
10000000
01000000
00100000
00000000
00001000
00010000
00000000
00000100
00000010
00000000
00000001
00000100
,  // measure 27
00000000
00000001
00001000
00000000
00000010
00010000
00000000
00001000
00010000
00000000
00100000
01000000
00000000
10000000
01000000
00000000
,  // measure 28
10000000
00010000
00000000
01000000
00001000
00010000
00000100
00000010
00000002
00000000
00000000
00000000
00000000
00000000
00000000
00000000
,  // measure 29
00000000
00000000
00001003
00000000
00000001
00001000
00000001
00001000
00000001
00000000
00000010
00000000
00000100
00000000
00000001
00000000
,  // measure 30
00000100
00001000
00000001
00000010
00000100
00010000
00001000
00100000
,  // measure 31
10000000
00010000
00100000
01000000
00010000
10000000
01000000
00100000
,  // measure 32
00001000
00000000
00010000
00000000
00000100
00000000
00000001
00000000
00000100
00000000
00010000
00001000
00010000
00000000
00001000
00000000
,  // measure 33
01000000
10000000
01000000
00100000
10000000
01000000
10000000
00100000
,  // measure 34
01000000
00001000
00010000
00000010
00000001
00000010
00000100
00000001
,  // measure 35
00001000
00000010
00000100
00000010
00001000
00000100
00000001
00000100
,  // measure 36
00010000
00001000
00010000
00000000
00001000
00000000
00100000
00000000
10000000
00000000
00100000
00000000
01000000
00000000
10000000
00000000
,  // measure 37
00010000
01000000
00100000
01000000
00010000
00001000
00000010
00000001
,  // measure 38
00000010
00000100
00000001
00001000
00000010
00000100
00000001
00000100
,  // measure 39
00001000
00000000
00000100
00000000
00000001
00000000
00010000
00001000
00010000
00000000
00001000
00000000
01000000
00000000
10000000
00000000
,  // measure 40
01000000
00100000
10000000
01000000
00100000
00010000
01000000
00001000
,  // measure 41
00010000
00000100
00000001
00000100
00000010
00000001
00001000
00000100
,  // measure 42
00001000
00000000
00000010
00000000
00000001
00000000
00000010
00000000
00010000
00000000
00001000
00010000
00001000
00000000
00010000
00000000
,  // measure 43
00000000
00000000
00001000
01000000
00001000
01000000
00001000
01000000
00001000
01000000
10000000
01000000
10000000
01000000
10000000
01000000
,  // measure 44
10000000
01000000
00001000
00100000
00001000
00100000
00001000
00100000
00001000
00100000
10000000
00100000
10000000
00100000
10000000
00100000
,  // measure 45
10000000
00100000
00001000
00000000
00000000
00000000
00000000
00000000
00000000
00000000
00010000
00000100
00010000
00000100
00010000
00000100
,  // measure 46
00010000
00000100
00000001
00000100
00000001
00000100
00000001
00000100
00000001
00000100
00001000
00000010
00001000
00000010
00001000
00000010
,  // measure 47
00001000
00000010
00000001
00000010
00000001
00000010
00000001
00000010
00000001
00000010
00001000
00000100
00000000
00010100
00000000
00010000
,  // measure 48
00001000
01000000
00000000
01100000
00000000
00100000
01000000
10000000
00000000
11000000
00000000
10000000
00100000
01000000
00100000
01000000
,  // measure 49
00100000
01000000
00100000
01000000
00000000
00010000
00100000
00001000
00010000
00000010
00000110
00000000
00000000
00000000
00001001
00000000
,  // measure 50
00000000
00000000
00000001
00000000
00000100
00000000
00000010
00000000
00000100
00000000
00000001
00000010
00000001
00000010
00000200
00000000
,  // measure 51
00000000
00000000
00000000
00010300
00000000
00000000
00001000
00000000
00000000
00010000
00000000
00000000
00001000
00000000
00000000
01000000
00000000
00000000
00000000
01000000
00000000
00100000
00000000
00000000
,  // measure 52
00000000
00100000
00000000
10000000
00000000
00000000
00000000
00000000
00000000
00010000
00000000
00000000
00100000
00000000
00000000
00010000
00000000
00000000
10000000
00000000
00000000
01000000
00000000
00000000
,  // measure 53
10000000
00100000
01000000
00001000
00001000
00010000
00010000
00000100
,  // measure 54
00000000
00000000
00000010
00000000
00000001
00000000
00000010
00000000
00000001
00000000
00000100
00000010
00000100
00000010
00002000
00000000
,  // measure 55
00000000
00000000
00000000
00013000
00000000
00000000
00100000
00000000
00000000
01000000
00000000
00000000
00000000
00000000
00000000
10000000
00000000
00000000
00000000
10000000
00000000
01000000
00000000
00000000
,  // measure 56
00000000
01000000
00000000
00100000
00000000
00000000
00000000
00000000
00000000
00010000
00000000
00000000
01000000
00000000
00000000
00010000
00000000
00000000
10000000
00000000
00000000
00100000
00000000
00000000
,  // measure 57
10000000
00000000
00000000
01000000
00000000
00000000
00100000
00000000
00000000
00001000
00000000
00000000
00001000
00000000
00000000
00010000
00000000
00000000
00000000
00010000
00000000
00000020
00000000
00000000
,  // measure 58
00000000
00000000
00000000
00000130
00000000
00000000
00000000
00000000
00000000
00000001
00000000
00000000
00000000
00000001
00000000
00000010
00000000
00000000
00000000
00000010
00000000
00000200
00000000
00000000
,  // measure 59
00000000
00000000
00000000
00010300
00000000
00000000
00000000
00000000
00000000
00011000
00000000
00000000
00000000
00000000
00000000
00001000
00000000
00000000
00000000
00001000
00000000
01000000
00000000
00000000
,  // measure 60
00000000
01200000
00000000
10300000
00010000
10000000
01000000
00100000
,  // measure 61
00010000
00010000
00001000
00001000
00000010
00000100
00000001
00001001
,  // measure 62
00000000
00000000
00001000
00000000
00000010
00000000
00010000
00000000
00001000
00000000
00100000
00010000
00100000
00010000
00200000
00000000
,  // measure 63
00000000
00000000
00000000
01300000
00000000
00000000
10000000
00000000
00000000
00100000
00000000
00000000
01000000
00000000
00000000
00100000
00000000
00000000
00000000
00100000
00000000
01000000
00000000
00000000
,  // measure 64
00000000
01000000
00000000
00001000
00000000
00000000
00000000
00000000
00000000
00010000
00000000
00000000
00000010
00000000
00000000
00000100
00000000
00000000
00000010
00000000
00000000
00010000
00000000
00000000
,  // measure 65
00000100
00000001
00000100
00010000
00000010
00000100
00000001
00000200
,  // measure 66
00000000
00000000
00000000
00000000
00000000
00000000
00000000
00000000
00000000
00000000
00000000
00000000
00000001
00000000
00000000
00000000
00000000
00000000
00000000
00000000
00000000
00000000
00000000
00000000
00000301
00000000
00000000
00000000
00000000
00000000
00000000
00000000
00000000
00000000
00000000
00000000
00000000
00000000
00000000
00000000
00000000
00000000
00000000
00000000
00000000
00000000
00000000
00000000
00010000
00000000
00000000
00000000
00000000
00000000
00000100
00000000
00000000
00000000
00000000
00000000
00010000
00000000
00000000
00000000
00000000
00000000
00000100
00000000
00000000
00000000
00000000
00000000
00020000
00000000
00000000
00000000
00000000
00000000
00000000
00000000
00000000
00000000
00000000
00000000
00000000
00000000
00000000
00000000
00000000
00000000
00000000
00000000
00000000
00000000
00000000
00000000
00000000
00000000
00000000
00000000
00000000
00000000
00000000
00000000
00000000
00000000
00000000
00000000
00001000
00000000
00000000
00000000
00000000
00000000
00000000
00000000
00000000
00000000
00000000
00000000
00031000
00000000
00000000
00000000
00000000
00000000
00000000
00000000
00000000
00000000
00000000
00000000
00000000
00000000
00000000
00000000
00000000
00000000
00000000
00000000
00000000
00000000
00000000
00000000
01000000
00000000
00000000
00000000
00000000
00000000
00000000
00000000
00000000
00000000
00000000
00000000
00000000
00000000
00000000
00000000
01000000
00000000
00000000
00000000
00000000
00000000
00000000
00000000
00100000
00000000
00000000
00000000
00000000
00000000
00000000
00000000
00000000
00000000
00000000
00000000
00000000
00000000
00000000
00000000
00000000
00000000
00000000
00000000
00000000
00000000
00000000
00000000
,  // measure 67
00100000
00000000
10000000
01000000
00100000
01000000
10000000
00000000
00100000
00000000
01000000
00000000
00011000
00000000
00010000
00000010
,  // measure 68
00000110
00000000
00000100
00000001
00000010
00000100
00010000
00000000
00001000
01000000
00100000
00000000
10000000
00010000
10000000
00000000
,  // measure 69
10010000
00000000
00100000
01000000
00001000
00010000
00000100
00000000
00000010
00000001
00000100
00000110
00000000
00000000
00000000
00000000
;
