#TITLE:ダブルラリアット;
#SUBTITLE:;
#ARTIST:アゴアニキ;
#TITLETRANSLIT:DOUBLE LARIAT;
#SUBTITLETRANSLIT:;
#ARTISTTRANSLIT:AGOANIKI;
#CREDIT:DigiMindAxel;
#BANNER:DOUBLE LARIAT.png;
#BACKGROUND:DOUBLE LARIAT-bg.png;
#LYRICSPATH:DOUBLE LARIAT.lrc;
#CDTITLE:DigiMindAxel original simfile.png;
#MUSIC:DOUBLE LARIAT.ogg;
#METERTYPE:DDR X;
#OFFSET:-0.791;
#SAMPLESTART:59.458;
#SAMPLELENGTH:12.000;
#SELECTABLE:YES;
#BPMS:0.000=138.000;
#STOPS:;
#BGCHANGES:-1.500=DOUBLE LARIAT.avi=1.000=1=1=0,
99999=-nosongbg-=1.000=0=0=0 // don't automatically add -songbackground-
;

//---------------dance-single - ----------------
#NOTES:
     dance-single:
     :
     Easy:
     3:
     0.218,0.249,0.000,0.440,0.000: // measure 1
0000
0000
0000
0000
,  // measure 2
0000
0000
0000
0000
,  // measure 3
0000
0000
0000
0000
,  // measure 4
0000
0000
0000
0000
,  // measure 5
1000
0000
0001
0000
,  // measure 6
1000
0000
0100
0000
,  // measure 7
0010
0000
0001
0000
,  // measure 8
0100
0010
0100
0000
,  // measure 9
0002
0000
2003
0000
,  // measure 10
3200
0000
2300
0000
,  // measure 11
3002
0000
0203
0000
,  // measure 12
0302
0000
1003
0000
,  // measure 13
0200
0000
2300
0000
,  // measure 14
3020
0000
0230
0000
,  // measure 15
0320
0000
2030
0000
,  // measure 16
3002
0000
0013
0000
,  // measure 17
0001
0000
0100
0000
,  // measure 18
0001
0000
0000
0000
,  // measure 19
1000
0000
0001
0000
,  // measure 20
1000
0000
0000
0000
,  // measure 21
0100
0000
1000
0000
,  // measure 22
0100
0000
0000
0000
,  // measure 23
0010
0000
0100
0000
,  // measure 24
0010
0000
0000
0000
,  // measure 25
0002
0000
1003
0000
,  // measure 26
0100
1000
0100
0000
,  // measure 27
0010
0000
0100
0000
,  // measure 28
0010
0001
0010
0000
,  // measure 29
0002
0000
1003
0000
,  // measure 30
0001
0100
0001
0000
,  // measure 31
0010
0000
0100
0000
,  // measure 32
1000
0000
0001
0000
,  // measure 33
2000
0000
0000
0000
,  // measure 34
3002
0000
0003
0000
,  // measure 35
2000
0000
3200
0000
,  // measure 36
0320
0000
0031
1000
,  // measure 37
0001
0000
0100
0000
,  // measure 38
0010
0100
0010
0000
,  // measure 39
0200
0000
0302
0000
,  // measure 40
2003
0000
3100
1000
,  // measure 41
0100
0000
0010
0000
,  // measure 42
0001
0100
0010
0000
,  // measure 43
0200
0000
0302
0000
,  // measure 44
2003
0000
3100
0010
,  // measure 45
0100
0000
1000
0000
,  // measure 46
0010
0100
0001
0000
,  // measure 47
0020
0000
0230
0000
,  // measure 48
2300
0000
3001
0100
,  // measure 49
0001
0000
0010
0000
,  // measure 50
0100
1000
0001
0000
,  // measure 51
0200
0000
0320
0000
,  // measure 52
0230
0000
0302
0000
,  // measure 53
2003
0000
3200
0000
,  // measure 54
0320
0000
0032
0000
,  // measure 55
2003
0000
3020
0000
,  // measure 56
0230
0000
0302
0000
,  // measure 57
2003
0000
3020
0000
,  // measure 58
0230
0000
0302
0000
,  // measure 59
0003
0000
0000
0000
;

//---------------dance-single - ----------------
#NOTES:
     dance-single:
     :
     Medium:
     7:
     0.334,0.360,0.105,0.105,0.000:
0000
0000
0000
0000
,
0000
0000
0000
0000
,
0000
0000
0000
0000
,
0000
0000
0000
0000
,
2000
0000
0000
0000
,
3200
0000
0000
0000
,
2300
0000
0000
0000
,
3002
0000
0000
0003
,
0100
0000
0001
0100
0000
0000
0001
1000
,
0000
0000
0001
1000
0000
0000
0100
1000
,
0000
0000
0100
1000
0000
0000
0100
0000
,
0010
0000
0100
0000
0010
0000
0001
0100
,
0000
0000
0001
0100
0000
0000
0001
1000
,
0000
0000
0001
1000
0000
0000
0100
0010
,
0000
0000
0100
0010
0000
0000
0000
0000
,
0001
1000
0100
1000
,
0001
1000
0001
0000
1000
0010
1000
0000
,
0001
1000
0001
0000
0010
0000
0000
0000
,
0100
1000
0100
0000
1000
0001
1000
0000
,
0100
0010
0001
0000
,
0100
0010
0100
0000
0001
0100
0001
0000
,
0010
0100
1000
0000
,
0100
1000
0100
0000
1000
0001
1000
0000
,
0100
0010
0100
1000
,
0020
0000
1030
0000
,
0001
1000
0100
0000
0011
0000
0000
0000
,
0100
1000
0001
0100
,
0001
1000
0100
0000
1100
0000
0000
0000
,
0020
0000
0031
0000
,
0100
1000
0010
0000
0101
0000
0000
0000
,
0001
1000
0001
1000
,
0100
0010
0001
1000
,
1001
1001
1001
1001
,
0000
0010
0100
0010
0100
0000
0000
0000
,
0001
0000
1000
0100
0000
0000
0010
0100
,
0000
1000
0010
1000
0001
0000
0100
0000
,
0010
0000
1000
0001
1000
0000
0100
0000
,
0010
0000
0100
1000
0001
0000
0100
0001
,
0000
0000
1000
0100
0000
0000
0010
0100
,
0000
1000
0010
1000
0001
0000
0010
0000
,
0100
0010
0001
0100
,
0010
0100
0010
1000
0001
0000
1000
0010
,
0000
0000
1000
0001
0000
0000
0010
0100
,
0000
0010
0001
0010
0100
0000
1000
0000
,
0001
0100
0010
0000
0100
0000
0001
0000
,
1000
0100
1000
0100
0010
0000
0001
0100
,
0000
0000
0001
1000
0000
0000
0100
0010
,
0000
0001
0100
0001
1000
0000
0100
0000
,
0010
0011
0011
1100
,
1100
0000
0010
0000
0001
0000
1000
0020
,
0000
0000
0130
0002
0000
0000
0013
0100
,
0000
1000
0010
1000
0001
0000
0010
0000
,
0100
0010
0001
0010
,
0100
0000
1000
0000
0100
0000
1000
0200
,
0000
0000
0310
0002
0000
0000
0103
0010
,
0000
1000
0001
1000
0100
0000
0010
0000
,
0001
1000
0010
1000
,
0001
0010
0002
0000
,
0003
0000
0000
0000
;

//---------------dance-single - ----------------
#NOTES:
     dance-single:
     :
     Hard:
     10:
     0.487,0.499,0.220,0.315,0.019:
0000
0000
0000
0000
,
0000
0000
0000
0000
,
0000
0000
0000
0000
,
0000
0000
0000
0000
,
2000
0000
3200
0000
,
2300
3002
2003
0000
,
3200
0000
0320
0000
,
0032
0000
2003
0000
3001
0000
1000
0010
,
1000
0001
0010
0100
0000
0000
1000
0100
,
1000
0001
0100
0010
0000
0000
1000
0001
,
1000
0010
0100
0001
0000
0000
0010
0100
,
0010
0100
1000
0010
0100
0000
0001
0100
,
0001
1000
0100
0010
0000
0000
0001
0010
,
0001
1000
0010
0100
0000
0000
0001
1000
,
0001
0010
0100
1000
0000
0000
0100
0010
,
0100
1000
0010
0100
0010
0000
0010
0000
,
1000
0100
0010
0001
0100
1000
0100
0001
,
0010
0100
0010
0000
0001
0000
0000
0001
,
1000
0010
0100
0010
1000
0100
0001
0100
,
2000
0000
0000
0000
3000
0000
0000
0001
,
1000
0100
1000
0001
1000
0100
1000
0010
,
0001
0010
1000
0100
0010
0000
0000
0001
,
1000
0010
1000
0001
1000
0010
1000
0100
,
0002
0100
0103
1100
,
0001
0100
0101
0000
0100
0010
0110
0000
,
0010
1000
0100
0010
0001
1000
1001
0000
,
1000
0100
1100
0000
0010
0100
0110
0000
,
0010
0001
0100
0010
1000
0001
1001
0000
,
1000
0010
1010
0000
0010
0100
0110
0000
,
0100
0001
0010
0100
1000
0001
1001
0000
,
0202
0000
0000
0303
,
2020
0000
0000
3030
,
1001
0110
1001
0110
,
0000
1001
0010
0100
1000
0000
0001
0200
,
0000
0000
0310
2000
0000
0000
3001
0200
,
0000
0000
0310
0000
1000
0000
0002
0000
0000
0000
1003
0000
0001
0010
0100
0000
,
0000
1000
0100
0010
0000
0011
0000
1100
,
0000
1000
0010
0100
0001
0000
1000
0200
,
0000
0000
0310
0002
0000
0000
1003
0200
,
0000
0000
0310
0000
0001
0000
2000
0000
0000
0000
3010
0000
0100
0001
0010
0000
,
0000
0100
1000
0010
0000
0101
0000
1010
,
0000
1000
0100
0010
0001
0000
1000
0020
,
0000
0000
0130
0002
0000
0000
0013
0200
,
0000
0000
1300
0000
0010
0000
0200
0000
0000
0000
0301
0000
1000
0100
0010
0000
,
0000
0001
1000
0010
0000
0101
0000
1001
,
0000
1000
0100
0010
0001
0000
1000
0010
,
1000
0001
1000
0010
1000
0001
1000
0010
,
1000
0000
0001
0000
0010
0000
0100
0000
1000
0000
0001
0000
0100
0001
1000
0000
,
0100
0010
0100
1000
0100
0010
0100
1000
,
0001
0100
1000
0100
0001
0000
0010
0020
,
0000
0000
0130
0200
0000
0000
1300
2000
,
0000
0001
0001
3001
0000
1000
0010
0100
,
0000
0001
0100
0010
0000
0010
0000
1000
,
0000
0100
0010
0100
0010
0000
0001
1000
,
0001
1000
0100
0200
0000
0000
0310
0020
,
0000
0031
1000
0010
0000
1000
0001
0010
,
0000
0100
1000
0001
0000
0001
0000
1000
,
0000
0010
0100
0010
0200
0000
0000
0000
,
0300
0000
0000
0000
;

//---------------dance-single - ----------------
#NOTES:
     dance-single:
     :
     Beginner:
     1:
     0.071,0.109,0.010,0.000,0.000:
0000
0000
0000
0000
,
0000
0000
0000
0000
,
0000
0000
0000
0000
,
0000
0000
0000
0000
,
1000
0000
0000
0000
,
0001
0000
0000
0000
,
1000
0000
0000
0000
,
0001
0000
0000
0000
,
0100
0000
0000
0000
,
0010
0000
0000
0000
,
0100
0000
0000
0000
,
0000
0000
0000
0000
,
0010
0000
0000
0000
,
1000
0000
0000
0000
,
0010
0000
0000
0000
,
0100
0000
0000
0000
,
0001
0000
0001
0000
,
0001
0000
0000
0000
,
1000
0000
1000
0000
,
1000
0000
0000
0000
,
0001
0000
0001
0000
,
0001
0000
0000
0000
,
1000
0000
1000
0000
,
1000
0000
0000
0000
,
0100
0000
0000
0000
,
0010
0000
0000
0000
,
0100
0000
0000
0000
,
0010
0000
0000
0000
,
0001
0000
0000
0000
,
0100
0000
0000
0000
,
0001
0000
0000
0000
,
1001
0000
0000
0000
,
1000
0000
0000
0000
,
0000
0000
0000
0000
,
0100
0000
0000
0000
,
1000
0000
0000
0000
,
0100
0000
0000
0000
,
1000
0000
0000
0000
,
0001
0000
0000
0000
,
1000
0000
0000
0000
,
0001
0000
0000
0000
,
1000
0000
0000
0000
,
0001
0000
0000
0000
,
0010
0000
0000
0000
,
0001
0000
0000
0000
,
0010
0000
0000
0000
,
0100
0000
0000
0000
,
0100
0000
0000
0000
,
0100
0000
0000
0000
,
0100
0000
0000
0000
,
0010
0000
0000
0000
,
0000
0000
0000
0000
,
0000
0000
0000
0000
,
0000
0000
0000
0000
,
0001
0000
0000
0000
,
0000
0000
0000
0000
,
0000
0000
0000
0000
,
1000
0000
0000
0000
;
