#TITLE:DARK LEGACY;
#SUBTITLE:;
#ARTIST:BaSTeT;
#TITLETRANSLIT:;
#SUBTITLETRANSLIT:;
#ARTISTTRANSLIT:;
#CREDIT:DigiMindAxel;
#BANNER:DARK LEGACY.png;
#BACKGROUND:DARK LEGACY-bg.png;
#LYRICSPATH:;
#CDTITLE:beatmania IIDX.png;
#MUSIC:DARK LEGACY.ogg;
#METERTYPE:DDR X;
#OFFSET:-0.875;
#SAMPLESTART:89.844;
#SAMPLELENGTH:12.000;
#SELECTABLE:YES;
#BPMS:0.000=196.000,73.000=98.000,74.500=196.000,79.500=98.000,81.000=196.000,86.000=98.000,87.500=196.000,92.500=98.000,94.000=196.000,126.000=98.000,127.000=196.000,221.000=98.000,237.000=196.000,356.000=98.000,358.000=196.000;
#STOPS:;
#BGCHANGES:-5.000=DARK LEGACY.avi=1.000=1=1=0,
99999=-nosongbg-=1.000=0=0=0 // don't automatically add -songbackground-
;

//---------------dance-single - ----------------
#NOTES:
     dance-single:
     :
     Easy:
     6:
     0.250,0.437,0.272,0.140,0.000:
0000
0000
0000
0000
,
0000
0000
0000
0000
,
0000
0000
0000
0000
,
0000
0000
0000
0000
,
0000
0000
0000
0000
,
0000
0000
0000
0000
,
0000
0000
0000
0000
,
0000
0000
0000
0000
,
0000
0000
0000
0000
,
0001
0000
0001
0000
,
0001
0000
0001
0000
,
0010
0000
0010
0000
,
0010
0000
0010
0000
,
0100
0000
0100
0000
,
0100
0000
0100
0000
,
1000
0000
1000
0000
,
1000
0000
1000
0000
,
2002
0000
0000
0000
,
0000
0000
3003
0000
0000
0220
0000
0000
,
0000
0000
0000
0000
,
0330
2002
0000
0000
,
0000
0000
0000
0000
3003
0000
0000
0220
,
0000
0000
0000
0000
,
0000
0330
0000
0000
1001
0000
0000
0000
,
1000
0000
0100
0000
,
1000
0001
1000
0000
,
0010
0000
0100
0000
,
0001
1000
0001
0000
,
0020
0000
0000
0000
,
0130
1000
0100
0000
,
0010
0000
0001
0100
,
0001
0100
0000
0000
,
1001
0001
0000
1000
,
0100
0010
0000
0100
,
1000
0100
0000
0010
,
0000
0001
0000
0200
,
0000
0000
0000
0310
,
1000
0010
0000
0100
,
0000
0001
1000
0001
,
0000
0000
1001
0000
0000
1000
0000
0000
,
1000
0000
0000
0000
,
0000
0000
1001
0000
0000
0001
0000
0000
,
0001
0000
0000
0000
,
0000
0000
1001
0000
0000
1000
0000
0000
,
1000
0000
0000
0000
,
0000
0000
1001
0000
0000
0001
0000
0000
,
0001
0000
0000
0000
,
0000
0000
0110
0000
0000
0100
0000
0000
,
0010
0000
0000
0000
,
0000
0000
0110
0000
0000
0010
0000
0000
,
0100
0000
0000
0000
,
0000
0000
1001
0000
0000
1000
0000
0000
,
0001
0000
0000
0000
,
0000
0000
0110
0000
0000
0010
0000
0000
,
0100
0000
0000
0000
,
0000
2002
0000
0000
,
0000
3003
0000
0000
,
0000
0220
0000
0000
,
0000
0330
0000
0000
,
0000
1001
0000
1000
,
0000
0001
0000
0010
,
0000
0001
0000
1000
,
0000
0100
0000
0010
,
0000
0001
1000
0001
,
1000
0100
1000
0100
,
1000
0010
0100
0010
,
0100
0001
0010
0100
,
0000
1001
0000
1000
,
0100
0010
0000
0001
,
0100
0010
0000
0100
,
0001
0010
0000
0100
,
1000
0010
0000
0100
,
0010
0100
0000
0001
,
1000
0100
0000
0010
,
0000
0001
0000
0100
,
0010
0100
0001
0010
,
0100
1000
0000
0001
,
0100
0010
0100
0001
,
0010
0100
0000
0010
,
0001
1000
0001
1000
,
0100
0010
0000
0100
,
1000
0010
0000
0100
,
0000
0001
0000
1000
,
0000
0000
1001
0000
0000
1001
0000
0000
,
1001
0000
0000
1001
0000
0000
0110
0000
,
0000
0110
0000
0000
0110
0000
0000
0110
,
0000
0000
1001
0000
0000
1001
0000
0000
,
1001
0000
0000
1001
0000
0000
0110
0000
,
0000
0110
0000
0000
0110
0000
0000
0220
,
0000
0000
0330
2002
,
0000
0000
0000
0000
,
0000
0000
0000
0000
,
0000
0000
0000
0000
,
0000
0000
0000
3003
;

//---------------dance-single - ----------------
#NOTES:
     dance-single:
     :
     Medium:
     9:
     0.444,0.510,0.287,0.186,0.000:
0000
0000
0000
0000
,
0000
0000
0000
0000
,
0000
0000
0000
0000
,
0000
0000
0000
0000
,
0000
0000
0000
0000
,
0000
0000
0000
0000
,
0000
0000
0000
0000
,
0000
0000
0000
0000
,
0000
0000
0000
0000
,
1001
0000
1000
0000
,
0100
0000
0010
0001
,
0100
0000
0100
0000
,
0100
0000
0100
0010
,
1000
0000
1000
0000
,
1000
0000
1000
0001
,
0010
0000
0010
0000
,
0010
0000
0000
0000
0010
0100
0010
0100
,
1000
0001
0000
1000
0001
0000
1000
0001
,
0000
1000
0001
0000
0000
0100
0010
0000
,
0100
0010
0000
0100
0010
0000
0100
0010
,
0000
0000
1000
0100
0000
1000
0100
0000
,
1000
0100
0000
1000
0100
0000
0000
0010
,
0100
0000
0010
0100
0000
0010
0100
0000
,
0010
0100
0000
0000
1001
0000
1000
0010
,
1000
0000
0001
1000
0001
0000
0100
0000
,
0001
0010
1000
0010
,
0001
1000
0100
0000
0010
0000
0100
0000
,
1000
0100
0011
0022
,
0000
0000
0000
0033
,
0001
0100
1010
2020
,
0000
3030
1000
0100
,
0010
0100
1000
0000
2002
0000
3003
0000
,
0101
0000
0100
0001
1000
0000
0100
0000
,
0001
0100
1000
0001
,
0010
0100
1000
0000
0001
0000
1000
0000
,
0010
0100
0001
0000
2002
0000
0000
0000
,
0000
0000
3003
1000
,
0100
0011
0022
0000
,
0033
0000
0100
0000
1000
0000
0010
0100
,
0001
0000
1000
0100
0000
0100
0010
0000
,
0010
0001
0000
1000
0010
0100
0010
0000
,
0000
0000
0100
0001
0000
0001
0010
0000
,
0010
0100
0000
1000
0001
0010
0001
0000
,
0000
0000
0100
0010
0000
0010
1000
0000
,
1000
0001
0000
0010
0100
1000
0100
0000
,
0000
0000
1000
0001
0000
0001
0100
0000
,
0100
0010
0000
1000
0010
0100
0010
0000
,
0000
0000
1000
0100
0000
0100
0010
0000
,
0010
0001
0000
1000
0010
0100
0010
0000
,
0000
0000
0100
0001
0000
0001
1000
0000
,
1000
0100
0000
0010
0100
1000
0100
0000
,
0000
0000
0010
0001
0000
0001
0100
0000
,
0100
0010
0000
0100
0001
1000
0001
0000
,
0000
0000
0010
0100
0000
0100
1000
0000
,
1000
0010
0000
0100
0001
1000
0001
0000
,
0000
0220
0000
0000
,
0000
0330
0000
0000
,
0000
2002
0000
0000
,
0000
3003
0000
0000
,
0000
0000
1000
0001
0100
0001
0000
1000
,
0010
1000
0000
0001
0100
0001
0000
1000
,
0010
1000
0000
0001
1000
0001
0000
1000
,
0001
1000
0000
0001
0010
0001
1000
0000
,
0100
0000
0010
0001
0010
0000
0100
0010
,
0100
0000
1000
0100
1000
0000
0001
0100
,
0001
0000
1000
0100
1000
0000
0100
0010
,
0100
0000
0010
0001
0100
0010
0000
0000
,
0000
1010
1010
0100
,
0011
0012
0000
1003
,
0001
0100
0010
0000
1010
0000
1010
0000
,
0100
1002
0000
0013
,
0100
1000
0001
0000
1001
0000
1001
0000
,
0100
1100
1100
0011
,
0011
1002
0000
1003
,
0010
0100
0002
0000
0000
0000
1003
0000
,
0001
0010
0100
0000
1100
0000
1000
0000
,
1001
1002
0000
0103
,
0010
1000
0100
0000
1100
0000
0010
0000
,
0101
0102
0000
1003
,
0001
0010
0100
0000
1100
0000
0100
0000
,
1001
0000
1002
0000
0000
0000
1003
0010
,
0100
0010
1000
0000
0100
0000
0001
0000
,
0100
0000
1000
0000
0001
0100
0001
0000
,
1000
0000
0100
1000
0000
1000
0100
0000
,
0100
0010
0000
0010
0001
0000
1000
0010
,
0000
0010
0100
0000
0100
0001
0000
0001
,
1000
0000
0001
0100
0000
0100
1000
0000
,
1000
0100
0000
0100
0001
0000
1000
0100
,
0000
0100
0001
0000
0001
0100
0000
0100
,
2000
0000
3000
0220
,
0000
0000
0000
0000
,
0000
0000
0000
0000
,
0000
0000
0000
0000
,
0000
0000
0000
0330
;

//---------------dance-single - ----------------
#NOTES:
     dance-single:
     :
     Hard:
     12:
     0.620,0.728,0.381,0.233,0.062: // measure 1
0000
0000
0000
0000
,  // measure 2
0000
0000
0000
0000
,  // measure 3
0000
0000
0000
0000
,  // measure 4
0000
0000
0000
0000
,  // measure 5
0000
0000
0000
0000
,  // measure 6
0000
0000
0000
0000
,  // measure 7
0000
0000
0000
0000
,  // measure 8
0000
0000
0000
0000
,  // measure 9
0000
0000
0000
0000
,  // measure 10
1001
0100
0010
0001
,  // measure 11
1000
0010
0001
0010
1000
0000
0010
0000
,  // measure 12
1000
0100
0010
0001
,  // measure 13
1000
0100
0001
0100
1000
0000
0100
0000
,  // measure 14
1001
0010
0100
0001
,  // measure 15
1000
0010
0001
0010
1000
0000
0010
0000
,  // measure 16
1000
0000
0010
0000
0100
0000
0001
1000
,  // measure 17
0100
1000
0100
0000
0010
0100
1000
0001
,  // measure 18
0100
0100
0000
0001
0001
0000
1000
1000
,  // measure 19
0000
0000
0010
0000
0010
0000
0100
0010
0100
0010
1000
0000
1000
0000
0000
0000
,  // measure 20
0100
0100
0000
0010
0010
0000
0001
0001
,  // measure 21
0110
0110
1000
1000
0000
0100
0100
0000
,  // measure 22
1000
0000
1000
0000
0000
0000
0010
0000
0010
0000
0100
0010
0100
0010
1000
0000
,  // measure 23
1000
0000
0001
0001
0000
0010
0010
0000
,  // measure 24
0100
0000
0100
0000
2002
0000
0000
3003
1100
0000
0000
0000
0010
0000
0001
0000
,  // measure 25
0200
0000
0310
1000
0200
0000
0310
0000
,  // measure 26
0011
0011
1001
1001
,  // measure 27
1000
0001
0100
0010
1000
0000
1010
0000
,  // measure 28
1001
0101
1001
1001
,  // measure 29
0001
0010
1000
0010
0001
0000
0100
0000
,  // measure 30
1010
1010
1001
1001
,  // measure 31
1000
0001
1000
0000
0100
0010
0001
1000
,  // measure 32
0010
0000
0100
0000
0010
0000
0000
0000
0201
0000
0000
0000
0301
1000
0001
1000
,  // measure 33
0001
0000
1001
0000
1000
0000
0001
0100
,  // measure 34
1000
0100
0001
0010
0100
0000
1100
0000
,  // measure 35
1000
0010
0001
0010
1000
0100
0010
0000
,  // measure 36
0001
0000
0100
0010
0100
0000
0000
0000
0101
0000
0000
0000
0001
0000
0010
0000
,  // measure 37
0100
1000
0001
0000
0100
0000
0010
1000
,  // measure 38
0100
0010
0100
0000
2001
0000
0000
0000
,  // measure 39
3100
0000
0000
0000
0010
0000
0001
0000
0100
0000
0010
0000
1000
0100
1000
0000
,  // measure 40
0001
0000
1000
1000
0100
0010
0001
0100
,  // measure 41
0010
0010
0000
0100
0100
0001
0020
0000
,  // measure 42
0230
0000
0310
0010
0001
1000
0010
0100
,  // measure 43
0001
0001
0000
0100
0100
0001
0020
0000
,  // measure 44
0230
0000
0310
0010
0001
1000
0010
0100
,  // measure 45
0010
0010
0000
1000
1000
0100
0020
0000
,  // measure 46
0032
0000
0103
0100
0001
1000
0100
0010
,  // measure 47
0001
0001
0000
0100
0100
0010
2000
0000
,  // measure 48
3002
0000
0103
0100
0001
0010
0100
1000
,  // measure 49
0010
0010
0000
0100
0100
0001
2000
0000
,  // measure 50
3200
0000
1300
1000
0001
0010
0100
0010
,  // measure 51
0001
0001
0000
0100
0100
0001
2000
0000
,  // measure 52
3020
0000
0130
0100
0001
0010
0100
1000
,  // measure 53
0010
0010
0000
0100
0100
0001
0020
0000
,  // measure 54
0230
0000
1300
1000
0001
0100
0010
1000
,  // measure 55
0100
0100
0000
0010
0010
0001
0200
0000
,  // measure 56
0320
2030
0000
0001
,  // measure 57
0000
0001
0000
0001
,  // measure 58
0000
3000
1020
0000
0000
0000
1000
0000
,  // measure 59
0000
1000
0000
1000
,  // measure 60
0000
0030
0100
0001
0010
0100
0000
0010
,  // measure 61
0100
1000
0000
0001
0100
0010
0000
0100
,  // measure 62
0010
1000
0000
0100
0010
0001
0000
1000
,  // measure 63
0100
0010
0000
0100
1000
0001
0100
0000
,  // measure 64
1001
0000
0001
1000
0100
1000
0001
1000
,  // measure 65
0100
0001
0100
1000
0100
0010
0100
0010
,  // measure 66
0001
0000
0100
0001
0010
0100
1000
0001
,  // measure 67
1000
0001
0010
1000
0010
0001
0000
0000
,  // measure 68
0000
0000
1001
0000
0011
0000
0001
0010
,  // measure 69
1000
0010
0001
1000
0100
0000
1100
0000
,  // measure 70
0010
0001
1000
0000
1100
0000
1000
0100
,  // measure 71
0001
0100
1000
0100
0010
0000
0011
0000
,  // measure 72
0001
1000
0001
1000
0001
0000
0100
0000
0010
0000
0100
0000
0001
0000
0010
0000
,  // measure 73
0100
1100
0101
0110
,  // measure 74
1001
0000
2001
0000
0001
0001
0000
3001
,  // measure 75
0100
0010
0100
0010
0100
0000
0001
0000
0100
0000
0001
0000
1000
0000
0000
0000
,  // measure 76
0001
1000
0001
1000
0001
0000
0100
0000
0001
0000
1000
0000
0001
0000
0010
0000
,  // measure 77
1000
0010
0001
0000
0100
0000
0110
0000
,  // measure 78
0010
1000
0001
0000
1001
0000
1000
0001
,  // measure 79
0010
1000
0010
0001
0100
0000
0101
0000
,  // measure 80
0001
1000
0001
1000
0001
0000
0010
0000
0001
0000
0100
0000
0010
0000
1000
0000
,  // measure 81
0100
0000
1002
0000
0000
1003
0001
0010
,  // measure 82
1000
0010
0001
0100
0010
0100
0000
0010
,  // measure 83
0100
0010
1000
0010
0100
1000
0100
0010
,  // measure 84
1000
0000
0001
0001
0000
0010
0010
0000
,  // measure 85
0100
0100
0000
1000
1000
0000
0001
0011
,  // measure 86
0000
0010
0110
0000
0100
1100
0000
1000
,  // measure 87
1001
0000
0001
0001
0000
0100
0100
0000
,  // measure 88
0010
0010
0000
1000
1000
0000
0001
0101
,  // measure 89
0000
0100
0110
0000
0010
1010
0000
1000
,  // measure 90
2002
0000
3003
2002
,  // measure 91
0000
0000
0000
0000
,  // measure 92
0000
0000
0000
0000
,  // measure 93
0000
0000
0000
0000
,  // measure 94
0000
0000
0000
3003
;

//---------------dance-single - ----------------
#NOTES:
     dance-single:
     :
     Challenge:
     16:
     0.822,0.910,0.676,0.140,0.520:
0000
0000
0000
0000
,
0000
0000
0000
0000
,
0000
0000
0000
0000
,
0000
0000
0000
0000
,
0000
0000
0000
0000
,
0000
0000
0000
0000
,
0000
0000
0000
0000
,
0000
0000
0000
0000
,
0000
0000
0000
0000
,
1100
0000
0010
0001
0010
0000
0010
0001
,
0010
0100
1000
0010
0100
0000
0010
1000
,
0010
0000
0010
0100
0010
0000
0010
1000
,
0001
0010
0100
0010
0001
0100
0001
0000
,
1001
0000
1000
0100
1000
0000
1000
0100
,
1000
0010
0100
0001
0010
0000
0100
0010
,
0100
0000
0100
1000
0100
0000
0100
0010
,
0100
0000
1000
0000
0010
0000
0100
0000
0001
0100
0001
0000
1000
0100
1000
0000
,
0001
1001
0000
1000
1100
0000
0100
0110
,
0000
0000
0010
0000
0011
0000
0001
0001
1000
1000
0001
0000
1001
0000
0000
0000
,
1000
0000
0000
0000
1010
0000
0000
0000
0000
0000
0000
0000
0010
0000
0000
0000
0110
0000
0000
0000
0000
0000
0000
0000
0100
0000
0000
0000
0101
0000
0001
1000
,
0001
0000
1000
0100
1000
0100
1000
0000
0010
0000
0000
0000
0110
0000
0000
0000
0000
0000
0000
0000
0100
0000
0000
0000
0101
0000
0000
0000
0000
0000
0000
0000
,
0001
0000
1001
0000
0000
0000
1000
0000
1100
0000
0010
0010
0001
0001
0100
0000
,
0101
0000
0001
1001
0000
1000
1100
0000
,
0100
0000
0110
0000
0022
0000
0000
0033
1001
0000
0000
0000
0001
0000
1000
0100
,
2000
0000
0000
0000
3001
0000
0010
0001
0020
0000
0000
0000
0130
0000
0000
0000
,
1000
0000
0000
1000
0100
0000
0000
0100
0010
0000
0000
0010
0001
0000
0000
0001
,
1000
0010
1000
0000
0001
0000
0000
0000
1001
0000
0000
0001
0100
0000
0000
0100
,
1000
0000
0000
1000
0100
0000
0000
0100
0001
0000
0000
0001
1000
0000
0000
0010
,
0100
0010
1000
0000
0100
0000
0010
0000
0002
0000
0000
0000
2003
0000
0000
0000
,
3001
0000
0000
0001
0100
0000
0000
0100
0010
0000
0000
0010
2000
0000
0000
0000
,
3010
0000
0100
0000
0010
0000
0000
0000
1000
0000
0000
1000
0010
0000
0000
0010
,
0100
0001
0010
0000
0100
0000
0000
0000
2002
0000
3000
0000
0103
0010
0100
0010
,
0100
0000
0000
0001
1000
0000
0100
0000
1000
0000
0000
0000
1001
0000
0000
0001
,
1000
0000
0000
1000
0010
0000
0000
0010
0100
0000
0000
0100
0001
0000
0000
0001
,
1000
0100
1000
0000
0001
0000
0000
0001
1000
0000
0000
1000
0100
0000
0000
0100
,
0010
0001
0010
0000
0100
0000
0000
0000
1001
0000
0000
1000
0001
0100
0001
0000
,
0100
0000
0010
0000
2000
0000
0000
0000
3002
0000
0000
0000
0103
0000
0000
0100
,
0010
0000
0000
0010
1000
0000
0000
1000
0002
0000
0000
0000
0013
0000
0100
0000
,
0010
0000
0000
0000
0001
0000
0000
0001
1000
0000
0000
1000
0100
0010
0100
0000
,
1000
0000
1100
1000
0100
0011
0001
0010
,
0100
0000
1000
0000
0000
0000
1100
0000
0001
0000
0100
0000
0001
0010
0100
0000
,
0010
0100
1000
0000
1001
0000
0001
0000
0100
0000
1010
0000
1000
0000
0100
0000
,
0010
0000
0100
0000
0000
0000
1100
0000
0001
0000
0100
0000
0001
0100
0010
0000
,
0100
0010
1000
0000
1001
0000
0001
0000
0010
0000
1100
0000
1000
0000
0010
0000
,
0100
0000
0000
0010
0000
0000
0000
0000
0000
1010
0000
0000
0100
0000
0000
0010
0000
0000
0001
0000
1000
0000
0010
0000
,
0100
0000
0010
0000
1000
0000
0011
0000
0000
0001
0000
0000
1000
0000
0000
1010
0000
0000
0010
0000
0000
0100
0000
0000
,
0001
0000
0100
0000
0000
0000
0110
0000
0001
0000
1000
0000
0001
0010
0100
0000
,
0010
0100
1000
0000
0101
0000
0001
0000
1000
0000
1100
0000
0100
0000
0010
0000
,
0001
0000
1001
0000
0000
0000
0110
0000
0001
0000
1000
0000
0001
0100
0001
0100
,
0010
1000
0100
0000
0011
0000
0001
0000
0010
0000
1100
0000
1000
0000
0010
0000
,
0100
0000
1001
0000
0000
0000
1100
0000
0010
0000
0001
0000
1000
0100
1000
0100
,
0010
0001
0100
0000
0001
0100
0010
0100
0001
0000
1000
0010
0100
0010
1000
0000
,
0010
0000
0110
0000
0000
0000
0011
0000
0100
0000
1000
0000
0100
1000
0100
1000
,
0001
0100
0001
0000
1000
0100
0010
0100
1000
0000
0001
0010
0100
0010
0001
0000
,
0010
0000
0000
0110
0000
0000
0000
0000
0000
1001
0000
0000
0010
0000
0000
0100
0000
0000
0010
0000
0001
0000
0100
0000
,
0010
1000
0100
1002
0000
0000
0000
0000
0000
0100
0000
0000
,
0000
1000
0000
0100
,
0000
0000
0000
1003
0010
1000
0002
0000
0000
0000
0000
0000
0000
0000
0000
0000
0000
0000
0100
0000
0000
0000
0000
0000
,
0010
0100
0000
1000
,
2003
0000
3001
0100
0010
1010
0000
1000
,
0001
0011
0000
0100
1000
1001
0000
0001
,
0010
0110
0000
0100
1000
1010
0000
0010
,
0100
0101
0000
0001
0010
0100
1100
0000
,
1001
0000
1001
0001
0010
1000
0010
0001
,
0100
0010
1000
0001
0100
1000
0100
0001
,
0010
0100
1000
0001
0010
1000
0010
0001
,
0100
0000
0010
0000
1000
0001
1000
0001
0010
0001
0010
0000
0000
0000
0000
0000
,
0001
0010
0100
1000
0010
0000
0000
0010
0100
0000
0000
0100
0001
0000
0000
0001
,
1000
0000
0000
1000
0100
0000
0010
0000
0100
0000
1000
0000
0010
0000
0000
0000
,
0100
0000
0010
1000
0010
0000
0000
0010
0100
0000
0000
0100
0001
0000
0000
0001
,
1000
0000
0000
1000
0010
0000
0100
0000
0010
0000
1000
0000
0100
0000
0000
0000
,
1000
0100
0010
0001
0100
0000
0000
0100
0001
0000
0000
0001
0010
0000
0000
0010
,
1000
0000
0000
1000
0010
0000
0000
0010
0001
0000
0000
0001
1000
0000
0000
1000
,
0100
0000
0000
0100
0010
0000
0001
0000
0100
0000
0000
0100
0010
0000
1000
0000
,
0001
0010
0100
1000
0001
0000
0100
0000
0010
0000
0100
0000
0001
0000
0000
0000
,
0100
0001
0010
0100
1000
0000
0000
1000
0010
0000
0000
0010
0001
0000
0000
0001
,
0010
0000
0000
0010
1000
0000
0100
0000
0010
0000
0100
0000
1000
0000
0000
0000
,
0010
0000
0100
0000
0001
0000
0000
0001
0100
0000
0000
0100
1000
0000
0000
1000
,
0100
0000
0000
0100
0001
0000
0010
0000
0100
0000
0010
0000
0001
0000
0000
0000
,
1000
0010
0100
0010
1000
0000
0000
1000
0001
0000
0000
0001
0010
0000
0000
0010
,
0100
0000
0000
0100
2000
0000
0000
0000
0000
0000
3001
0100
0001
0100
0010
1000
,
0010
1000
0100
0010
0001
0000
1000
0000
0100
0000
1000
0000
0000
0000
0100
0000
,
0010
0001
0100
0010
0100
0001
1000
0001
,
0010
0100
1000
1010
0000
0010
0110
0000
,
0100
0101
0000
0001
1001
0000
1100
1100
,
0000
0110
0110
0000
0011
0011
0000
1001
,
1001
0000
0101
0110
0000
0110
1010
0000
,
1010
1001
0000
1001
0101
0000
0110
1100
,
0000
0011
0110
0000
1001
1010
0000
0101
,
2002
0000
3003
1001
,
1000
0100
0010
0001
1000
0010
1000
0001
,
0000
0010
0100
1000
0001
0100
0001
1000
,
0100
0010
0000
0100
1000
0010
0100
0001
,
0010
0100
1000
0010
0000
0000
0010
0000
;

//---------------dance-single - ----------------
#NOTES:
     dance-single:
     :
     Beginner:
     2:
     0.088,0.139,0.116,0.000,0.000:
0000
0000
0000
0000
,
0000
0000
0000
0000
,
0000
0000
0000
0000
,
0000
0000
0000
0000
,
0000
0000
0000
0000
,
0000
0000
0000
0000
,
0000
0000
0000
0000
,
0000
0000
0000
0000
,
0000
0000
0000
0000
,
1001
0000
0000
0000
,
0000
0000
0000
0000
,
0001
0000
0000
0000
,
0000
0000
0000
0000
,
1001
0000
0000
0000
,
0000
0000
0000
0000
,
1000
0000
0000
0000
,
0000
0000
0000
0000
,
1001
0000
0000
0000
,
0000
0000
0000
0000
0000
1001
0000
0000
,
0000
0000
0000
0000
,
0000
1001
0000
0000
,
0000
0000
0000
0000
0000
0000
0000
1001
,
0000
0000
0000
0000
,
0000
0000
1001
0000
,
0000
0000
0000
0000
,
1000
0000
0000
0000
,
0100
0000
0000
0000
,
1000
0000
0000
0000
,
0000
0000
0000
0000
,
0010
0000
0000
0000
,
0000
0000
0100
0000
,
0001
0000
0000
0000
,
1001
0000
0000
1000
,
0000
0000
0000
0000
,
0000
0001
0000
0000
,
0000
0010
0000
0000
,
0000
0000
0000
0000
,
0000
0001
0000
0000
,
0000
1000
0000
0000
,
0000
0100
0000
0000
,
0000
0100
0000
0000
,
0000
0010
0000
0000
,
0000
0010
0000
0000
,
0000
0001
0000
0000
,
0000
0001
0000
0000
,
0000
1000
0000
0000
,
0000
1000
0000
0000
,
0000
0010
0000
0000
,
0000
0010
0000
0000
,
0000
0100
0000
0000
,
0000
0100
0000
0000
,
0000
0001
0000
0000
,
0000
0001
0000
0000
,
0000
1000
0000
0000
,
1000
0000
0000
0000
,
0000
1001
0000
0000
,
0000
0000
0000
0000
,
0000
1000
0000
0000
,
0000
0000
0000
0000
,
0000
1001
0000
0000
,
0000
0000
0000
0000
,
0000
0001
0000
0000
,
0000
0000
0000
0000
,
0000
1000
0000
0000
,
0000
0000
0000
0000
,
0000
0001
0000
0000
,
0000
1000
0000
0000
,
0000
0001
0000
0000
,
0000
0010
0000
0000
,
0000
0001
0000
0000
,
0000
0010
0000
0000
,
0000
0100
0000
0000
,
0000
1000
0000
0000
,
0000
0100
0000
0000
,
0000
0100
0000
0000
,
0000
1001
0000
0000
,
0000
1000
0000
0000
,
0000
0001
0000
0000
,
0000
1000
0000
0000
,
0000
0010
0000
0000
,
0000
0100
0000
0000
,
0000
0010
0000
0000
,
0000
0000
0000
0000
,
0000
1001
0000
0000
,
0000
0000
0000
1001
,
0000
0000
0000
0000
,
0000
1001
0000
0000
,
0000
0000
0000
1001
,
0000
0000
0000
0000
,
0000
0000
0000
0010
;
