#TITLE:Cyber Force;
#SUBTITLE:;
#ARTIST:Sota Fujimori feat.cyborg AKEMI;
#TITLETRANSLIT:;
#SUBTITLETRANSLIT:;
#ARTISTTRANSLIT:;
#CREDIT:DigiMindAxel;
#BANNER:Cyber Force.png;
#BACKGROUND:Cyber Force-bg.png;
#LYRICSPATH:Cyber Force.lrc;
#CDTITLE:beatmania IIDX.png;
#MUSIC:Cyber Force.ogg;
#METERTYPE:DDR X;
#OFFSET:-0.414;
#SAMPLESTART:67.796;
#SAMPLELENGTH:12.000;
#SELECTABLE:YES;
#BPMS:0.000=146.000;
#STOPS:;
#BGCHANGES:-4.000=Cyber Force.avi=1.000=1=1=0,
99999=-nosongbg-=1.000=0=0=0 // don't automatically add -songbackground-
;

//---------------dance-single - ----------------
#NOTES:
     dance-single:
     :
     Easy:
     5:
     0.201,0.280,0.049,0.000,0.000:
0000
0000
0000
0000
,
0000
0000
0000
0000
,
0000
0000
0000
0000
,
0000
0000
0000
0000
,
0000
0000
0000
0000
,
0000
1000
0000
1000
,
0000
0001
0000
0001
,
0000
1000
0000
1000
,
0000
0001
0000
0001
,
0100
0010
0100
0000
,
0001
0010
0001
0000
,
1000
0100
1000
0000
,
0010
0100
0010
0010
,
0100
0010
0100
0000
,
0001
1000
0001
0000
,
1000
0001
1000
0000
,
1001
0000
0000
0000
,
0001
0000
0100
0000
,
0001
1000
0001
0000
,
1000
0000
0100
0000
,
1000
0001
1000
0000
,
0010
0000
0100
0000
,
0001
0100
0001
0000
,
1000
0000
0100
0000
,
0010
0100
0010
0000
,
1001
0000
1000
0000
,
0010
0100
0010
0000
,
0100
0000
0100
0000
,
0001
0010
0001
0000
,
1000
0000
1000
0000
,
0100
1000
0100
0000
,
0010
0000
0010
0000
,
0001
0100
0001
1000
,
0001
0000
0000
0000
,
1000
0000
0000
0000
,
0001
0000
0000
0000
,
1000
0000
0000
0000
,
0010
0010
0100
0100
,
0010
0010
0100
0100
,
0010
0010
0100
0100
,
0110
0000
0000
0000
,
1001
0001
1000
0000
,
0001
0010
0100
0000
,
1000
0001
1000
0000
,
0100
1000
0010
0000
,
0100
0010
0100
0000
,
0001
0010
0100
0000
,
0010
0001
0010
0000
,
0001
1000
0010
0000
,
0100
0010
0100
0010
,
0100
0000
0001
0000
,
1000
0100
1000
0100
,
1000
0000
0010
0000
,
0100
0001
0100
0001
,
0100
0000
0010
0000
,
1000
0100
1000
0100
,
1001
0000
0000
0000
,
0001
0001
1000
0000
,
0100
0100
0010
0000
,
0001
0001
0100
0100
,
0001
0001
1000
0100
,
0010
0010
0100
0000
,
1000
1000
0010
0000
,
1000
1000
0001
0001
,
0010
0100
1000
0001
,
0100
0000
0000
0000
,
0000
0000
0000
0000
,
0100
0000
0000
0000
,
0000
0000
0000
0110
;

//---------------dance-single - ----------------
#NOTES:
     dance-single:
     :
     Medium:
     8:
     0.356,0.392,0.497,0.073,0.000:
0000
0000
0000
0000
,
0000
0000
0000
0000
,
0000
0000
0000
0000
,
0000
0000
0000
0000
,
0000
0000
0000
0000
,
1000
0100
1000
0100
,
0010
0100
0010
0100
,
0010
0001
0010
0001
,
0100
0010
0100
0000
,
1001
0010
0100
1000
,
0001
1000
0001
0000
1000
0001
1000
0000
,
0100
0010
0100
1000
,
0010
1000
0010
0000
0100
0010
0100
0000
,
0001
0010
0100
1000
,
0001
1000
0001
0000
1000
0001
1000
0000
,
0010
0100
0001
0100
,
0010
0100
0010
0000
1000
0100
1000
0000
,
1001
1001
0110
0000
,
0110
0110
1001
0000
,
1001
1001
0110
0000
,
0110
0110
1001
0000
,
0001
0100
0001
0000
1000
0001
1000
0000
,
0100
1000
0100
0000
0010
0100
0010
0000
,
0001
1000
0001
0000
0010
0001
0010
0000
,
0001
0000
0010
0000
0100
0000
1000
0100
,
0010
0110
0110
0000
,
1001
0110
0110
0000
,
0110
1001
1001
0000
,
1001
0110
0110
0000
,
0010
1000
0010
0000
1000
0001
1000
0000
,
0100
1000
0100
0000
0010
0100
0010
0000
,
0001
0010
0001
0000
1000
0001
1000
0000
,
0002
0000
0000
0000
,
2003
0000
0000
0000
,
3200
0000
0000
0000
,
2300
0000
0000
0000
,
3020
0000
0000
0000
,
0130
0001
0100
0001
,
1000
0100
1000
0100
,
0010
0001
0010
0001
,
0110
0000
0000
0110
,
1001
0000
1000
0100
1000
0000
0000
0000
,
0001
1000
0001
1000
0100
0000
0000
0000
,
1000
0010
0100
0000
,
0001
1000
0001
1000
0100
0000
0000
0000
,
0010
0001
0100
0000
,
0010
0100
0010
0100
0001
0000
0000
0000
,
0010
0100
1000
0000
,
0010
1000
0010
1000
0001
0000
0000
0000
,
1001
1001
0110
0000
,
0010
0100
0010
0100
0001
0000
0010
0000
,
0100
1000
0100
1000
0010
0000
0000
0000
,
0110
1001
1001
0000
,
1000
0100
1000
0100
0010
0000
0000
0000
,
0001
0100
0010
1000
,
0001
0100
0001
0100
0010
0000
1000
0000
,
1001
0000
0000
1001
,
0110
0110
0101
0000
,
0110
0110
1010
0000
,
1001
1001
0110
0000
,
0011
0011
0110
0000
,
1100
1100
0110
0000
,
0101
0101
0110
0000
,
1010
1010
0110
0000
,
0110
0110
1001
1001
,
0200
0000
0000
0000
,
2300
0000
0000
0000
,
3020
0000
0000
0000
,
0230
0000
0300
1001
;

//---------------dance-single - ----------------
#NOTES:
     dance-single:
     :
     Hard:
     11:
     0.498,0.532,0.106,0.147,0.204: // measure 1
0000
0000
0000
0000
,  // measure 2
0000
0000
0000
0000
,  // measure 3
0000
0000
0000
0000
,  // measure 4
0000
0000
0000
0000
,  // measure 5
0000
0000
0000
0000
,  // measure 6
1000
0000
0101
0000
0100
0010
0100
0000
,  // measure 7
0001
0000
1100
0000
0100
0010
0100
0000
,  // measure 8
1000
0000
0110
0000
0010
0001
0010
0000
,  // measure 9
0001
0000
0000
0000
0110
0000
0000
0000
0000
1000
0000
0000
0100
0000
0000
0000
,  // measure 10
1000
0000
0000
0100
0000
0000
0010
0000
0001
0000
0000
0001
0000
0000
0100
0000
,  // measure 11
0010
0000
0000
0010
0000
0000
1000
0000
0100
0000
0000
0100
0000
0000
1000
0000
,  // measure 12
0001
0000
0000
0100
0000
0000
0010
0000
1000
0000
0000
1000
0000
0000
0100
0000
,  // measure 13
0010
0000
0000
0010
0000
0000
0001
0000
0100
0000
0000
0100
0000
0000
0001
0000
,  // measure 14
1000
0000
0000
0100
0000
0000
0010
0000
0001
0000
0000
0001
0000
0000
1000
0000
,  // measure 15
0010
0000
0000
0010
0000
0000
0100
0000
0001
0000
0000
0001
0000
0000
0010
0000
,  // measure 16
0100
0000
0000
1000
0000
0000
0001
0000
0100
0000
0000
0100
0000
0000
0001
0000
,  // measure 17
1000
1000
1000
0001
0100
0100
0100
0000
,  // measure 18
1002
0000
0000
1000
0000
0000
1003
0000
0010
0000
0100
0000
0010
0000
0000
0000
,  // measure 19
2000
0000
0000
0001
0000
0000
3001
0000
0100
0000
0010
0000
0100
0000
0000
0000
,  // measure 20
0020
0000
0000
1000
0000
0000
1030
0000
0001
0000
0000
0000
0010
0000
0000
0000
,  // measure 21
0200
0000
0000
0010
0000
0000
0310
0000
0001
0000
0000
0000
1000
0000
0000
0000
,  // measure 22
0010
1000
0100
0001
0100
1000
1000
0000
,  // measure 23
0100
1000
0010
0001
0010
1000
1000
0000
,  // measure 24
0010
0100
0001
1000
0010
0100
0010
0000
,  // measure 25
0100
0000
0001
0000
0010
0000
0100
0000
0010
0000
0001
0000
1000
0010
1000
0010
,  // measure 26
2000
0000
0000
0001
0000
0000
3001
0000
1000
0000
0100
0000
1000
0000
0000
0000
,  // measure 27
0200
0000
0000
0010
0000
0000
0310
0000
0001
0000
0100
0000
0001
0000
0000
0000
,  // measure 28
0200
0000
0000
0010
0000
0000
0310
0000
1000
0000
0000
0000
0100
0000
0000
0000
,  // measure 29
0020
0000
0000
0001
0000
0000
0031
0000
0100
0000
0000
0000
1000
0000
0000
0000
,  // measure 30
0010
1000
0100
0001
0100
1000
1000
0000
,  // measure 31
0100
1000
0010
0001
0010
1000
1000
0000
,  // measure 32
0100
0010
0001
0100
0010
0100
0001
0000
,  // measure 33
1000
1100
0100
0110
,  // measure 34
1002
0100
0000
0103
,  // measure 35
0020
1000
0000
1030
,  // measure 36
0002
0010
0000
0013
,  // measure 37
0200
1000
0000
1300
,  // measure 38
0001
0100
0001
0000
0100
0001
0010
0000
,  // measure 39
0100
0010
0100
0000
1000
0100
0010
0000
,  // measure 40
0001
0100
0010
0000
0100
0001
0010
0100
,  // measure 41
2000
0000
0000
3001
,  // measure 42
1000
0100
0001
0100
1000
0000
0001
0100
,  // measure 43
0001
0010
1000
0010
0001
1000
0010
1000
,  // measure 44
0001
0100
1000
0100
0001
0000
1000
0010
,  // measure 45
1000
0000
0100
0000
0001
0000
0100
0000
1000
0001
1000
0000
0001
1000
0001
0000
,  // measure 46
1000
0010
0001
0010
1000
0000
0001
0100
,  // measure 47
0001
0010
1000
0010
0001
0100
0010
1000
,  // measure 48
0100
0001
0100
1000
0001
0000
1000
0001
,  // measure 49
1000
0000
0100
0000
0001
0000
0100
0000
1000
0010
1000
0000
0010
0100
0010
0100
,  // measure 50
0001
0010
1000
0010
0001
0000
1000
0001
,  // measure 51
1000
0010
0001
0010
1000
0100
0010
0001
,  // measure 52
1000
0010
0001
0010
1000
0000
0001
1000
,  // measure 53
0001
0000
0100
0000
1000
0000
0100
0000
0001
0000
0001
0000
1000
0001
1000
0000
,  // measure 54
0100
0001
0100
1000
0001
0000
0010
0001
,  // measure 55
0100
0010
1000
0100
0001
0100
1000
0001
,  // measure 56
0010
1000
0010
0001
0100
0010
0100
0000
,  // measure 57
2001
0000
0000
3010
,  // measure 58
1001
0000
0000
1000
0000
0000
0010
0000
0100
0000
0001
0100
0001
0000
1000
0000
,  // measure 59
0010
0000
0000
0010
0000
0000
1000
0000
0001
0000
0010
0100
0010
0000
0001
0000
,  // measure 60
0100
0000
0000
0100
0000
0000
0010
0000
1000
0000
0000
0100
0000
0000
0010
0000
,  // measure 61
0001
0000
0000
0001
1000
0010
1000
0000
0010
0000
0100
0010
0100
0010
1000
0000
,  // measure 62
0001
0000
0000
0001
0000
0000
0010
0000
0100
0000
1000
0001
1000
0000
0000
0000
,  // measure 63
0010
0000
0000
0010
0000
0000
0100
0000
0001
0000
1000
0100
1000
0000
0010
0000
,  // measure 64
0100
0000
0000
0100
0000
0000
0001
0000
1000
0000
0000
0100
0000
0000
0010
0000
,  // measure 65
1001
0000
0000
0001
0000
0000
0000
1000
0000
0000
0010
0100
0001
0000
0000
0000
,  // measure 66
2001
0100
0001
0100
,  // measure 67
3002
0100
1000
0100
,  // measure 68
2003
0010
0100
0010
,  // measure 69
3200
0010
0301
0110
;

//---------------dance-single - ----------------
#NOTES:
     dance-single:
     :
     Challenge:
     14:
     0.653,0.701,0.130,0.196,0.624: // measure 1
0000
0000
0000
0000
,  // measure 2
0000
0000
0000
0000
,  // measure 3
0000
0000
0000
0000
,  // measure 4
0000
0000
0000
0000
,  // measure 5
0000
0000
0000
0000
,  // measure 6
1000
0010
1010
0000
0100
0010
0110
0000
,  // measure 7
0001
1000
1001
0000
0100
0001
0101
0000
,  // measure 8
0010
0100
0110
0000
1000
0100
1100
0000
,  // measure 9
0010
0000
0001
0000
1001
0000
0000
0000
0000
0110
0000
0000
0110
0000
0000
0000
,  // measure 10
0010
0000
0000
1000
0000
0000
0100
0000
0001
0000
0000
0100
0000
0000
1000
0000
,  // measure 11
0001
0000
0000
1000
0000
0000
0100
0000
0001
0000
0000
0100
0000
0000
1000
0000
,  // measure 12
0001
0000
0000
1000
0000
0000
0010
0000
0001
0000
0000
0010
0000
0000
1000
0000
,  // measure 13
0001
0000
0000
1000
0000
0000
0100
0000
0010
0000
0000
0001
1000
0010
1000
0010
,  // measure 14
1000
0000
0000
0001
0000
0000
0010
0000
1000
0000
0000
0010
0000
0000
0001
0000
,  // measure 15
1000
0000
0000
0001
0000
0000
0100
0000
1000
0000
0000
0100
0000
0000
0001
0000
,  // measure 16
1000
0000
0000
0100
0000
0000
0001
0000
1000
0000
0000
0010
0000
0000
0001
0000
,  // measure 17
1000
0000
0100
1000
0000
0000
1000
0001
1000
0000
0001
0000
0101
0000
0000
0000
,  // measure 18
1001
0000
1000
0100
0000
1000
0100
0000
0010
0000
0001
0000
1000
0000
0010
0000
,  // measure 19
0100
0000
0001
0010
0000
0001
0010
0000
0100
0000
1000
0000
0001
0000
0100
0000
,  // measure 20
0001
0000
1000
0100
0000
1000
0100
0000
0010
0000
0000
0000
0001
0000
0100
0000
,  // measure 21
0001
0000
1000
0100
0000
1000
0100
0000
0010
0000
0001
0000
1000
0000
0000
0000
,  // measure 22
0001
0000
0100
0001
0000
0100
0001
0000
1000
0000
0100
0000
0010
0000
0100
0000
,  // measure 23
1000
0000
0001
0100
0000
0001
0100
0000
0001
0000
1000
0000
0010
0000
0100
0000
,  // measure 24
0010
0000
1000
0100
0000
1000
0100
0000
0010
0000
0001
0000
0100
0000
0010
0000
,  // measure 25
0100
0000
0001
1000
0000
0001
1000
0000
0001
0000
0010
0000
0100
1000
0100
1000
,  // measure 26
0010
0000
0100
0001
0000
0001
1000
0000
0100
0000
0010
0000
0100
1000
0100
1000
,  // measure 27
0010
0000
0100
0001
0000
0100
0001
0000
0010
0000
0100
0000
0010
0001
0010
0001
,  // measure 28
0100
0000
0010
0100
0000
0010
0100
0000
0001
0000
0010
0000
0100
0000
1000
0000
,  // measure 29
0001
0000
1000
0010
0000
1000
0010
0000
0100
0000
0001
0000
0010
0000
0000
0000
,  // measure 30
0001
0000
1000
0010
0000
0010
0100
0000
0001
0000
0100
0000
0010
0100
0010
0100
,  // measure 31
0001
0000
0010
0100
0000
0100
1000
0000
0001
0000
0100
0000
0001
1000
0001
1000
,  // measure 32
0100
0000
1000
0001
0000
0001
0010
0000
0100
0000
0010
0000
0001
0000
1000
0000
,  // measure 33
0010
0000
0100
0000
0001
0000
0010
0000
0100
1000
0000
0000
1000
0001
1000
0000
,  // measure 34
0020
0230
0302
0023
,  // measure 35
0032
2003
3002
2003
,  // measure 36
3200
0320
0230
2300
,  // measure 37
3002
0203
0302
2003
,  // measure 38
3010
0100
0010
0100
0001
0010
1000
0010
,  // measure 39
0001
1000
0001
1000
0100
0001
0100
1000
,  // measure 40
0100
0010
0100
1000
0010
0001
0010
1000
,  // measure 41
0002
0000
0000
0000
0000
0000
0000
0000
0000
0000
0000
0000
1003
0010
0000
0000
,  // measure 42
0100
0000
0001
1000
0000
1000
0100
0000
0010
0000
0000
0000
0001
0000
0100
0000
,  // measure 43
0010
0000
1000
0001
0000
0001
0010
0000
0010
0000
0100
1000
0000
1000
0010
0000
,  // measure 44
0100
0000
0001
1000
0000
1000
0100
0000
0010
0000
0000
0000
0001
0000
0100
0000
,  // measure 45
0010
0000
1000
0001
0000
0001
0010
0000
0100
1000
0100
1000
0010
0100
0010
0100
,  // measure 46
0001
0000
1000
0100
0000
0100
0010
0000
0100
0000
0000
0000
1000
0000
0001
0000
,  // measure 47
0100
0000
0001
1000
0000
1000
0100
0000
0100
0000
0010
0001
0000
0001
0100
0000
,  // measure 48
0100
0000
0010
1000
0000
1000
0001
0000
0010
0000
0000
0000
0100
0000
1000
0000
,  // measure 49
0001
0000
0100
0001
0000
0001
1000
0000
0100
1000
0100
1000
0010
0100
0010
0100
,  // measure 50
0001
0000
0010
0100
0000
0100
1000
0000
0010
0000
0100
0000
0001
0000
0010
0000
,  // measure 51
0100
0000
1000
0001
0000
0001
0100
0000
0100
0000
0001
1000
0000
1000
0100
0000
,  // measure 52
0100
0000
1000
0001
0000
0001
0010
0000
0100
0000
1000
0000
0010
0000
0100
0000
,  // measure 53
0001
0000
1000
0100
0000
0100
0010
0000
0001
0000
0001
0000
1000
0001
1000
0001
,  // measure 54
1000
0100
0000
1000
0100
0000
0010
0001
0000
1000
0001
0000
0010
0000
0100
0000
,  // measure 55
1000
0001
0000
1000
0001
0000
0100
0001
0000
0010
0100
0000
1000
0001
1000
0000
,  // measure 56
0001
0010
0000
0001
0010
0000
0100
1000
0000
0001
0100
0000
0010
0100
0010
0000
,  // measure 57
2001
0000
0000
0000
0000
0000
0000
0000
0000
0000
0000
0000
3001
0100
0000
0100
,  // measure 58
0001
0000
1000
0010
0000
1000
0001
0010
0001
0000
0100
0010
0000
0100
0001
0000
,  // measure 59
1000
0000
0010
1000
0000
0001
0010
0000
0010
0000
0100
1000
0000
1000
0010
0000
,  // measure 60
0100
0000
0001
1000
0000
0100
1000
0001
1000
0000
0010
1000
0000
0001
0010
0000
,  // measure 61
0100
0000
1000
0001
0100
0001
0100
0000
0001
0000
0010
0100
0010
0100
1000
0001
,  // measure 62
1000
0000
0010
0100
0000
0001
0010
0100
0010
0000
0001
0100
0000
0001
1000
0000
,  // measure 63
0100
0000
0010
0001
0000
0001
0100
0000
0100
0000
0010
1000
0000
1000
0001
0000
,  // measure 64
0010
0000
0100
1000
0000
0001
0100
0000
0010
0000
1000
0100
0000
1000
0001
0000
,  // measure 65
0101
0000
0000
0101
0000
0000
0000
0110
0000
0000
0010
0100
1000
0000
0000
0000
,  // measure 66
1002
0010
1000
0013
,  // measure 67
0200
1000
0010
1300
,  // measure 68
0020
0001
0100
0031
,  // measure 69
0200
2300
3020
0031
;

//---------------dance-double - ----------------
#NOTES:
     dance-double:
     :
     Easy:
     5:
     0.225,0.280,0.041,0.082,0.000:
00000000
00000000
00000000
00000000
,
00000000
00000000
00000000
00000000
,
00000000
00000000
00000000
00000000
,
00000000
00000000
00000000
00000000
,
00000000
00000000
00000000
00000000
,
00000000
10000000
00000000
10000000
,
00000000
00010000
00000000
00010000
,
00000000
01000000
00000000
01000000
,
00000000
00100000
00000000
00100000
,
10000000
01000000
00100000
00000000
,
00001000
00010000
00001000
00000000
,
00010000
00000010
00000100
00000000
,
00000001
00001000
00000001
00000010
,
00000100
00010000
00000100
00000000
,
00010000
00001000
00100000
00000000
,
01000000
00100000
01000000
00000000
,
02200000
00000000
00000000
03300000
,
10000000
01000000
00100000
00000000
,
00001000
01000000
00001000
00000000
,
00010000
00000100
00000010
00000000
,
00000001
00001000
00000001
00000000
,
00000100
00000001
00000010
00000000
,
00000100
00010000
00000100
00000000
,
00001000
00010000
00100000
00000000
,
01000000
00100000
01000000
00000000
,
10010000
00010000
10000000
00000000
,
01000000
00100000
00010000
00000000
,
00001000
00010000
00000010
00000000
,
00000100
00000001
00000010
00000000
,
00000001
00001000
00000001
00000000
,
00000010
00000100
00001000
00000000
,
00010000
01000000
00100000
00000000
,
10000000
00010000
00100000
01000000
,
20000000
00000000
00000000
00000000
,
30020000
00000000
00000000
00000000
,
20030000
00000000
00000000
00000000
,
30020000
00000000
00000000
00000000
,
10030000
00010000
10000000
00010000
,
01000000
00001000
01000000
00001000
,
00010000
00000010
00010000
00000010
,
00000220
00000000
00000000
00000330
,
00001001
00000001
00001000
00000000
,
00000010
00000100
00000001
00000000
,
00000010
00000100
00001000
00000000
,
00010000
00100000
01000000
10000000
,
00010000
10000000
00010000
00000000
,
00100000
00010000
00001000
00000000
,
00000010
00000100
00000001
00000000
,
00000010
00000100
00001000
00010000
,
01000000
00100000
01000000
00100000
,
01000000
00000000
00010000
00000000
,
01000000
00010000
01000000
00010000
,
01000000
00000000
00001000
00010000
,
00000010
00000100
00000010
00000100
,
00000010
00000000
00000100
00000000
,
00000001
00001000
00000001
00001000
,
00000110
00000000
00000000
00000000
,
00010000
00010000
00001000
00000000
,
00100000
00100000
01000000
00000000
,
10000000
10000000
00010000
00010000
,
00100000
00100000
00001000
00010000
,
00000100
00000100
00000010
00000000
,
00000001
00000001
00000100
00000000
,
00000001
00000001
00000100
00000100
,
00000010
00010000
00001000
00100000
,
02000000
00000000
00000000
00000000
,
00000000
00000000
00000000
00000000
,
23000000
00000000
00000000
00000000
,
00000000
00000000
00000000
30010000
;

//---------------dance-double - ----------------
#NOTES:
     dance-double:
     :
     Medium:
     8:
     0.397,0.448,0.424,0.106,0.000:
00000000
00000000
00000000
00000000
,
00000000
00000000
00000000
00000000
,
00000000
00000000
00000000
00000000
,
00000000
00000000
00000000
00000000
,
00000000
00000000
00000000
00000000
,
10000000
01000000
10000000
00010000
,
10000000
01000000
10000000
00010000
,
01000000
00100000
01000000
00010000
,
00001000
00000010
00000100
00000000
,
00001001
00000010
00000100
00010000
,
00001000
01000000
00100000
00000000
01000000
00100000
01000000
00000000
,
00010000
10000000
01000000
00100000
,
00001000
00010000
00000010
00000000
00000100
00000010
00000100
00000000
,
00000001
00000010
00000100
00000010
,
00000001
00001000
00000010
00000000
00001000
00000001
00001000
00000000
,
00000010
00010000
00001000
00100000
,
01000000
10000000
00100000
00000000
01000000
00100000
01000000
00000000
,
10010000
00000000
10010000
00000000
00100000
01000000
00001000
00000000
,
00011000
00000000
00011000
00000000
00010000
00000010
00000100
00000000
,
00000011
00000000
00000011
00000000
00000010
00000100
00010000
00000000
,
00011000
00000000
00011000
00000000
00001000
01000000
00100000
00000000
,
10000000
00100000
10000000
00000000
01000000
00100000
01000000
00000000
,
10000000
01000000
00100000
00000000
00001000
00010000
00001000
00000000
,
00010000
00000010
00000100
00000000
00000001
00001000
00000001
00000000
,
00000010
00000000
00000100
00000000
00010000
00000000
00001000
01000000
,
00100000
00000000
10010000
00000000
10010000
00000000
01000000
00100000
,
00001000
00000000
00011000
00000000
00011000
00000000
00010000
00000010
,
00000100
00000000
00000101
00000000
00000101
00000000
00000100
00000010
,
00010000
00011000
00011000
00000000
,
10000000
01000000
10000000
00000000
01000000
00100000
01000000
00000000
,
10000000
01000000
00100000
00000000
00001000
00010000
00001000
00000000
,
00010000
00000010
00000100
00000000
00000010
00000100
00000010
00000000
,
00002000
00000001
00000001
00003001
,
00002001
00000000
00000000
00000000
,
00003200
00000000
00000000
00000000
,
00020300
00000000
00000000
00000000
,
00032000
00000000
00000000
00000000
,
01003000
00100000
10000000
00100000
,
01000000
00010000
01000000
00010000
,
10000000
01000000
00100000
01000000
,
20020000
00000000
30030000
10010000
,
01100000
00000000
01000000
00010000
01000000
00000000
00001000
00000000
,
00010000
00000010
00010000
00000010
00000100
00000000
00000001
00000000
,
00000010
00000100
00010000
00001000
,
00100000
01000000
00100000
00000000
00010000
10000000
00010000
10000000
,
00010000
00100000
01000000
10000000
,
00100000
01000000
00010000
00100000
00001000
00000000
00010000
00000000
,
00000100
00000010
00000100
00010000
,
00000001
00000100
00000001
00000000
00000100
00000010
00000100
00000010
,
00010000
00010010
00011000
00001000
,
01000000
00010000
01000000
00010000
10000000
00000000
01000000
00000000
,
00100000
00010000
00100000
00010000
10000000
00000000
00001000
00000000
,
01000000
00000000
01001000
00000000
00001000
00010000
00001000
00010000
,
00000100
00000000
00000010
00000001
00000100
00000000
00000010
00000000
,
00010000
00001000
00100000
00000000
01000000
00000000
10000000
00000000
,
00100000
01000000
00100000
01000000
00010000
00000000
00001000
00000000
,
00022000
00000000
00033000
00011000
,
00010010
00010010
00000110
00000100
,
00000101
00000101
00000110
00000010
,
00011000
00011000
00101000
00100000
,
01100000
01100000
11000000
10000000
,
01100000
01100000
01001000
00001000
,
00011000
00011000
00010100
00000100
,
00000110
00000110
00000011
00000001
,
00000110
00000110
00010010
00011000
,
00020000
00000000
00000000
00000000
,
00032000
00000000
00000000
00000000
,
02003000
00000000
00000000
00000000
,
03200000
00000000
00300000
01100000
;

//---------------dance-double - ----------------
#NOTES:
     dance-double:
     :
     Hard:
     11:
     0.493,0.504,0.098,0.163,0.196:
00000000
00000000
00000000
00000000
,
00000000
00000000
00000000
00000000
,
00000000
00000000
00000000
00000000
,
00000000
00000000
00000000
00000000
,
00000000
00000000
00000000
00000000
,
10000000
00000000
10010000
00000000
01000000
00010000
01000000
00000000
,
00001000
00000000
00011000
00000000
00010000
00000100
00010000
00000000
,
00000010
00000000
00000110
00000000
00000100
00000001
00000100
00000000
,
00000001
00000000
00000000
00000000
00001001
00000000
00000000
00000000
00000000
00000010
00000000
00000000
00000100
00000000
00000000
00000000
,
00010000
00000000
00000000
00001000
00000000
00000000
00100000
00000000
00010000
00000000
00000000
00010000
00000000
00000000
01000000
00000000
,
00100000
00000000
00000000
00100000
00000000
00000000
10000000
00000000
01000000
00000000
00000000
01000000
00000000
00000000
10000000
00000000
,
00010000
00000000
00000000
01000000
00000000
00000000
00010000
00000000
00001000
00000000
00000000
00001000
00000000
00000000
00000100
00000000
,
00000010
00000000
00000000
00000010
00000000
00000000
00000001
00000000
00000100
00000000
00000000
00000100
00000000
00000000
00000001
00000000
,
00000010
00000000
00000000
00000100
00000000
00000000
00010000
00000000
00001000
00000000
00000000
00001000
00000000
00000000
10000000
00000000
,
00100000
00000000
00000000
00100000
00000000
00000000
01000000
00000000
00010000
00000000
00000000
00010000
00000000
00000000
00100000
00000000
,
01000000
00000000
00000000
10000000
00000000
00000000
00010000
00000000
01000000
00000000
00000000
01000000
00000000
00000000
00001000
00000000
,
00010000
00000000
00000000
00010100
00000000
00000000
00000100
00000000
00000010
00000000
00000001
00000000
00000100
00000001
00000000
00000000
,
00001001
00000000
00000000
00001000
00000000
00000000
00000001
00000000
00000010
00000000
00000100
00000000
00010000
00000000
00000000
00000000
,
00001000
00000000
00000000
00010000
00000000
00000000
00001000
00000000
01000000
00000000
00100000
00000000
10000000
00000000
00000000
00000000
,
01000000
00000000
00000000
00100000
00000000
00000000
01000000
00000000
10000000
00000000
00100000
00000000
10000000
00000000
00000000
00000000
,
00010000
00000000
00000000
00100000
00000000
00000000
00001000
00000000
00010000
00000000
00000000
00000000
00000100
00000000
00000000
00000000
,
00000010
00000001
00000100
00000010
00010000
00001000
00001000
00000000
,
00100000
01000000
10000000
00010000
00100000
00001000
00001000
00000000
,
00010000
00000010
00000100
00000010
00010000
00000100
00000010
00000001
,
00001000
00000000
00000000
00000000
00000010
00000000
00000000
00000000
00001000
00000000
00010000
00000000
01000000
00100000
01000000
00100000
,
01000000
00000000
00000000
00010000
00000000
00000000
10000000
00000000
01000000
00000000
00100000
00000000
00001000
00000000
00000000
00000000
,
00010000
00000000
00000000
00000010
00000000
00000000
00000100
00000000
00000001
00000000
00001000
00000000
00000100
00000000
00000000
00000000
,
00010000
00000000
00000000
00001000
00000000
00000000
00100000
00000000
01000000
00000000
10000000
00000000
00100000
00000000
00000000
00000000
,
01000000
00000000
00000000
00010000
00000000
00000000
01000000
00000000
00100000
00000000
10000000
00000000
01000000
00000000
00000000
00000000
,
00100000
00001000
00010000
00000010
00000100
00000001
00000001
00000000
,
00000010
00000100
00010000
00001000
00100000
00010000
00100000
00010000
,
10000000
00000000
01000000
00000000
00100000
00000000
00001000
00010000
,
00000010
00010010
00000100
00000110
,
00001002
00000010
00000000
00000013
,
00000200
00010000
00000000
00010300
,
00002000
00100000
00000000
00103000
,
02000000
10000000
00000000
13000000
,
00010000
01000000
00010000
00000000
10000000
01000000
10000000
00000000
,
00001000
00010000
00001000
00000000
00010000
00000010
00010000
00000000
,
00000100
00000010
00000100
00000000
00001000
00000100
00000010
00000001
,
00000200
00000000
00000000
00000301
,
00001000
00000100
00000001
00000100
00001000
00000000
00000010
00000100
,
00000001
00000010
00001000
00000010
00000001
00000100
00000010
00010000
,
00000100
00010000
00001000
00000000
00100000
01000000
10000000
00000000
,
00010000
00000000
01000000
00000000
10000000
00000000
01000000
00000000
00010000
10000000
00010000
00000000
10000000
00010000
10000000
00000000
,
01000000
00100000
00010000
00100000
01000000
00000000
10000000
00100000
,
10000000
01000000
00010000
01000000
10000000
00100000
01000000
00010000
,
00001000
00000010
00000100
00000000
00000001
00000100
00000001
00000000
,
00000010
00000000
00000100
00000000
00001000
00000000
00000100
00000000
00000010
00000001
00000010
00000000
00000100
00000010
00000100
00000000
,
00001000
00000010
00000001
00000010
00010000
00000000
00001000
00100000
,
00001000
01000000
10000000
01000000
00001000
00100000
01000000
10000000
,
00010000
01000000
00100000
00000000
10000000
01000000
00100000
00000000
,
00001000
00000000
00010000
00000000
00000100
00000000
00000010
00000000
00000001
00000000
00000001
00000000
00001000
00000001
00001000
00000000
,
00000100
00000001
00000100
00010000
00001000
00000000
00100000
01000000
,
10000000
00100000
00010000
00100000
10000000
01000000
00100000
00001000
,
00010000
00000100
00000010
00000000
00000001
00000100
00000001
00001000
,
00000200
00000000
00000000
00000310
,
00001001
00000000
00000000
00000001
00000000
00000000
00000100
00000000
00000001
00000000
00001000
00000100
00001000
00000000
00000010
00000000
,
00000010
00000000
00000000
00010000
00000000
00000000
00001000
00000000
01000000
00000000
00100000
01000000
00100000
00000000
10000000
00000000
,
10000000
00000000
00000000
00100000
00000000
00000000
01000000
00000000
00010000
00000000
00000000
00100000
00000000
00000000
00001000
00000000
,
00010000
00000000
00000010
00000000
00000100
00000000
00000100
00000000
00000001
00000000
00000000
00001000
00000001
00000000
00000010
00000000
,
00000100
00000000
00000000
00010000
00000000
00000000
00001000
00000000
01000000
00000000
00100000
01000000
00100000
00000000
00000000
00000000
,
10000000
00000000
00000000
00100000
00000000
00000000
01000000
00000000
00010000
00000000
10000000
01000000
10000000
00000000
00100000
00000000
,
01000000
00000000
00000000
00001000
00000000
00000000
00010000
00000000
00000010
00000000
00000000
00000100
00000000
00000000
00000001
00000000
,
00001001
00000000
00000000
00001000
00000000
00000000
00000000
00000010
00000000
00000000
00010000
00001000
00010000
00000000
00000000
00000000
,
00002000
02003000
03200000
02300000
,
03020000
20030000
32000000
03200000
,
00302000
00023000
00030020
00000230
,
00000302
00000023
00000130
00001001
;

//---------------dance-double - ----------------
#NOTES:
     dance-double:
     :
     Challenge:
     14:
     0.660,0.701,0.106,0.269,0.624:
00000000
00000000
00000000
00000000
,
00000000
00000000
00000000
00000000
,
00000000
00000000
00000000
00000000
,
00000000
00000000
00000000
00000000
,
00000000
00000000
00000000
00000000
,
01000000
10000000
11000000
00000000
00100000
01000000
01100000
00000000
,
00001000
00010000
00011000
00000000
00000100
00000010
00000110
00000000
,
00000001
00001000
00001001
00000000
00000100
00000001
00000101
00000000
,
00010000
00000000
00001000
00000000
00011000
00000000
00000000
00000000
00000000
01000000
00000000
00000000
01100000
00000000
00000000
00000000
,
10000000
00000000
00000000
01000000
00000000
00000000
00010000
00000000
01000000
00000000
00000000
10000000
00000000
00000000
00001000
00000000
,
00100000
00000000
00000000
00001000
00000000
00000000
00010000
00000000
00000010
00000000
00000000
00000100
00000000
00000000
00000001
00000000
,
00001000
00000000
00000000
00000010
00000000
00000000
00000001
00000000
00000010
00000000
00000000
00001000
00000000
00000000
00000100
00000000
,
00010000
00000000
00000000
00001000
00000000
00000000
00100000
00000000
01000000
00000000
00000000
10000000
00100000
01000000
00100000
01000000
,
00010000
00000000
00000000
00100000
00000000
00000000
10000000
00000000
00100000
00000000
00000000
00010000
00000000
00000000
00001000
00000000
,
00000100
00000000
00000000
00000010
00000000
00000000
00000001
00000000
00000100
00000000
00000000
00000010
00000000
00000000
00001000
00000000
,
00000001
00000000
00000000
00000010
00000000
00000000
00001000
00000000
00000010
00000000
00000000
00000001
00000000
00000000
00000010
00000000
,
00000100
00000000
00010000
00001000
00000000
00000000
01000000
00100000
01000000
00000000
00010000
00000000
10000000
00000000
00000000
00000000
,
00010000
00000000
01000000
00010000
00000000
01000000
00010000
00000000
10000000
00000000
01000000
00000000
00100000
00000000
00001000
00000000
,
00010000
00000000
00000100
00000010
00000000
00000100
00000010
00000000
00000001
00000000
00000100
00000000
00000010
00000000
00000100
00000000
,
00000001
00000000
00010000
00000100
00000000
00010000
00000100
00000000
00010000
00000000
00000000
00000000
00001000
00000000
00100000
00000000
,
01000000
00000000
10000000
00100000
00000000
10000000
00100000
00000000
01000000
00000000
00000000
00000000
00010000
00000000
00001000
00000000
,
00000010
00000000
00000100
00000001
00000000
00000100
00000001
00000000
00000010
00000000
00000100
00000000
00010000
00000000
00001000
00000000
,
01000000
00000000
00100000
10000000
00000000
00100000
10000000
00000000
00010000
00000000
00100000
00000000
00010000
00000000
00001000
00000000
,
00000010
00000000
00000100
00000001
00000000
00000100
00000001
00000000
00000010
00000000
00000100
00000000
00000010
00000000
00000001
00000000
,
00010000
00000000
00001000
01000000
00000000
00001000
01000000
00000000
00100000
00000000
10000000
00000000
00100000
01000000
00100000
01000000
,
00100000
00000000
10000000
00100000
00000000
00100000
01000000
00000000
00001000
00000000
00010000
00000000
00000100
00000010
00000100
00000010
,
00000001
00000000
00001000
00000010
00000000
00001000
00000010
00000000
00010000
00000000
00001000
00000000
00100000
01000000
00100000
01000000
,
00100000
00000000
00010000
10000000
00000000
00010000
10000000
00000000
00100000
00000000
01000000
00000000
00001000
00000000
00010000
00000000
,
00000100
00000000
00000010
00000001
00000000
00000010
00000001
00000000
00001000
00000000
00000010
00000000
00010000
00000000
00000000
00000000
,
00001000
00000000
01000000
00100000
00000000
00100000
10000000
00000000
01000000
00000000
00100000
00000000
00001000
00010000
00001000
00010000
,
00001000
00000000
00010000
00000010
00000000
00000010
00000100
00000000
00000001
00000000
00000010
00000000
00000100
00010000
00000100
00010000
,
00001000
00000000
01000000
00100000
00000000
00100000
10000000
00000000
01000000
00000000
00100000
00000000
00001000
00000000
00010000
00000000
,
00000100
00000000
00001000
00000000
00000010
00000000
00000100
00000000
00000001
00001000
00000000
00000000
00000001
00001000
00000001
00000000
,
00000020
00000230
00020300
00032000
,
00203000
20300000
30200000
00302000
,
00023000
00030020
00000032
00000023
,
00020030
00032000
00203000
02300000
,
13000000
00100000
10000000
00010000
00100000
00001000
00010000
00000010
,
00000100
00000001
00000100
00000010
00001000
00000100
00010000
00001000
,
00100000
01000000
00100000
00001000
10000000
00100000
10000000
01000000
,
00200000
00000000
00000000
00000000
00000000
00000000
00000000
00000000
00000000
00000000
00000000
00000000
00310000
10000000
00000000
00000000
,
00010000
00000000
00100000
00001000
00000000
00001000
00010000
00000000
00000010
00000000
00000000
00000000
00000100
00000000
00000001
00000000
,
00000010
00000000
00000100
00010000
00000000
00010000
00001000
00000000
00100000
00000000
01000000
10000000
00000000
10000000
00100000
00000000
,
01000000
00000000
00010000
00001000
00000000
00001000
00000010
00000000
00000100
00000000
00000000
00000000
00000001
00000000
00001000
00000000
,
00000100
00000000
00010000
00001000
00000000
00001000
01000000
00000000
00100000
01000000
00100000
01000000
00010000
10000000
00010000
10000000
,
01000000
00000000
00100000
00001000
00000000
00001000
00010000
00000000
00000010
00000000
00000000
00000000
00000100
00000000
00000001
00000000
,
00000010
00000000
00000100
00010000
00000000
00010000
00001000
00000000
00100000
00000000
01000000
10000000
00000000
10000000
00010000
00000000
,
01000000
00000000
00001000
00010000
00000000
00010000
00000100
00000000
00000010
00000000
00000000
00000000
00000001
00000000
00000100
00000000
,
00000001
00000000
00010000
00001000
00000000
00001000
00100000
00000000
01000000
00100000
01000000
00100000
00010000
10000000
00010000
10000000
,
01000000
00000000
10000000
00010000
00000000
00010000
01000000
00000000
00001000
00000000
00010000
00000000
00000100
00000000
00000010
00000000
,
00000100
00000000
00001000
00000001
00000000
00000001
00000100
00000000
00000010
00000000
00010000
00001000
00000000
00001000
01000000
00000000
,
00100000
00000000
10000000
00010000
00000000
00010000
00100000
00000000
00010000
00000000
00001000
00000000
00000010
00000000
00000100
00000000
,
00000010
00000000
00001000
00000001
00000000
00000001
00000010
00000000
00000100
00000000
00000100
00000000
00010000
00001000
00010000
00001000
,
10000000
01000000
00000000
10000000
01000000
00000000
00100000
00001000
00000000
00100000
00001000
00000000
00010000
00000000
00000100
00000000
,
00000010
00000001
00000000
00000010
00000001
00000000
00000010
00000100
00000000
00000010
00000100
00000000
00010000
00001000
00010000
00000000
,
00001000
01000000
00000000
00001000
01000000
00000000
00010000
10000000
00000000
00010000
10000000
00000000
01000000
10000000
01000000
00000000
,
10020000
00000000
00000000
00000000
00000000
00000000
00000000
00000000
00000000
00000000
00000000
00000000
10030000
00010000
00000000
00010000
,
10000000
00000000
00100000
01000000
00000000
00100000
01000000
00001000
00010000
00000000
00000010
00000100
00000000
00000100
00000010
00000000
,
00001000
00000000
00000001
00000010
00000000
00000100
00000010
00000000
00000001
00000000
00000100
00000010
00000000
00000010
00010000
00000000
,
00001000
00000000
00100000
01000000
00000000
00100000
01000000
10000000
01000000
00000000
10000000
00100000
00000000
00100000
10000000
00000000
,
00001000
00000000
00100000
00001000
00010000
00001000
00010000
00000000
00000100
00000000
00000010
00000001
00000010
00000001
00000100
00000010
,
00000100
00000000
00000001
00001000
00000000
00000001
00001000
00000100
00010000
00000000
00001000
01000000
00000000
01000000
00100000
00000000
,
10000000
00000000
01000000
00100000
00000000
00100000
00001000
00000000
00010000
00000000
00000010
00000100
00000000
00000100
00000001
00000000
,
00000010
00000000
00000100
00001000
00000000
00001000
00010000
00000000
01000000
00000000
00100000
10000000
00000000
10000000
00001000
00000000
,
00101000
00000000
00000000
00101000
00000000
00000000
00000000
00011000
00000000
00000000
00010000
00000010
00000100
00000000
00000000
00000000
,
00001002
00000023
00000230
00020300
,
00032000
02003000
23000000
32000000
,
03002000
00023000
00030020
00000032
,
00000023
00002030
00023000
00130000
;

//---------------dance-single - ----------------
#NOTES:
     dance-single:
     :
     Beginner:
     1:
     0.078,0.112,0.065,0.000,0.000:
0000
0000
0000
0000
,
0000
0000
0000
0000
,
0000
0000
0000
0000
,
0000
0000
0000
0000
,
0000
0000
0000
0000
,
0001
0000
0000
0000
,
1000
0000
0000
0000
,
0001
0000
0000
0000
,
1000
0000
0000
0000
,
0100
0000
0000
0000
,
0010
0000
0000
0000
,
0100
0000
0000
0000
,
0010
0000
0000
0000
,
0001
0000
0000
0000
,
0100
0000
0000
0000
,
0001
0000
0000
0000
,
1000
0000
0000
0000
,
1001
0000
0000
0000
,
0010
0000
0000
0000
,
0100
0000
0000
0000
,
0010
0000
0000
0000
,
0100
0000
0000
0000
,
1000
0000
0000
0000
,
0100
0000
0000
0000
,
1000
0000
0000
0000
,
1001
0000
0000
0000
,
0001
0000
0000
0000
,
0100
0000
0000
0000
,
0001
0000
0000
0000
,
1000
0000
0000
0000
,
0100
0000
0000
0000
,
1000
0000
0000
0000
,
0010
0000
0000
0000
,
0110
0000
0000
0000
,
0000
0000
0000
0000
,
0000
0000
0000
0000
,
0000
0000
0000
0000
,
0100
0000
0000
0000
,
0010
0000
0000
0000
,
0100
0000
0000
0000
,
0010
0000
0000
0000
,
1001
0000
0000
0000
,
1000
0000
0000
0000
,
0001
0000
0000
0000
,
1000
0000
0000
0000
,
0100
0000
0000
0000
,
0010
0000
0000
0000
,
0100
0000
0000
0000
,
1000
0000
0000
0000
,
1001
0000
0000
0000
,
0001
0000
0000
0000
,
0100
0000
0000
0000
,
0010
0000
0000
0000
,
0100
0000
0000
0000
,
0001
0000
0000
0000
,
0010
0000
0000
0000
,
1001
0000
0000
0000
,
0100
0000
0000
0000
,
1000
0000
0000
0000
,
0010
0000
0000
0000
,
0100
0000
0000
0000
,
0010
0000
0000
0000
,
1000
0000
0000
0000
,
0100
0000
0000
0000
,
0010
0000
0000
0000
,
0110
0000
0000
0000
,
0000
0000
0000
0000
,
0000
0000
0000
0000
,
0000
0000
0000
1001
;
