#TITLE:Crazy Noisy Bizarre Town;
#SUBTITLE:;
#ARTIST:THE DU;
#TITLETRANSLIT:;
#SUBTITLETRANSLIT:;
#ARTISTTRANSLIT:;
#CREDIT:DigiMindAxel;
#BANNER:Crazy Noisy Bizarre Town.png;
#BACKGROUND:Crazy Noisy Bizarre Town-bg.png;
#LYRICSPATH:Crazy Noisy Bizarre Town.lrc;
#CDTITLE:DigiMindAxel original simfile.png;
#MUSIC:Crazy Noisy Bizarre Town.ogg;
#METERTYPE:DDR X;
#OFFSET:-0.353;
#SAMPLESTART:49.738;
#SAMPLELENGTH:12.000;
#SELECTABLE:YES;
#BPMS:0.000=136.000;
#STOPS:;
#BGCHANGES:-1.000=Crazy Noisy Bizarre Town.avi=1.000=1=1=0,
99999=-nosongbg-=1.000=0=0=0 // don't automatically add -songbackground-
;

//---------------dance-single - ----------------
#NOTES:
     dance-single:
     :
     Easy:
     3:
     0.166,0.241,0.093,0.120,0.000: // measure 1
0000
0000
0000
0000
,  // measure 2
0000
0000
0000
0000
,  // measure 3
0000
0000
0000
0000
,  // measure 4
1000
0000
0100
0000
,  // measure 5
2000
0000
0000
0000
,  // measure 6
3001
0000
0100
0000
,  // measure 7
0010
0100
0010
0000
,  // measure 8
1000
0000
0001
0000
,  // measure 9
0020
0000
0000
0000
,  // measure 10
0130
0000
0100
0000
,  // measure 11
0100
0000
0000
0000
,  // measure 12
1001
0000
1000
0000
,  // measure 13
0001
0000
0010
0000
,  // measure 14
0100
0000
1000
0000
,  // measure 15
0001
0000
0001
0000
,  // measure 16
1001
0000
1000
0000
,  // measure 17
0100
0000
1000
0000
,  // measure 18
0010
0000
0100
0000
,  // measure 19
0001
1000
0001
0000
,  // measure 20
1000
0000
0010
0000
,  // measure 21
0200
0000
0300
0000
,  // measure 22
0010
0000
0100
0000
,  // measure 23
0002
0000
0003
0000
,  // measure 24
0010
0000
0100
0000
,  // measure 25
2000
0000
3000
0000
,  // measure 26
0100
0000
0010
0000
,  // measure 27
0002
0000
0000
0000
,  // measure 28
1003
0000
0000
0000
,  // measure 29
1001
0000
0001
0000
,  // measure 30
0010
0100
1000
0000
,  // measure 31
1001
0000
1000
0000
,  // measure 32
0100
0010
0001
0000
,  // measure 33
1001
0000
0001
0000
,  // measure 34
0100
0010
1000
0000
,  // measure 35
0010
0100
0010
0100
,  // measure 36
0020
0000
0230
0000
,  // measure 37
0320
0000
0000
0000
,  // measure 38
0030
0000
0000
0000
,  // measure 39
1001
0000
0000
1000
0000
0000
0001
0000
,  // measure 40
0000
1000
0000
0000
0000
0000
0000
0000
,  // measure 41
0000
0110
0000
0000
0000
0000
0000
0000
;

//---------------dance-single - ----------------
#NOTES:
     dance-single:
     :
     Medium:
     7:
     0.373,0.401,0.413,0.160,0.000:
0000
0000
0000
0000
,
0000
0000
0000
0000
,
0000
0000
0000
0000
,
1000
0001
0000
1000
0001
0000
1000
0100
,
0010
0001
0010
0001
,
0100
0100
0100
0100
,
0101
0101
0110
0110
,
0010
1000
0000
0010
1000
0000
0001
0010
,
0100
0000
1000
0000
0100
0000
0000
1001
,
0000
0000
0000
0011
0000
0000
0000
0110
,
0000
0000
0000
1010
0000
0010
0010
0010
,
0100
0001
1000
0100
,
0001
0000
0100
0000
1000
0001
1000
0001
,
0010
0100
1000
0010
,
0001
0000
0010
0000
1000
0001
1000
0001
,
0200
0000
0000
0320
0000
0000
0000
0000
,
2030
0000
0000
3200
0000
0000
0000
0000
,
0310
0001
0010
0001
,
1001
1001
1100
1100
,
0010
0001
0010
0000
0100
0010
0100
0000
,
1000
0010
0100
0000
0010
0100
0000
0000
,
0001
0100
0001
0000
0100
0010
0100
0000
,
0010
1000
0010
0000
1000
0000
0001
0000
,
0010
0001
0010
0000
0100
0010
0100
1000
,
0000
0100
0010
0100
,
0110
0000
0000
0110
0000
0110
0000
0102
,
0000
0000
0000
0000
0000
0000
0000
1003
,
0000
0001
0100
0001
0100
0000
0000
0000
,
1001
0110
1001
0001
,
0100
0100
0000
0020
0000
0000
0130
0000
,
1001
0110
1001
1000
,
0100
0100
0000
0020
0000
0000
0130
0000
,
1001
0110
1001
0001
,
0020
0000
0100
0230
0000
0000
0300
0000
,
1100
1100
0011
0011
,
2001
0000
0000
0000
3020
0000
0000
0230
,
0000
0000
0000
0001
0000
0000
0000
0301
,
0000
0000
1000
0100
,
0010
0001
0000
0100
0010
0000
1000
0100
,
0000
1000
0001
0000
0000
0010
0100
1000
,
0000
1001
0000
0000
0000
0000
0000
0000
;

//---------------dance-single - ----------------
#NOTES:
     dance-single:
     :
     Hard:
     11:
     0.596,0.589,0.440,0.213,0.287:
0000
0000
0000
0000
,
0000
0000
0000
0000
,
0000
0000
0000
0000
,
1000
0100
1000
0100
0000
0000
0010
0001
0010
0001
0000
0000
0100
0010
0100
0010
,
0000
1000
0001
0000
0010
0000
0100
0000
0010
0000
0001
1000
0001
1000
0010
1000
,
0010
1000
0001
0000
0010
0100
1000
0000
,
1100
0000
0000
0000
0110
0000
0000
0000
0011
0000
0000
0001
0000
0000
1000
0000
,
0001
0100
0001
0100
0000
0000
0010
1000
0010
1000
0000
0000
0100
0010
0100
0010
,
0000
0001
1000
0000
0100
0000
0010
0000
0100
0000
1000
0000
1000
0000
0101
0000
,
0000
0001
0001
1100
0000
1000
1000
0101
,
0000
0001
0001
1100
0000
1000
1000
1000
,
0001
0000
0100
0000
0001
0000
1000
0000
0100
0000
0000
0010
0000
0000
0001
0000
,
1000
0000
0000
0010
0000
0000
1000
0000
0001
0000
0010
0100
0010
0100
1000
0100
,
1000
0000
0001
0000
1000
0000
0100
0000
1000
0000
0000
0001
0000
0000
0100
0000
,
0010
0000
0100
0000
0001
0000
0100
0000
0010
0000
0100
0001
0100
0001
1000
0100
,
2000
0000
3100
0020
0000
0031
0010
0100
,
2000
0000
3010
0200
0000
0301
0100
0010
,
2000
0100
0100
3100
,
1001
0101
1010
0101
,
0001
0010
1000
0010
0001
0001
0001
0010
,
0000
0100
1000
0001
0100
1000
0001
0000
,
1000
0100
0001
0100
1000
1000
1000
0010
,
0000
0100
0001
1000
0100
0001
1000
0000
,
0001
0010
1000
0010
0001
0001
1000
1100
,
0000
0010
0001
0100
0010
1000
0100
0000
,
1001
0100
0010
0011
0000
1100
0000
0012
,
0000
0000
0100
0000
0103
0010
0100
0101
,
0000
0001
0001
1000
2200
0000
3300
0000
,
1001
0001
0100
0001
1000
0000
1100
0000
,
0011
0001
0000
2001
0000
3100
1000
0010
,
0100
0001
1000
0100
0010
0000
0011
0000
,
1100
1000
0000
1002
0000
0013
0100
1000
,
0001
0010
0100
0010
0001
0000
0101
0000
,
0010
1000
0001
0201
0000
0000
0310
0000
,
1100
0000
0000
1000
0001
0000
0000
0001
0010
0000
0000
0010
0100
0000
0000
0000
,
1020
0000
0130
0001
2001
0000
3100
0020
,
0000
0031
0100
0120
0000
0130
0001
2001
,
0000
0000
3001
0000
1000
0000
0100
0000
0010
0100
0010
0000
0001
1000
0001
0000
,
1000
0010
1000
0010
0000
0000
1000
0001
1000
0001
0000
0000
0010
0100
0010
0100
,
0000
0000
1000
0010
1000
0010
0000
0000
0000
0000
1000
0001
1000
0001
0010
0100
,
0000
0110
0000
0000
0000
0000
0000
0000
;

//---------------dance-single - ----------------
#NOTES:
     dance-single:
     :
     Beginner:
     1:
     0.084,0.133,0.093,0.000,0.000:
0000
0000
0000
0000
,
0000
0000
0000
0000
,
0000
0000
0000
0000
,
1000
0000
0000
0000
,
0010
0000
0000
0000
,
1000
0000
0000
0000
,
0001
0000
0000
0000
,
1000
0000
0000
0000
,
0100
0000
0000
0000
,
1000
0000
0000
0000
,
0001
0000
0000
0000
,
1001
0000
0000
0000
,
0000
0000
0000
0000
,
0010
0000
0000
0000
,
0000
0000
0000
0000
,
0100
0000
0000
0000
,
1000
0000
0000
0000
,
0001
0000
0000
0000
,
0001
0000
0000
0000
,
1001
0000
0000
0000
,
1000
0000
0000
0000
,
1001
0000
0000
0000
,
0001
0000
0000
0000
,
1001
0000
0000
0000
,
1000
0000
0000
0000
,
1001
0000
0000
0000
,
0000
0000
0000
0000
,
0010
0000
0000
0000
,
0110
0000
0000
0000
,
0100
0000
0000
0000
,
0010
0000
0000
0000
,
0100
0000
0000
0000
,
0001
0000
0000
0000
,
1000
0000
0000
0000
,
1001
0000
0001
0000
,
0001
0000
0000
0000
,
1000
0000
0000
0000
,
0100
0000
0000
0000
,
0010
0000
0000
0001
,
0000
0000
0000
1000
,
0001
0000
0000
0000
;
