#TITLE:Crazy Jackpot;
#SUBTITLE:;
#ARTIST:Hommarju;
#TITLETRANSLIT:;
#SUBTITLETRANSLIT:;
#ARTISTTRANSLIT:;
#CREDIT:DigiMindAxel;
#BANNER:Crazy Jackpot.png;
#BACKGROUND:Crazy Jackpot-bg.png;
#LYRICSPATH:Crazy Jackpot.lrc;
#CDTITLE:REFLEC BEAT.png;
#MUSIC:Crazy Jackpot.ogg;
#METERTYPE:DDR X;
#OFFSET:-6.690;
#SAMPLESTART:34.894;
#SAMPLELENGTH:12.000;
#SELECTABLE:YES;
#BPMS:0.000=170.000;
#STOPS:;
#BGCHANGES:;

//---------------dance-single - ----------------
#NOTES:
     dance-single:
     :
     Easy:
     6:
     0.279,0.314,0.083,0.074,0.000:
1000
0000
0001
0000
,
0100
0000
0001
0000
,
1000
0100
0010
0000
,
0001
0010
0100
0000
,
2002
0000
0000
0000
,
0000
0000
0000
0003
,
0200
0000
0000
0000
,
0000
0000
0000
3000
,
0020
0000
0000
0000
,
0000
0000
0000
0300
,
0002
0000
0000
0000
,
0000
0000
0000
0033
,
1001
0000
0001
0000
,
1000
0000
1000
0000
,
0001
0000
0001
0000
,
1000
0000
1000
0000
,
0010
0100
0010
0000
,
0100
0001
0100
0000
,
0001
0010
0100
1000
,
0001
0001
0001
0000
,
1000
0010
1000
0010
,
0100
0001
0100
0000
,
0001
1000
0001
1000
,
0100
1000
0100
0000
,
0010
0001
0010
0001
,
1000
0100
1000
0000
,
0010
0100
0010
0100
,
0001
1000
0001
0000
,
1001
1000
0000
0000
,
1001
0001
0000
0000
,
1001
1000
0000
0000
,
1001
0001
0000
0000
,
1000
0000
0010
0000
,
0100
0000
0001
0000
,
1000
0000
0001
0000
,
1000
0100
0010
0001
,
1000
0000
1000
0000
,
1000
0000
1000
0000
,
0001
0000
0001
0000
,
0001
0000
0001
0000
,
1000
0000
1000
0000
,
1000
0000
1000
0000
,
0001
0000
0001
0000
,
0001
0000
0001
0000
,
1000
0001
1000
0001
,
1000
0100
1000
0100
,
0010
0001
0010
0001
,
0100
0010
0100
0010
,
1000
0001
1000
0001
,
0100
0001
0100
0001
,
1000
0100
1000
0100
,
0010
0000
0000
0000
,
1001
0001
0001
0001
,
1000
1000
1000
1000
,
0001
0001
0001
0001
,
1000
1000
1000
1000
,
0100
0010
0100
0010
,
0100
0010
0100
0010
,
0001
1000
0001
1000
,
2002
0000
0000
3003
,
0001
0100
0001
0100
,
0001
1000
0100
0010
,
0001
0100
0001
0100
,
0001
1000
0100
0010
,
0001
0100
0001
0100
,
0001
1000
0100
0010
,
0100
1000
0100
1000
,
0001
0100
0010
1000
,
0001
0001
0001
0001
,
0100
0010
1000
0010
,
0100
0100
0100
0100
,
0001
0010
0100
1000
,
0001
0001
0001
0001
,
1000
0100
0010
0001
,
1000
1000
1000
1000
,
2002
0000
0000
3003
,
1001
0000
0000
0000
;

//---------------dance-single - ----------------
#NOTES:
     dance-single:
     :
     Medium:
     8:
     0.437,0.471,0.248,0.050,0.000: // measure 1
1001
0000
1100
0000
,  // measure 2
1001
0000
0011
0000
,  // measure 3
1001
1000
1000
0001
,  // measure 4
0010
0100
1000
0001
,  // measure 5
0101
0100
0100
0100
,  // measure 6
0001
0001
0001
0001
,  // measure 7
0010
0010
0010
0010
,  // measure 8
0100
0100
0100
0100
,  // measure 9
1000
1000
1000
1000
,  // measure 10
0001
0001
0001
0001
,  // measure 11
0100
0100
0100
0100
,  // measure 12
0010
0010
0010
0010
,  // measure 13
1000
0100
0010
0100
,  // measure 14
1000
0100
0010
0100
,  // measure 15
1000
0001
0100
0001
,  // measure 16
1000
0001
0100
0001
,  // measure 17
1000
1000
1000
1000
,  // measure 18
0010
0010
0010
0010
,  // measure 19
0100
0001
1000
0100
,  // measure 20
0010
0001
0001
0000
,  // measure 21
1000
0100
1000
0000
0001
1000
0001
0000
,  // measure 22
0000
1000
0100
0000
0010
0001
0100
0000
,  // measure 23
0001
1000
0001
0000
1000
0010
1000
0000
,  // measure 24
0000
0100
0010
0000
0001
0100
0010
0000
,  // measure 25
1000
0100
1000
0000
0001
1000
0001
0000
,  // measure 26
0000
1000
0100
0000
1000
0001
0100
0000
,  // measure 27
0001
1000
0001
0000
1000
0100
1000
0000
,  // measure 28
0000
0010
0100
0000
0001
1000
0100
0000
,  // measure 29
1000
1000
1000
0000
1001
0000
0101
0000
,  // measure 30
0001
0001
0001
0000
1001
0000
1100
0000
,  // measure 31
1000
1000
1000
0000
1001
0000
0011
0000
,  // measure 32
0001
0001
0001
0000
1001
0000
1010
0000
,  // measure 33
1000
0000
0100
0000
0010
0000
0000
0001
,  // measure 34
0000
0000
0100
0000
0100
0000
0000
0010
,  // measure 35
0000
0000
1000
0000
0100
0000
0000
0010
,  // measure 36
0100
0100
0100
0100
,  // measure 37
1001
0000
0001
0000
,  // measure 38
0001
0000
0001
1000
,  // measure 39
0100
0000
0100
0000
,  // measure 40
0100
0000
0100
0010
,  // measure 41
0001
0000
0001
0000
,  // measure 42
0001
0000
0001
1000
,  // measure 43
0010
0000
0010
0000
,  // measure 44
0010
0010
0010
0010
,  // measure 45
1001
1000
0100
0010
,  // measure 46
0101
0001
0010
0100
,  // measure 47
1100
0100
0010
0001
,  // measure 48
1001
1000
0010
0100
,  // measure 49
0001
1000
0001
0000
0010
0000
0100
0000
,  // measure 50
1000
0001
1000
0000
0100
0000
0010
0000
,  // measure 51
0001
1000
0001
0000
0100
0000
0010
0000
,  // measure 52
1000
0001
1000
0000
0010
0000
0100
0000
,  // measure 53
0001
0010
0100
0000
1000
0000
1000
0000
,  // measure 54
0001
0010
0100
0000
1000
0000
1000
0000
,  // measure 55
0001
0100
0010
0000
0100
0000
0100
0000
,  // measure 56
0001
0100
0010
0000
0100
0000
0100
0000
,  // measure 57
0001
0010
0100
0000
0010
0000
0010
0000
,  // measure 58
0001
0010
0100
0000
0010
0000
0010
0000
,  // measure 59
1001
1001
0110
0110
,  // measure 60
2002
0000
0000
3003
,  // measure 61
0001
0100
0010
0000
0100
0010
0100
0000
,  // measure 62
0001
1000
0100
0000
1000
0100
1000
0100
,  // measure 63
1000
0010
0100
0000
0001
0100
0001
0000
,  // measure 64
1000
0001
1000
0001
0010
0001
0010
0000
,  // measure 65
0001
0010
0100
0000
1000
0001
1000
0000
,  // measure 66
0001
1000
0100
0000
0010
0001
0010
0001
,  // measure 67
1000
0100
0010
0000
0001
1000
0001
0000
,  // measure 68
1000
0100
0001
0100
,  // measure 69
1000
0100
0010
0000
0100
0010
0001
0000
,  // measure 70
0010
0100
1000
0000
0001
0010
0100
0000
,  // measure 71
1000
0010
0100
0000
0010
0100
0001
0000
,  // measure 72
1000
0010
0100
0010
1000
0000
1001
0000
,  // measure 73
0201
0010
0001
0310
,  // measure 74
1002
0100
1000
0103
,  // measure 75
0001
0010
0100
1000
0001
0000
0101
0000
,  // measure 76
0220
0000
0000
0330
,  // measure 77
1001
0000
0000
0000
;

//---------------dance-single - ----------------
#NOTES:
     dance-single:
     :
     Hard:
     12:
     0.622,0.597,0.298,0.322,0.145: // measure 1
1001
0000
1000
1000
1100
0000
0010
0010
,  // measure 2
0011
0000
0100
0100
0110
0000
1000
1000
,  // measure 3
0001
0010
0100
1000
0001
0000
0001
0000
,  // measure 4
1000
0100
0010
0001
1000
0000
1000
0000
,  // measure 5
1002
0100
1000
0103
,  // measure 6
0020
0100
1000
0130
,  // measure 7
0002
1000
0010
1003
,  // measure 8
0200
0010
0001
0310
,  // measure 9
0002
0010
0100
0013
,  // measure 10
0200
1000
0010
1300
,  // measure 11
0020
0100
0001
0130
,  // measure 12
0002
1000
0100
1003
,  // measure 13
1002
0013
2000
3010
,  // measure 14
0002
0013
2000
3010
,  // measure 15
0002
0103
2000
3100
,  // measure 16
0002
0103
2000
3100
,  // measure 17
1001
1001
0011
0011
,  // measure 18
1100
1100
0110
0110
,  // measure 19
0101
0110
1010
1001
,  // measure 20
1100
0110
0011
0000
,  // measure 21
0001
1000
0100
0001
0100
1000
0001
0010
,  // measure 22
0000
0010
0001
0100
1000
0100
0001
0010
,  // measure 23
0100
1000
0010
0001
0010
1000
0100
0010
,  // measure 24
0000
0010
0100
1000
0001
0100
1000
0100
,  // measure 25
0001
1000
0010
0001
0010
1000
0001
0010
,  // measure 26
0000
0010
0001
1000
0100
0001
0100
1000
,  // measure 27
0001
1000
0010
0001
0010
1000
0001
0010
,  // measure 28
0000
0010
0100
1000
0010
0001
0010
1000
,  // measure 29
0010
0000
0010
0000
0100
0000
0100
0000
0000
0001
0000
0001
1000
0000
0100
0000
,  // measure 30
0010
0000
0010
0000
0001
0000
0001
0000
0000
0100
0000
0100
0010
0000
0000
0000
,  // measure 31
0100
0000
0100
0000
0001
0000
0001
0000
0000
1000
0000
1000
0100
0000
0010
0000
,  // measure 32
0001
0000
0001
0000
0100
0000
0100
0000
0000
0010
0000
0010
1000
0000
0000
0000
,  // measure 33
1002
0000
0000
0000
1000
0000
0000
0000
1003
0000
0000
0001
0000
0000
0020
0000
,  // measure 34
0000
0000
0100
0000
0130
0000
0000
0000
1100
0000
0000
1000
0000
0000
0001
0000
,  // measure 35
0200
0000
0000
0000
0010
0000
0000
0000
0310
0000
0000
1000
0000
0000
0100
0000
,  // measure 36
0010
0001
0100
0010
1000
0001
0010
0100
,  // measure 37
2000
3000
2000
3000
,  // measure 38
2000
0000
3000
0000
2000
0000
3001
1000
,  // measure 39
0020
0030
0020
0030
,  // measure 40
0020
0000
0030
0000
0020
0000
1030
0001
,  // measure 41
0200
0300
0200
0300
,  // measure 42
0200
0000
0300
0000
0200
0000
0301
1000
,  // measure 43
0020
0030
0020
0030
,  // measure 44
0010
1000
0100
0001
0100
1000
0010
0100
,  // measure 45
0001
1000
0001
1000
0100
0010
0100
0010
,  // measure 46
0001
1000
0001
1000
0010
0100
0010
0100
,  // measure 47
0001
1000
0001
1000
0001
0010
0001
0010
,  // measure 48
0100
1000
0010
0100
0001
0010
0100
1000
,  // measure 49
0010
0100
0010
0100
0001
0010
0001
0010
,  // measure 50
0100
1000
0100
1000
0001
0100
0001
0100
,  // measure 51
0010
0100
0010
0100
0001
1000
0001
1000
,  // measure 52
0100
0010
0001
1000
0010
0100
0001
1000
,  // measure 53
0100
0100
0100
0010
0001
0000
0011
0000
,  // measure 54
0100
0100
0100
1000
0010
0000
0110
0000
,  // measure 55
0100
0100
0100
0001
1000
0001
1001
0000
,  // measure 56
0010
0010
0010
1000
0001
1000
1001
0000
,  // measure 57
1000
0100
0001
0100
1000
0001
1001
0000
,  // measure 58
0001
0100
1000
0100
0001
1000
1001
0000
,  // measure 59
1000
0010
0100
0001
1000
0000
1001
0000
,  // measure 60
0220
0000
0000
0330
,  // measure 61
0100
0000
0001
1000
0000
0001
0100
0000
0010
0000
1000
0000
0200
0000
0000
0000
,  // measure 62
0310
0000
0001
0100
0000
0001
1000
0000
0100
0000
0100
0000
0010
0000
0010
0000
,  // measure 63
0001
0000
1000
0100
0000
1000
0001
0000
0010
0000
0100
0000
2000
0000
0000
0000
,  // measure 64
3001
0000
0100
0010
0000
1000
0010
0000
0100
0000
0001
0000
1000
0000
0100
0000
,  // measure 65
0010
0000
0001
1000
0000
0100
1000
0000
0001
0000
0100
0000
0020
0000
0000
0000
,  // measure 66
0130
0000
0010
1000
0000
0001
0010
0000
0100
0000
1000
0000
0001
0000
0100
0000
,  // measure 67
0010
0000
1000
0001
0000
0010
0001
0000
1000
0000
0010
0000
0200
0000
0000
0000
,  // measure 68
0301
1000
0100
0010
0001
0000
1001
0000
,  // measure 69
1000
0000
0001
0000
0000
0010
0000
0000
0100
0000
0000
1000
0000
0000
0001
0000
,  // measure 70
0000
1000
0000
0000
0100
0000
0000
0010
0000
0000
0001
0000
1000
0000
1000
0000
,  // measure 71
0000
0000
0100
0000
0000
1000
0000
0000
0001
0000
0000
0100
0000
0000
0001
0000
,  // measure 72
0010
0010
0100
0100
1000
0000
1001
0000
,  // measure 73
0001
0000
1000
0000
0000
0010
0000
0000
0001
0000
0000
0010
0000
0000
1000
0000
,  // measure 74
0000
0100
0000
0000
0001
0000
0000
0100
0000
0000
1000
0000
0001
0000
0001
0000
,  // measure 75
1000
0100
0010
0001
0100
0000
0101
0000
,  // measure 76
0001
1000
0100
1000
0001
0000
0101
0000
,  // measure 77
1001
0000
0000
0000
;

//---------------dance-single - ----------------
#NOTES:
     dance-single:
     :
     Challenge:
     16:
     0.878,1.000,0.281,0.207,0.769: // measure 1
0001
0000
1000
0100
1000
0100
1000
0000
0001
0000
0100
0010
0100
0010
0100
0000
,  // measure 2
0001
0000
1000
0100
1000
0100
1000
0000
0001
0000
0100
0010
0100
0010
0100
0000
,  // measure 3
0001
1000
0001
0000
0010
0000
0100
0000
1000
0010
1000
0010
1000
0000
0000
0000
,  // measure 4
0001
0100
1000
0100
0001
0000
0101
0000
,  // measure 5
1001
1000
1000
0100
0100
0010
0010
0001
,  // measure 6
0000
1000
1000
0100
0100
0010
0010
0001
,  // measure 7
1000
0001
0001
0100
0100
0010
0010
1000
,  // measure 8
0000
0001
0001
0100
0100
0010
0010
1000
,  // measure 9
0001
1000
1000
0010
0010
0100
0100
0001
,  // measure 10
0000
1000
1000
0010
0010
0100
0100
0001
,  // measure 11
1000
0100
0100
0010
0010
0100
0100
1000
,  // measure 12
0000
0010
0010
0100
0100
0001
0001
0010
,  // measure 13
0100
1000
0001
0000
0100
0001
1000
0000
,  // measure 14
0100
0000
0010
0000
0001
0000
0000
0000
0010
0000
0100
0000
1000
0001
1000
0001
,  // measure 15
1000
0010
0100
0000
0010
0100
0001
0000
,  // measure 16
1000
0000
0100
0000
0010
0000
0000
0000
0100
0000
0010
0000
0001
1000
0001
1000
,  // measure 17
0001
0000
0000
0010
0001
0000
1000
0000
1000
0000
0000
0010
0100
0000
0001
0000
,  // measure 18
0001
0000
0000
0010
0100
0000
1000
0000
1000
0000
0000
0010
0100
0000
0001
0000
,  // measure 19
0001
0000
0000
0100
0001
0000
1000
0000
1000
0000
0000
0100
0010
0000
0001
0000
,  // measure 20
1000
1000
1000
0000
,  // measure 21
0001
0000
0100
0010
0100
0000
0001
1000
0100
0000
0001
0000
0100
0000
1000
0000
,  // measure 22
0000
0000
0100
0010
0100
0000
0010
0001
0010
0000
0100
0000
1000
0001
1000
0000
,  // measure 23
0010
0000
1000
0010
1000
0000
0001
1000
0100
0000
0001
0000
0100
0000
1000
0000
,  // measure 24
0000
0000
0010
0100
0010
0000
0100
0001
0100
0000
0001
0000
0010
0100
0010
0000
,  // measure 25
0001
0000
1000
0010
1000
0000
0001
0010
0001
0010
0001
0000
0100
0000
0010
0000
,  // measure 26
0000
0000
1000
0010
1000
0000
0001
1000
0001
0000
0010
0000
0100
0010
0100
0000
,  // measure 27
1000
0000
0001
0010
0001
0000
1000
0010
1000
0010
1000
0000
0100
0000
0010
0000
,  // measure 28
0000
0000
0001
0010
0001
0000
1000
0010
1000
0000
0001
0000
1000
0010
1000
0000
,  // measure 29
1001
0000
0001
0000
1000
0000
1000
0000
0000
0010
0000
0100
0010
0000
1000
0000
,  // measure 30
1001
0000
0001
0000
1000
0000
1000
0000
0000
0100
0000
0010
0100
0000
0000
0000
,  // measure 31
1001
0000
1000
0000
0001
0000
0001
0000
0000
0100
0000
0010
0100
0000
0001
0000
,  // measure 32
1001
0000
1000
0000
0001
0000
0001
0000
0000
0010
0000
0100
0010
0000
0000
0000
,  // measure 33
1001
0000
0000
0000
1001
0000
0000
0000
1010
0000
0000
0110
0000
0000
0102
0000
,  // measure 34
0000
0000
1000
0000
1003
0000
0000
0000
0011
0000
0000
0110
0000
0000
1100
0000
,  // measure 35
1001
0000
0000
0000
1001
0000
0000
0000
0101
0000
0000
0110
0000
0000
1010
0000
,  // measure 36
1000
0000
0001
0010
0001
0000
0010
0100
0010
0000
0100
1000
0100
0000
1000
0001
,  // measure 37
2000
3001
2000
3010
,  // measure 38
2000
0000
0000
0000
3001
0000
0000
0000
2000
0000
0000
0000
3010
0100
0010
0100
,  // measure 39
0020
1030
0002
0013
,  // measure 40
0200
0000
0000
0000
0310
0000
0000
0000
0002
0000
0000
0000
0103
0010
0100
0010
,  // measure 41
0200
0310
2000
3100
,  // measure 42
0020
0000
0000
0000
0031
0000
0000
0000
2000
0000
0000
0000
3100
0010
0100
0010
,  // measure 43
0200
1300
0020
0130
,  // measure 44
0001
0000
1000
0010
1000
0010
1000
0000
0001
0010
0001
0000
1000
0001
1000
0000
,  // measure 45
0100
0100
0010
0010
0001
0001
1000
1000
,  // measure 46
0001
0000
0001
0000
0100
0000
0100
0000
0010
0000
0010
0000
1000
0001
0010
0001
,  // measure 47
1000
1000
0010
0010
0100
0100
0001
0001
,  // measure 48
1000
0000
1000
0000
0100
0000
0100
0000
0010
0000
0010
0000
0001
1000
0010
1000
,  // measure 49
0001
0001
1000
1000
0100
0100
0010
0010
,  // measure 50
0001
0000
0001
0000
1000
0000
1000
0000
0010
0000
0010
0000
0100
0001
0010
0001
,  // measure 51
0100
0100
0001
0001
0010
0010
0100
0100
,  // measure 52
1001
0000
0001
0100
0001
0000
1000
0001
1000
0000
0100
1000
0100
0000
0010
0000
,  // measure 53
0002
0000
0100
0000
0103
0000
0001
0000
1000
0100
1000
0100
0010
0000
0000
0000
,  // measure 54
0002
0000
0100
0000
0103
0000
0010
0000
1000
0001
1000
0001
0010
0000
0000
0000
,  // measure 55
0200
0000
1000
0000
1300
0000
0001
0000
0100
0010
0100
0010
1000
0000
0000
0000
,  // measure 56
0200
0000
0010
0000
0310
0000
0001
0000
0100
0010
0100
0010
1000
0000
0000
0000
,  // measure 57
0001
1000
0001
0000
1000
0001
1000
0000
0010
1000
0010
0000
1000
0010
1000
0000
,  // measure 58
0001
1000
0001
0000
1000
0001
1000
0000
0001
0010
0001
0000
0010
0001
0010
0000
,  // measure 59
0001
1000
0001
1000
0001
1000
0001
1000
0001
1000
0001
1000
0001
0000
0000
0000
,  // measure 60
2002
0000
0000
3003
,  // measure 61
0001
0000
0100
0010
0000
0010
1000
0001
0010
0100
0010
0100
0020
0000
0000
0000
,  // measure 62
0031
0000
1000
0100
0000
0100
0010
0001
1000
0010
1000
0010
0100
0001
0100
0001
,  // measure 63
1000
0000
0100
0010
0000
0010
0001
0100
0010
1000
0010
1000
0020
0000
0000
0000
,  // measure 64
0130
0010
0100
0001
0000
0001
0010
0100
1000
0010
1000
0010
0100
0001
0100
0001
,  // measure 65
1000
0000
0100
0010
0000
0010
0001
1000
0100
0010
0100
0010
0200
0000
0000
0000
,  // measure 66
1300
0000
0100
1000
0000
1000
0001
0010
0100
1000
0100
1000
0010
0100
0010
0100
,  // measure 67
0001
0000
0100
0010
0000
0010
1000
0001
0010
0100
0010
0100
0020
0000
0000
0000
,  // measure 68
0031
1000
0100
0010
0000
0010
0001
1000
0010
0100
0010
0100
0001
0010
0001
0010
,  // measure 69
0100
0000
1100
0000
0000
1001
0000
0000
0011
0000
0000
1001
0000
0000
1010
0000
,  // measure 70
0000
1001
0000
0000
0101
0000
0000
0100
0010
0100
0010
1000
0100
0010
0001
0000
,  // measure 71
0100
0000
0101
0000
0000
1001
0000
0000
1010
0000
0000
1001
0000
0000
0011
0000
,  // measure 72
0001
1000
0001
0000
1000
0001
1000
0000
0010
0100
0010
0100
0001
0010
0100
0000
,  // measure 73
1000
0001
0100
0001
1000
0000
0100
0000
0010
0001
0100
0010
0100
0000
0010
0000
,  // measure 74
1000
0001
1000
0001
0010
0000
0100
0000
1000
0010
1000
0010
0100
0001
1000
0000
,  // measure 75
0100
1000
0100
1000
0010
0100
0010
0100
0001
1000
0010
1000
0001
1000
0010
0000
,  // measure 76
1000
0100
1000
0100
0010
0001
0010
0001
1000
0010
0100
0010
1000
0010
0100
0000
,  // measure 77
1001
0000
0000
0000
;

//---------------dance-single - ----------------
#NOTES:
     dance-single:
     :
     Beginner:
     3:
     0.133,0.188,0.066,0.000,0.000:
1000
0000
1000
0000
,
1000
0000
1000
0000
,
0001
0000
0001
0000
,
0001
0000
0000
0000
,
1001
0000
0000
0000
,
0000
0000
0000
0000
,
0000
0000
0000
0000
,
0000
0000
0000
0000
,
1000
0000
0000
0000
,
0000
0000
0000
0000
,
0000
0000
0000
0000
,
0000
0000
0000
0000
,
0001
0000
0100
0000
,
0001
0000
0100
0000
,
0001
0000
1000
0000
,
0001
0000
1000
0000
,
0100
0000
0000
0000
,
0100
0000
0000
0000
,
0010
0000
0000
0000
,
0010
0000
0000
0000
,
1001
0000
1000
0000
,
0001
0000
0000
0000
,
1000
0000
0001
0000
,
1000
0000
0000
0000
,
0100
0000
1000
0000
,
0100
0000
0000
0000
,
0010
0000
0001
0000
,
0010
0000
0000
0000
,
0001
0000
0001
0000
,
0100
0000
0100
0000
,
0001
0000
0001
0000
,
1000
0000
1000
0000
,
0100
0000
0000
0000
,
0000
0000
0000
0000
,
0010
0000
0000
0000
,
0001
0000
0000
0000
,
1001
0000
0000
0000
,
0000
0000
0000
0000
,
1000
0000
0000
0000
,
0000
0000
0000
0000
,
0100
0000
0000
0000
,
0000
0000
0000
0000
,
0010
0000
0000
0000
,
0001
0000
0000
0000
,
1000
0000
1000
0000
,
1000
0000
1000
0000
,
0001
0000
0001
0000
,
0001
0000
0000
0000
,
0010
0000
0010
0000
,
0010
0000
0010
0000
,
0100
0000
0100
0000
,
0100
0000
0000
0000
,
1001
0000
0000
0000
,
1001
0000
0000
0000
,
1001
0000
0000
0000
,
1001
0000
0000
0000
,
1000
0000
0100
0000
,
1000
0000
0001
0000
,
1000
0000
0100
0000
,
0010
0000
0000
0000
,
0001
0000
0100
0000
,
0010
0000
0010
0000
,
0100
0000
0001
0000
,
1000
0000
1000
0000
,
0100
0000
0010
0000
,
0001
0000
0100
0000
,
0010
0000
0010
0000
,
1000
0000
0001
0000
,
0010
0000
0010
0000
,
0010
0000
0010
0000
,
0100
0000
0100
0000
,
0100
0000
0000
0000
,
1000
0000
1000
0000
,
1000
0000
1000
0000
,
0001
0000
0001
0000
,
0010
0000
0000
0000
,
1001
0000
0000
0000
;
