#TITLE:Claiomh Solais;
#SUBTITLE:;
#ARTIST:ETIA.;
#TITLETRANSLIT:;
#SUBTITLETRANSLIT:;
#ARTISTTRANSLIT:;
#CREDIT:DigiMindAxel;
#BANNER:Claiomh Solais.png;
#BACKGROUND:Claiomh Solais-bg.png;
#LYRICSPATH:;
#CDTITLE:DigiMindAxel original simfile.png;
#MUSIC:Claiomh Solais.ogg;
#METERTYPE:DDR X;
#OFFSET:-11.581;
#SAMPLESTART:21.775;
#SAMPLELENGTH:12.000;
#SELECTABLE:YES;
#BPMS:0.000=94.000,16.000=188.000,255.000=94.000;
#STOPS:239.500=0.319
;
#BGCHANGES:;

//---------------dance-single - ----------------
#NOTES:
     dance-single:
     :
     Easy:
     5:
     0.225,0.289,0.082,0.139,0.000: // measure 1
2000
0000
3002
0000
,  // measure 2
2003
0000
3200
0000
,  // measure 3
0320
0000
0032
0000
,  // measure 4
0203
0000
0300
0000
,  // measure 5
1001
0000
0001
0000
,  // measure 6
1000
0100
0010
0001
,  // measure 7
1000
0000
1000
0000
,  // measure 8
0010
0100
0001
0100
,  // measure 9
0010
0000
0010
0000
,  // measure 10
1000
0100
0010
0001
,  // measure 11
0100
0000
0100
0000
,  // measure 12
0001
1000
0100
1000
,  // measure 13
0001
0000
0100
0000
,  // measure 14
0010
0100
0001
1000
,  // measure 15
0100
0000
0100
0000
,  // measure 16
0010
0001
0100
0010
,  // measure 17
1000
0000
1000
0000
,  // measure 18
0100
0010
0001
0010
,  // measure 19
0100
0000
0100
0000
,  // measure 20
1000
0010
0100
0010
,  // measure 21
1000
0000
1001
0000
,  // measure 22
0010
0000
0110
0000
,  // measure 23
0100
0000
0010
0000
,  // measure 24
2000
0000
0000
0000
,  // measure 25
3001
0000
0000
0000
,  // measure 26
1001
0000
0000
0000
,  // measure 27
0100
0000
0000
0000
,  // measure 28
0110
0000
0110
0000
,  // measure 29
1001
0000
0000
0000
,  // measure 30
0110
0000
0000
0000
,  // measure 31
1000
0000
0100
0000
,  // measure 32
0010
0000
0001
0000
,  // measure 33
1000
0000
0000
0001
0000
0000
1000
0000
,  // measure 34
0000
0001
0000
0000
1000
0000
0000
0000
,  // measure 35
0010
0000
0000
1000
0000
0000
0010
0000
,  // measure 36
0000
1000
0000
0000
0010
0000
0000
0000
,  // measure 37
0100
0000
0000
0001
0000
0000
0100
0000
,  // measure 38
0000
0001
0000
0000
0100
0000
0000
0000
,  // measure 39
0001
0000
0000
1000
0000
0000
0001
0000
,  // measure 40
0000
1000
0000
0000
0001
0000
0000
0000
,  // measure 41
0010
0000
0100
0000
,  // measure 42
1000
0100
0010
0000
,  // measure 43
0001
0000
0100
0000
,  // measure 44
0010
0100
0001
0000
,  // measure 45
2000
0000
0000
0000
,  // measure 46
3002
0000
0000
0000
,  // measure 47
2003
0000
0000
0000
,  // measure 48
3002
0000
0000
0000
,  // measure 49
1003
0100
0010
0001
,  // measure 50
1000
0000
0100
0000
,  // measure 51
1000
0010
0100
0001
,  // measure 52
1000
0000
0100
0000
,  // measure 53
0010
0001
0100
0010
,  // measure 54
1000
0000
0001
0000
,  // measure 55
0010
0001
0100
0010
,  // measure 56
1000
0000
0100
0000
,  // measure 57
1000
0010
0100
0010
,  // measure 58
1000
0100
0010
0000
,  // measure 59
0001
1000
0010
1000
,  // measure 60
0001
0010
0110
0000
,  // measure 61
1001
0001
0000
1000
,  // measure 62
0000
0100
0000
0010
,  // measure 63
0000
0001
0000
0200
,  // measure 64
0000
0000
0000
0320
,  // measure 65
0000
1000
0000
1000
,  // measure 66
0000
1030
0000
0002
,  // measure 67
0000
1000
0000
1000
,  // measure 68
0000
1000
0000
1003
,  // measure 69
0000
0200
0000
1000
,  // measure 70
0000
1000
0000
1300
,  // measure 71
0000
0000
0020
0000
0000
0000
0000
0030
;

//---------------dance-single - ----------------
#NOTES:
     dance-single:
     :
     Medium:
     8:
     0.447,0.440,0.473,0.334,0.033: // measure 1
1000
0001
1000
0100
,  // measure 2
0010
0100
1000
0001
,  // measure 3
0100
0001
1000
0010
,  // measure 4
0200
0000
0000
0300
,  // measure 5
1001
0001
1001
0110
,  // measure 6
0100
1000
0100
0000
0010
0100
0010
0000
,  // measure 7
1001
1000
1001
0110
,  // measure 8
0100
0001
0100
0000
0010
0100
0010
0000
,  // measure 9
1100
1000
1100
0110
,  // measure 10
0010
0001
0010
0000
0100
0010
0100
0000
,  // measure 11
0011
0010
0011
0110
,  // measure 12
0100
1000
0100
0000
0010
0100
0010
0000
,  // measure 13
0001
0100
0010
0000
0100
0010
0100
0000
,  // measure 14
1001
1001
1010
0101
,  // measure 15
0100
0001
1000
0000
0100
0010
0100
0000
,  // measure 16
1010
1010
0011
1100
,  // measure 17
0010
0001
0100
0000
0010
0100
0010
0000
,  // measure 18
0110
0110
0011
1100
,  // measure 19
0100
1000
0010
0000
0100
0001
0010
0000
,  // measure 20
0120
0100
1000
1030
,  // measure 21
0101
0000
0000
0110
0000
0000
1000
0100
,  // measure 22
0010
0000
0000
0001
0000
1001
0000
1000
,  // measure 23
0010
0000
0000
0110
0000
0000
0100
0001
,  // measure 24
0020
0000
0000
0000
,  // measure 25
0130
1000
0000
0001
,  // measure 26
0110
0100
0000
0010
,  // measure 27
1000
0001
0000
0010
,  // measure 28
0110
0000
1100
0000
,  // measure 29
0011
0000
0000
0000
0000
0010
0000
0000
,  // measure 30
1001
0000
0000
1100
0000
0000
0100
0000
,  // measure 31
0110
0010
0001
0010
,  // measure 32
0001
0000
0200
0000
0000
0010
0000
0000
,  // measure 33
0310
0000
0000
1010
0000
0000
0101
0000
,  // measure 34
0000
0000
1010
0000
0000
0000
0000
0000
0010
0000
0000
1000
0000
0000
0001
0000
,  // measure 35
1000
0000
0000
1100
0000
0000
0011
0000
,  // measure 36
0000
0000
1100
0000
0000
0000
0000
0000
0010
0000
0000
0001
0000
0000
0100
0000
,  // measure 37
0010
0000
0000
1010
0000
0000
0101
0000
,  // measure 38
0000
0000
1010
0000
0000
0000
0000
0000
0100
0000
0000
0001
0000
0000
1000
0000
,  // measure 39
0100
0000
0000
0110
0000
0000
0011
0000
,  // measure 40
0000
0000
0110
0000
0000
0000
0000
0000
0010
0000
0000
0001
0000
0000
1000
0000
,  // measure 41
0010
0000
1000
0100
0010
0000
0001
0000
,  // measure 42
0100
0000
0000
0000
0001
0000
1000
0000
0100
0000
0000
0010
0000
0000
0001
0000
,  // measure 43
0100
0000
0001
0010
0100
0000
0010
0000
,  // measure 44
0001
0000
0000
0000
0100
0000
0001
0000
0010
0000
0000
0100
0000
0000
1000
0000
,  // measure 45
0002
0100
0000
0103
,  // measure 46
0020
0100
0000
0130
,  // measure 47
0002
1000
0000
1003
,  // measure 48
0200
1000
0000
1300
,  // measure 49
0002
0100
0203
0010
,  // measure 50
0320
1000
2030
0001
,  // measure 51
3002
0010
0023
0100
,  // measure 52
0230
1000
2300
0001
,  // measure 53
3001
1000
0001
0000
0100
0000
0101
0000
,  // measure 54
0010
0100
0010
0000
1000
0000
1100
0000
,  // measure 55
0010
0001
0100
0000
0001
0000
1001
0000
,  // measure 56
0100
1000
0010
0000
0100
0000
0110
0000
,  // measure 57
0101
1000
0101
1000
,  // measure 58
0110
0000
0001
0010
0100
0000
1000
0000
,  // measure 59
0011
0000
0100
0000
1000
0000
0100
0010
,  // measure 60
0001
0000
0000
0000
0100
0000
0000
0000
0001
0000
0000
1000
0000
0000
1001
0000
,  // measure 61
0010
0100
0002
0000
0000
0000
0103
0000
,  // measure 62
0000
0001
1000
0001
0000
1000
0002
0000
,  // measure 63
0000
0203
0000
0320
,  // measure 64
0000
0000
0030
1002
,  // measure 65
0000
0000
0100
0000
0203
0000
0000
0310
0000
0000
1000
0000
0002
0000
0000
0000
,  // measure 66
2003
3200
0320
0230
,  // measure 67
0000
2300
3002
0203
,  // measure 68
0302
2003
3200
0320
,  // measure 69
0000
0032
0203
2300
,  // measure 70
0000
0000
3100
0001
0010
0100
2000
0000
,  // measure 71
0000
0000
3002
0000
2003
0000
0000
3200
,  // measure 72
0000
0000
0000
0000
,  // measure 73
0300
0000
0000
0000
;

//---------------dance-single - ----------------
#NOTES:
     dance-single:
     :
     Hard:
     12:
     0.554,0.557,0.399,0.114,0.057: // measure 1
0010
0000
1000
0000
0100
0010
0001
0000
,  // measure 2
0100
0000
0001
0000
0010
0100
1000
0000
,  // measure 3
0001
0000
0100
0000
0001
1000
0100
0000
,  // measure 4
0020
0000
0001
0031
,  // measure 5
1000
0010
1000
0000
1000
0001
0100
0000
,  // measure 6
0001
0100
0001
1000
0100
0001
0100
1000
,  // measure 7
0010
0100
0010
0000
0010
0100
0001
0000
,  // measure 8
0010
0100
0010
0100
1000
0010
0001
0010
,  // measure 9
1000
0100
1000
0000
1000
0001
0100
0000
,  // measure 10
0001
0100
0001
1000
0001
0010
1000
0010
,  // measure 11
0001
0100
0001
0000
0001
0100
0010
0000
,  // measure 12
1000
0100
0001
0100
1000
0010
0100
0001
,  // measure 13
0010
0100
1000
0001
0010
0100
1000
0000
,  // measure 14
1000
0010
0100
0010
1000
0010
0100
0000
,  // measure 15
0001
0010
0100
1000
0001
0100
0010
0000
,  // measure 16
0010
1000
0100
0010
0100
1000
0100
0000
,  // measure 17
1000
0010
0100
0001
1000
0100
0010
0000
,  // measure 18
0010
0001
0100
0001
0010
0100
1000
0000
,  // measure 19
0001
0100
0010
0100
0001
1000
0100
0010
,  // measure 20
0001
0000
0100
0000
0001
0000
1000
0000
0100
1000
0100
0000
0010
0000
0001
0000
,  // measure 21
1001
0000
0000
1010
1000
0000
0100
0010
,  // measure 22
0001
0100
0000
0110
0000
0110
0000
0001
,  // measure 23
0011
0000
0000
0010
0100
1000
0001
0010
,  // measure 24
0200
0000
0000
0000
,  // measure 25
1300
0100
0010
0001
,  // measure 26
1010
0100
0001
1000
,  // measure 27
0110
0001
1000
0010
,  // measure 28
1001
0100
0101
0010
,  // measure 29
1020
0000
0000
0000
0000
1030
0001
0000
,  // measure 30
0101
0000
0000
0110
0000
0000
1100
0000
,  // measure 31
1001
0000
0001
0100
0010
0000
1000
0010
,  // measure 32
0100
0001
0000
1001
0000
0000
0000
0000
,  // measure 33
1000
0010
0100
0110
0000
0100
0010
0001
,  // measure 34
1000
0000
1001
0000
0000
0000
0001
0000
1000
0000
0000
0100
0000
0000
0010
0000
,  // measure 35
0001
0100
0010
0110
0000
0010
0100
0010
,  // measure 36
0001
0000
1001
0000
0000
0000
1000
0000
0001
0000
0000
0010
0000
0000
0100
0000
,  // measure 37
1000
0010
0100
0101
0000
0001
0010
0100
,  // measure 38
1000
0000
1001
0000
0000
0000
0010
0000
1000
0000
0000
0010
0000
0000
0100
0000
,  // measure 39
0001
0010
0100
1100
0000
1000
0010
0100
,  // measure 40
0001
0000
1001
0000
0000
0000
0010
0000
0001
0000
0000
0010
0000
0000
0100
0000
,  // measure 41
1000
0010
0001
0010
1000
0001
1000
0100
,  // measure 42
0001
0000
0100
0000
1000
0000
0001
0000
1000
0000
0000
1010
0000
0000
0010
0000
,  // measure 43
0100
0001
0010
1000
0010
0001
1000
0001
,  // measure 44
0100
0000
1000
0000
0100
0000
0001
0000
0100
0000
0000
1001
0000
0000
1000
0000
,  // measure 45
0020
0000
0100
0000
0130
0000
0001
1000
,  // measure 46
0200
0000
0000
0000
0010
0000
0000
0000
0310
0000
0000
0001
0000
0000
1000
0000
,  // measure 47
0020
0000
0100
0000
0130
0000
0001
0010
,  // measure 48
0200
0000
0000
0000
0010
0000
0000
0000
0310
0000
0000
0001
0000
0000
1000
0000
,  // measure 49
0010
0100
0001
0000
0001
0100
0010
0000
,  // measure 50
1000
0100
0010
0000
0010
0001
0100
0000
,  // measure 51
0001
1000
0100
0000
0100
0010
0001
0000
,  // measure 52
0100
0001
1000
0000
1000
0100
0010
0000
,  // measure 53
0001
0100
0010
0100
0001
1000
0100
0000
,  // measure 54
1000
0100
0010
0100
1000
0001
0100
0000
,  // measure 55
0001
0010
0001
1000
0010
0001
0010
1000
,  // measure 56
0001
0100
0001
0010
0100
1000
0001
0100
,  // measure 57
0110
0000
1000
0001
0011
0000
0100
1000
,  // measure 58
1001
0000
0010
0100
0101
0000
0010
1000
,  // measure 59
1002
0000
0100
0000
0103
0000
0001
1000
,  // measure 60
1200
0000
0000
0000
0010
0000
0000
0000
0310
0000
0000
0101
0000
0000
0110
0000
,  // measure 61
1001
0001
0100
0000
0010
0000
1100
0000
,  // measure 62
0000
0010
0100
0001
0010
0100
0110
0000
,  // measure 63
0000
0000
0100
0001
0100
0000
0000
0000
0000
0000
0000
0000
2002
0000
0000
0000
,  // measure 64
0000
0000
3003
0110
,  // measure 65
0000
0010
0100
1000
0001
0000
0000
0001
0000
0000
0100
0000
0110
0000
0000
0000
,  // measure 66
1010
0101
1001
2001
,  // measure 67
0000
3000
1010
0000
0110
0000
0011
0000
,  // measure 68
0110
0000
1100
0000
0100
0001
1000
0100
,  // measure 69
0010
0000
0001
0100
0010
0000
1000
0100
,  // measure 70
0010
0000
0001
0010
0100
1000
0001
0100
,  // measure 71
0010
0000
0100
0001
0010
0000
0000
2002
,  // measure 72
0000
0000
0000
0000
0000
0000
0000
0000
0000
0000
0000
0003
0000
0000
0000
0000
,  // measure 73
3000
0000
0000
0000
;

//---------------dance-single - ----------------
#NOTES:
     dance-single:
     :
     Challenge:
     15:
     0.708,0.734,0.571,0.196,0.277: // measure 1
1000
0000
0000
0001
0100
0000
0000
0000
0001
0000
0000
0001
0010
0100
1000
0100
,  // measure 2
0010
0000
0000
0001
0100
0000
0000
0000
0010
0000
0000
0010
1000
0100
0010
0001
,  // measure 3
0200
0000
0000
0001
0000
0000
0301
0000
1000
0000
0000
1000
0010
0100
0001
0100
,  // measure 4
0010
0000
0000
0010
0000
0000
0010
0000
0200
0000
0000
0000
0010
0000
0000
0000
,  // measure 5
0310
1000
0100
1000
0001
0100
0001
1000
,  // measure 6
0010
0001
0010
1000
0001
0010
0001
0100
,  // measure 7
0010
1000
0010
0100
0010
0100
0001
1000
,  // measure 8
0010
0001
0010
1000
0100
0010
0001
1000
,  // measure 9
0100
0010
0100
1000
0010
1000
0001
1000
,  // measure 10
0100
0001
0100
1000
0010
0100
0010
1000
,  // measure 11
0001
0010
0100
0010
0001
1000
0010
1000
,  // measure 12
0001
1000
0010
0001
0010
1000
0001
0100
,  // measure 13
0001
1000
0100
1000
0001
0001
1000
1000
,  // measure 14
0001
0010
1000
0010
0001
0010
1000
0010
,  // measure 15
0001
1000
0001
0100
0010
0010
1000
1000
,  // measure 16
0001
0100
1000
0100
0001
0100
1000
0100
,  // measure 17
0001
0010
0100
1000
0001
0001
0100
0100
,  // measure 18
0001
0010
1000
0010
0001
0100
1000
0100
,  // measure 19
0001
0010
0100
1000
0001
0001
0100
0100
,  // measure 20
0001
1000
0001
1000
0001
1000
0001
1000
0001
0100
0001
0100
0001
0100
0001
0000
,  // measure 21
2001
0000
0000
0100
3100
0010
0001
1000
,  // measure 22
1010
0010
0100
0101
0000
0101
0000
0101
,  // measure 23
1002
0000
0000
1000
1003
0001
0010
0100
,  // measure 24
2000
0000
0000
0000
,  // measure 25
3001
0000
0000
1000
0000
0000
0100
0010
0100
0010
0001
0100
,  // measure 26
0001
0000
0000
0100
0000
0000
0010
1000
0010
1000
0001
0010
,  // measure 27
0100
0000
0000
1000
0000
0001
0010
0100
0010
0100
1000
0010
,  // measure 28
0100
0001
0100
0001
0010
0100
0010
0100
1000
0010
1000
0010
,  // measure 29
0200
0000
0000
0000
0000
0310
1010
0000
,  // measure 30
1010
0000
0000
1001
0000
0000
0101
0000
,  // measure 31
1001
1000
0001
0100
0010
1000
0100
0010
,  // measure 32
0011
0000
0001
0000
0100
0000
0110
0000
0010
1000
0010
1000
0010
0100
0010
0100
,  // measure 33
0010
0100
0001
1001
0100
0010
0011
0001
,  // measure 34
1000
0000
1001
0000
0010
0000
0100
0000
1100
0000
0000
0011
0000
0000
0110
0000
,  // measure 35
1001
0001
0100
0110
0010
1000
1100
0100
,  // measure 36
0010
0000
0011
0000
0001
0000
1000
0000
1001
0000
0000
0101
0000
0000
1010
0000
,  // measure 37
1001
0001
0010
0110
0100
1000
1010
0010
,  // measure 38
0100
0000
0101
0000
0001
0000
1000
0000
1100
0000
0000
0110
0000
0000
0011
0000
,  // measure 39
1001
1000
0100
0110
0010
0001
0101
0100
,  // measure 40
0010
0000
1010
0000
1000
0000
0001
0000
0011
0000
0000
1100
0000
0000
0110
0000
,  // measure 41
1001
0000
1000
0000
0010
0000
1000
0001
0010
0000
0100
0000
1000
0001
1000
0000
,  // measure 42
0010
0000
0100
0001
0010
0000
0100
0000
1100
0000
0000
0110
0000
0000
0011
0000
,  // measure 43
1001
0000
0001
0000
1000
0000
0100
0010
0001
0000
0100
0000
0010
0100
0010
0000
,  // measure 44
1000
0000
0001
0010
0001
0000
0100
0000
0101
0000
0000
0110
0000
0000
1010
0000
,  // measure 45
1002
0000
0010
0000
0013
0100
1000
0100
,  // measure 46
0020
0000
0000
0000
0001
0000
0000
0000
0031
0000
0000
0100
0000
0000
0010
0000
,  // measure 47
2000
0000
0001
0000
3001
0010
0100
1000
,  // measure 48
0020
0000
0000
0000
1000
0000
0000
0000
1030
0000
0000
0010
0000
0000
0100
0000
,  // measure 49
0001
0010
0100
0010
0001
1000
0100
1000
,  // measure 50
0001
0100
0010
0100
0001
1000
0010
1000
,  // measure 51
0001
0010
0100
0010
0001
0100
0010
0100
,  // measure 52
0001
1000
0100
1000
0001
0010
0100
1000
,  // measure 53
0001
0100
1000
0100
0101
0000
1001
0000
,  // measure 54
1000
0010
0001
0010
1010
0000
0110
0000
,  // measure 55
0001
0010
1000
0010
0011
0000
1001
0000
,  // measure 56
1000
0010
0001
0010
1010
0000
0110
0000
,  // measure 57
0201
0000
0010
0310
2000
0000
0100
3100
,  // measure 58
0020
0000
0001
0031
0200
0000
0010
0310
,  // measure 59
2000
0000
0000
0001
0001
0000
0100
3100
,  // measure 60
0020
0000
0000
0000
0001
0000
0031
0000
0110
0000
0000
1010
0000
0000
0101
0000
,  // measure 61
1001
0010
0100
0000
0000
0000
1020
0000
,  // measure 62
0000
0130
0001
0010
0100
1100
1002
0000
,  // measure 63
0000
0000
0103
0010
1000
0000
0000
0000
0000
0000
0000
0000
2001
0000
0000
0000
,  // measure 64
0000
0001
0000
0001
3001
0000
0201
0000
,  // measure 65
0000
0301
0010
0100
1000
0000
0000
1000
0000
0000
0010
0000
0110
0000
0000
0000
,  // measure 66
0100
0001
0010
0100
1000
0001
0201
0000
,  // measure 67
0000
0000
0310
0000
0110
0000
0010
0100
,  // measure 68
1000
0000
0000
0001
0000
0000
0010
0000
0000
0100
0000
0000
1000
0100
0010
0001
0100
0001
1000
0000
0000
0100
0000
0000
,  // measure 69
0001
0100
1000
1000
0001
0001
1000
0010
,  // measure 70
0100
0000
0001
0001
0100
0100
0010
1000
,  // measure 71
0100
0010
0002
0000
2003
0000
0000
0020
,  // measure 72
0000
0000
0000
0000
0000
0000
0000
0000
0000
0000
0000
3000
0000
0000
0000
0000
,  // measure 73
0030
0000
0000
0000
;

//---------------dance-double - ----------------
#NOTES:
     dance-double:
     :
     Easy:
     5:
     0.228,0.289,0.090,0.130,0.000:
10000000
00010000
10000000
00000000
,
01000000
10000000
01000000
00000000
,
00100000
00001000
00100000
00000000
,
00002000
00000000
00003000
00000000
,
00011000
00000000
00010000
00000000
,
00000100
00000010
00000001
00000010
,
00000100
00000000
00010000
00000000
,
00001000
01000000
00100000
01000000
,
00001000
00000000
10000000
00000000
,
01000000
00100000
00001000
00010000
,
00000010
00000000
00000100
00000000
,
00000001
00000010
00000100
00000010
,
00000001
00000000
00000100
00000000
,
00000010
00010000
00001000
00010000
,
00000010
00000000
00010000
00000000
,
00001000
00100000
01000000
10000000
,
00001000
00000000
01000000
00000000
,
00010000
10000000
01000000
10000000
,
00010000
00000000
01000000
00000000
,
00010000
00001000
00000010
00000100
,
00000001
00000000
00001001
00000000
,
00000100
00000000
00000110
00000000
,
00000010
00000000
00000100
00000000
,
00000020
00000000
00000000
00000000
,
00000130
00000000
00000000
00000000
,
00011000
00000000
00000000
00000000
,
01000000
00000000
00000000
00000000
,
01100000
00000000
01100000
00000000
,
10010000
00000000
00000000
00000000
,
01100000
00000000
00000000
00000000
,
10000000
00000000
01000000
00000000
,
00100000
00000000
00010000
00000000
,
00001000
00000000
00000000
00010000
00000000
00000000
00001000
00000000
,
00000000
00010000
00000000
00000000
00001000
00000000
00000000
00000000
,
00000100
00000000
00000000
00000010
00000000
00000000
00000100
00000000
,
00000000
00000010
00000000
00000000
00000100
00000000
00000000
00000000
,
00001000
00000000
00000000
00000001
00000000
00000000
00001000
00000000
,
00000000
00000001
00000000
00000000
00001000
00000000
00000000
00000000
,
00000001
00000000
00000000
00000010
00000000
00000000
00000001
00000000
,
00000000
00000010
00000000
00000000
00000001
00000000
00000000
00000000
,
00000100
00000000
00000010
00000000
,
00000100
00000001
00000100
00000000
,
00000001
00000000
00010000
00000000
,
00001000
01000000
00100000
00000000
,
20000000
00000000
00000000
00000000
,
30020000
00000000
00000000
00000000
,
20030000
00000000
00000000
00000000
,
30020000
00000000
00000000
00000000
,
10030000
01000000
00100000
00010000
,
00001000
00000000
00000010
00000000
,
00000100
00000001
00001000
00000100
,
00010000
00000000
00001000
00000000
,
00100000
01000000
10000000
00010000
,
10000000
00000000
00100000
00000000
,
10000000
00100000
01000000
00001000
,
00010000
00000000
00000100
00000000
,
00000010
00000001
00000010
00000100
,
00000010
00000001
00000100
00000000
,
00000001
00010000
00000100
00010000
,
00000001
00000010
00000110
00000000
,
00011000
00020000
00000000
00032000
,
00000000
02003000
00000000
03200000
,
00000000
20300000
00000000
30020000
,
00000000
00000000
00030000
20010000
,
00000000
01000000
00000000
01000000
,
00000000
31000000
00000000
00200000
,
00000000
00001000
00000000
00001000
,
00000000
00001000
00000000
00301000
,
00000000
00020000
00000000
00000100
,
00000000
00000100
00000000
00030100
,
00000000
00000000
00000020
00000000
00000000
00000000
00000000
00000030
;

//---------------dance-double - ----------------
#NOTES:
     dance-double:
     :
     Medium:
     8:
     0.451,0.440,0.538,0.245,0.033:
10000000
10010000
00100000
01000000
,
00001000
00011000
00000010
00000100
,
00000001
00001001
00000100
00000010
,
00000002
00000000
00000000
00000003
,
00001001
00001000
00001001
00000101
,
00000100
00000010
00000100
00000000
00010000
00000100
00010000
00000000
,
01100000
01000000
01100000
10010000
,
00100000
01000000
00100000
00000000
00001000
00100000
00001000
00000000
,
00010010
00000010
00010010
00000110
,
00000100
00000010
00000100
00000000
00010000
00000010
00010000
00000000
,
00101000
00100000
00101000
01100000
,
00100000
01000000
00100000
00000000
00001000
01000000
00001000
00000000
,
00010000
00000010
00000100
00000000
00000010
00000100
00000010
00000000
,
00001001
00001001
00000011
00001100
,
00001000
00010000
01000000
00000000
00100000
01000000
00100000
00000000
,
10010000
10010000
10100000
01010000
,
00010000
00001000
00000010
00000000
00000100
00000010
00000100
00000000
,
00001001
00001001
00000011
00001100
,
00010000
00001000
00100000
00000000
01000000
00100000
01000000
00000000
,
20020000
00000000
00000000
30030000
,
01100000
00000000
00000000
11000000
00000000
00000000
00100000
00001000
,
00010000
00000000
00000000
00000010
00000000
00000110
00000000
00000100
,
00000100
00000000
00000000
00000101
00000000
00000000
00001000
00010000
,
02000000
00000000
00000000
00000000
,
03100000
01000000
00000000
00010000
,
10010000
10000000
00000000
01000000
,
00100000
00001000
00000000
00010000
,
00010010
00000000
00000011
00000000
,
00000110
00000000
00000000
00000000
00000000
00010000
00000000
00000000
,
00011000
00000000
00000000
01001000
00000000
00000000
00100000
00000000
,
01100000
01000000
00010000
10000000
,
01000000
00000000
00200000
00000000
00000000
01000000
00000000
00000000
,
01300000
00000000
00000000
11000000
00000000
00000000
00110000
00000000
,
00000000
00000000
11000000
00000000
00000000
00000000
00000000
00000000
00100000
00000000
00000000
01000000
00000000
00000000
00001000
00000000
,
00010000
00000000
00000000
00010010
00000000
00000000
00000101
00000000
,
00000000
00000000
00010010
00000000
00000000
00000000
00000000
00000000
00000010
00000000
00000000
00000100
00000000
00000000
00010000
00000000
,
00001000
00000000
00000000
00101000
00000000
00000000
11000000
00000000
,
00000000
00000000
00101000
00000000
00000000
00000000
00000000
00000000
00100000
00000000
00000000
01000000
00000000
00000000
00010000
00000000
,
00001000
00000000
00000000
00010010
00000000
00000000
00000110
00000000
,
00000000
00000000
00010010
00000000
00000000
00000000
00000000
00000000
00000010
00000000
00000000
00000001
00000000
00000000
00000100
00000000
,
00000010
00000000
00010000
00001000
00100000
00000000
01000000
10000000
,
01000000
00000000
00000000
00000000
10000000
00000000
01000000
00000000
00100000
00000000
00000000
00001000
00000000
00000000
00010000
00000000
,
00000010
00000000
00000100
00000001
00000010
00000000
00000001
00001000
,
00000001
00000000
00000000
00000000
00000010
00000000
00000100
00000000
00010000
00000000
00000000
00001000
00000000
00000000
01000000
00000000
,
00200000
01000000
00000000
01300000
,
00020000
10000000
00000000
10030000
,
00002000
01000000
00000000
01003000
,
00020000
00000010
00000000
00030010
,
00000100
00000010
00000100
00000000
00000001
00000100
00000001
00000000
,
00010000
00001000
00010000
00000000
00001000
01000000
00001000
00000000
,
10000000
01000000
10000000
00000000
00010000
10000000
00010000
00000000
,
01000000
00100000
01000000
00000000
00001000
00010000
00001000
00000000
,
00010000
00000010
00000100
00000000
00000001
00000000
00000101
00000000
,
00000010
00000100
00010000
00000000
00001000
00000000
00011000
00000000
,
01000000
00100000
10000000
00000000
00100000
00000000
01100000
00000000
,
10000000
01000000
00100000
00000000
00001000
00000000
00011000
00000000
,
00010010
00000010
00001001
00001000
,
00000110
00000010
00000101
00000100
,
00010001
00000000
00010000
00000000
01001000
00000000
01000000
00100000
,
10000000
00000000
00000000
00000000
00010000
00000000
00000000
00000000
00100000
00000000
00000000
01000000
00000000
00000000
01100000
00000000
,
10000000
00010000
10000000
00000000
00000000
00000000
01100000
00000000
,
00000000
00001000
00000000
00001000
00010000
00000010
00000100
00000000
,
00000000
00000110
00000000
00002002
,
00000000
00000000
00003003
00000110
,
00000000
00000000
00000010
00000000
00010000
00000000
00000000
00001000
00000000
00000000
01000000
00000000
00200000
00000000
00000000
00000000
,
02300000
03020000
20030000
30020000
,
00000000
20030000
32000000
03200000
,
00320000
00032000
00003020
00000230
,
00000000
00000302
00000023
00000230
,
00000000
00000000
00010300
00001000
01000000
00100000
02000000
00000000
,
00000000
00000000
03200000
00000000
02300000
00000000
00000000
03002000
,
00000000
00000000
00000000
00000000
00000000
00000000
00000000
00000000
00000000
00000000
00000000
00000000
00000000
00000000
00000000
00003000
;

//---------------dance-double - ----------------
#NOTES:
     dance-double:
     :
     Hard:
     12:
     0.544,0.528,0.367,0.147,0.069:
10000000
00000000
00000000
00010000
01000000
00000000
00000000
00000000
00010000
00000000
00000000
00000000
10000000
00000000
01000000
00000000
,
00100000
00000000
00000000
00001000
00010000
00000000
00000000
00000000
00000100
00000000
00000000
00000000
00000010
00000000
00000000
00000000
,
00000001
00000000
00000000
00000100
00000010
00000000
00000000
00000000
00001000
00000000
00000000
00000000
00010000
00000000
00100000
00000000
,
02000000
00000000
00000000
03000000
,
10000000
00100000
10000000
00000000
10010000
00000000
01100000
00000000
,
01000000
00100000
00010000
10000000
01000000
00010000
01000000
10000000
,
00001000
01000000
00001000
00000000
01001000
00000000
00011000
00000000
,
00010000
00000010
00010000
00000010
00000100
00000001
00000010
00000100
,
00010000
00001000
00010000
00000000
00011000
00000000
01001000
00000000
,
01000000
00100000
01000000
00100000
10000000
01000000
00100000
01000000
,
10000000
00010000
00100000
00000000
00101000
00000000
00011000
00000000
,
00010000
00000010
00010000
00000010
00000100
00000001
00001000
00000000
,
00000010
00000100
00000010
00001000
00000001
00000010
00000100
00000000
,
00010000
00001000
00100000
01000000
10000000
01000000
00100000
00000000
,
00001000
00010000
00000100
00000010
00000001
00000010
00000100
00000000
,
00001000
00000001
00000100
00000001
00010000
00001000
00100000
00000000
,
01000000
10000000
00001000
00100000
10000000
00100000
00001000
00000000
,
00010000
00000010
00000100
00000001
00001000
00000100
00000010
00000000
,
00000001
00000100
00001000
00000100
00000001
00000010
00000100
00000000
,
00010000
00000000
00001000
00000000
00100000
00000000
01000000
00000000
10000000
00100000
10000000
00000000
00010000
00000000
01000000
00000000
,
01100000
00000000
00000000
11000000
10000000
00000000
01000000
00100000
,
00001000
00010000
00000000
00000101
00000000
00000101
00000000
00000100
,
00000110
00000000
00000000
00000010
00000100
00001000
00010000
01000000
,
00200000
00000000
00000000
00000000
,
01300000
00010000
01000000
00010000
,
11000000
00100000
00001000
00010000
,
00000110
00000001
00000010
00000100
,
00011000
01000000
01100000
10000000
,
10020000
00000000
00000000
00000000
00000000
01030000
00100000
00000000
,
01100000
00000000
00000000
00101000
00000000
00000000
00010010
00000000
,
00000110
00000000
00000100
00000001
00000100
00000000
00000010
00000100
,
00000010
00010000
00000000
00011000
00000000
00000000
00000000
00000000
,
00100000
01000000
10000000
00010000
00000000
00010000
01000000
00001000
,
00010000
00000000
00000100
00000000
00000000
00000000
00001000
00000000
00000001
00000000
00000000
00000010
00000000
00000000
00000100
00000000
,
00010000
00001000
00100000
01000000
00000000
01000000
10000000
00100000
,
01000000
00000000
00010000
00000000
00000000
00000000
00010000
00000000
00100000
00000000
00000000
00001000
00000000
00000000
00010000
00000000
,
00000100
00000010
00000001
00000100
00000000
00000100
00000010
00001000
,
00010000
00000000
00100000
00000000
00000000
00000000
00100000
00000000
01000000
00000000
00000000
10000000
00000000
00000000
00010000
00000000
,
00100000
00001000
00010000
00000010
00000000
00000010
00000100
00000001
,
00000010
00000000
00000100
00000000
00000000
00000000
00000100
00000000
00001000
00000000
00000000
00000010
00000000
00000000
00010000
00000000
,
00001000
01000000
00001000
01000000
00100000
10000000
01000000
00010000
,
10000000
00000000
00010000
00000000
01000000
00000000
10000000
00000000
00001000
00000000
00000000
00011000
00000000
00000000
00010010
00000000
,
00000010
00000100
00000001
00000010
00001000
00000001
00001000
00000010
,
00000001
00000000
00000100
00000000
00000010
00000000
00001000
00000000
00010000
00000000
00000000
00011000
00000000
00000000
01001000
00000000
,
02000000
00100000
03100000
10000000
,
00020000
00000000
00000000
00000000
10000000
00000000
00000000
00000000
10030000
00000000
00000000
00100000
00000000
00000000
01000000
00000000
,
00002000
00010000
00013000
00000100
,
00000020
00000000
00000000
00000000
00000001
00000000
00000000
00000000
00000031
00000000
00000000
00000100
00000000
00000000
00000010
00000000
,
00010000
00001000
00010000
00000000
00001000
01000000
00001000
00000000
,
10000000
01000000
10000000
00000000
00100000
01000000
00100000
00000000
,
10000000
00010000
10000000
00000000
01000000
10000000
01000000
00000000
,
00100000
00010000
00100000
00000000
00001000
00100000
00001000
00000000
,
00100000
01000000
10000000
00010000
00100000
01000000
00100000
00000000
,
00001000
00010000
00000010
00000100
00000010
00010000
00001000
00000000
,
00010000
00000001
00000010
00000100
00000010
00000001
00010000
00001000
,
01000000
00100000
01000000
00010000
10000000
01000000
00100000
00010000
,
20000000
00000000
31000000
00100000
00002000
00000000
00013000
00000010
,
00000200
00000000
00000301
00000010
00000200
00000000
00010300
00001000
,
00200000
00000000
01000000
00000000
01300000
00000000
10000000
00010000
,
02000000
00000000
00000000
00000000
00100000
00000000
00000000
00000000
03100000
00000000
00000000
10100000
00000000
00000000
10010000
00000000
,
01100000
01000000
00001000
00000000
00010000
00000000
00010010
00000000
,
00000000
00000100
00000001
00000010
00000100
00010000
00011000
00000000
,
00000000
00000000
01000000
00100000
01000000
00000000
00000000
00000000
00000000
00000000
00000000
00000000
02200000
00000000
00000000
00000000
,
00000000
00000000
03300000
10010000
,
00000000
10000000
01000000
00100000
00010000
00000000
00000000
00100000
00000000
00000000
00001000
00000000
00011000
00000000
00000000
00000000
,
00010010
00000110
00000101
00001002
,
00000000
00000003
00001001
00000000
00010100
00000000
00011000
00000000
,
01001000
00000000
01100000
00000000
00100000
01000000
10000000
00010000
,
01000000
00000000
00010000
00001000
00000010
00000000
00000100
00000001
,
00000010
00000000
00000001
00000010
00000100
00010000
00001000
00100000
,
01000000
00000000
10000000
00000000
01000000
00000000
00000000
02200000
,
00000000
00000000
00000000
00000000
00000000
00000000
00000000
00000000
00000000
00000000
00000000
00300000
00000000
00000000
00000000
00000000
,
03000000
00000000
00000000
00000000
;

//---------------dance-double - ----------------
#NOTES:
     dance-double:
     :
     Challenge:
     15:
     0.708,0.734,0.546,0.204,0.277:
10000000
00000000
00000000
10000000
00010000
00000000
00000000
00000000
01000000
00000000
00000000
01000000
00100000
10000000
01000000
00100000
,
00001000
00000000
00000000
00001000
00010000
00000000
00000000
00000000
00000010
00000000
00000000
00000010
00000100
00000001
00000010
00000100
,
00020000
00000000
00000000
00001000
00000000
00000000
00031000
00000000
01000000
00000000
00000000
01000000
00100000
10000000
01000000
00100000
,
00020000
00000000
00000000
01000000
00000000
00000000
01030000
00000000
00002000
00000000
00000000
00000000
00010000
00000000
00000000
00000000
,
00013000
00000010
00010000
00000010
00000100
00000001
00000010
00000100
,
00001000
00000001
00000100
00000001
00010000
00001000
00100000
00010000
,
01000000
00100000
01000000
00100000
10000000
01000000
00100000
00010000
,
10000000
00100000
10000000
00001000
00010000
00000100
00000010
00000001
,
00000100
00000010
00000100
00000010
00001000
00000001
00000100
00000010
,
00010000
00001000
00100000
01000000
10000000
00010000
01000000
00010000
,
10000000
01000000
10000000
01000000
00100000
00010000
10000000
00100000
,
01000000
00100000
10000000
00001000
01000000
00001000
00010000
00000100
,
00000010
00000001
00000010
00000001
00000100
00000100
00000001
00000001
,
00000010
00000100
00001000
00010000
01000000
00100000
10000000
00010000
,
10000000
01000000
10000000
01000000
00100000
00100000
00010000
00010000
,
10000000
00100000
01000000
00001000
00010000
00000100
00000010
00000001
,
00001000
00000010
00001000
00000010
00000100
00000100
00000001
00000001
,
00000010
00000100
00001000
00010000
01000000
00100000
10000000
00010000
,
01000000
00100000
01000000
00100000
10000000
10000000
00100000
00100000
,
10000000
00010000
10000000
00010000
10000000
00010000
10000000
00010000
00100000
00010000
00100000
00010000
00100000
00010000
00100000
00000000
,
10020000
00000000
00000000
01000000
01030000
00001000
00010000
00000100
,
00000110
00000010
00000001
00001001
00000000
00001001
00000000
00001001
,
00002010
00000000
00000000
00000100
00003100
00010000
00001000
00100000
,
02000000
00000000
00000000
00000000
,
03100000
00000000
00000000
00010000
00000000
00000000
10000000
01000000
00100000
01000000
10000000
00010000
,
01000000
00000000
00000000
00001000
00000000
00000000
00010000
00000010
00000100
00000010
00010000
00000100
,
00000010
00000000
00000000
00000100
00000000
00000100
00000001
00000010
00000100
00000010
00000001
00001000
,
00000010
00010000
00001000
00010000
00001000
01000000
00100000
01000000
00100000
10000000
01000000
00100000
,
00020000
00000000
00000000
00000000
00000000
10030000
11000000
00000000
,
11000000
00000000
00000000
01100000
00000000
00000000
00101000
00000000
,
00011000
00010000
00000100
00010000
00000010
00000100
00000010
00001000
,
00001001
00000000
00000001
00000000
00000010
00000000
00000100
00000000
00010000
00000010
00010000
00000010
00010000
00001000
00010000
00001000
,
00010000
00001000
01000000
01100000
00100000
10000000
10100000
00100000
,
01000000
00000000
01100000
00000000
00001000
00000000
00010000
00000000
00010010
00000000
00000000
00000110
00000000
00000000
00000101
00000000
,
00001001
00000001
00000100
00000110
00000010
00010000
00011000
00001000
,
01000000
00000000
01010000
00000000
00100000
00000000
10000000
00000000
10010000
00000000
00000000
00110000
00000000
00000000
11000000
00000000
,
01100000
00100000
10000000
10010000
00010000
01000000
01001000
00001000
,
00010000
00000000
00010010
00000000
00000100
00000000
00000001
00000000
00001001
00000000
00000000
00010010
00000000
00000000
00011000
00000000
,
01001000
01000000
00010000
10010000
10000000
00100000
01100000
01000000
,
00001000
00000000
00011000
00000000
00000100
00000000
00000010
00000000
00001001
00000000
00000000
00000011
00000000
00000000
00010010
00000000
,
00011000
00000000
00001000
00000000
01000000
00000000
00100000
01000000
00100000
00000000
10000000
00000000
01000000
00100000
01000000
00000000
,
10000000
00000000
00010000
01000000
00010000
00000000
01000000
00000000
01001000
00000000
00000000
00011000
00000000
00000000
00010010
00000000
,
00000110
00000000
00000100
00000000
00000001
00000000
00001000
00000100
00001000
00000000
00000010
00000000
00010000
00001000
00010000
00000000
,
00001000
00000000
01000000
00100000
01000000
00000000
00010000
00000000
00110000
00000000
00000000
10010000
00000000
00000000
11000000
00000000
,
01200000
00000000
10000000
00000000
10300000
00010000
00100000
01000000
,
20000000
00000000
00000000
00000000
00100000
00000000
00000000
00000000
30100000
00000000
00000000
01000000
00000000
00000000
00001000
00000000
,
00020000
00000000
00000100
00000000
00030100
00000010
00000001
00001000
,
00000020
00000000
00000000
00000000
00000100
00000000
00000000
00000000
00000130
00000000
00000000
00000001
00000000
00000000
00001000
00000000
,
00000010
00000100
00000001
00000100
00000010
00000100
00000001
00000100
,
00000010
00010000
00001000
00010000
00000010
00000100
00000010
00010000
,
00001000
00100000
01000000
00100000
00001000
00100000
01000000
00100000
,
00001000
10000000
00100000
10000000
00001000
10000000
00100000
10000000
,
01000000
00100000
00001000
00010000
00010010
00000000
00000110
00000000
,
00000100
00000010
00000001
00001000
00001010
00000000
00011000
00000000
,
00100000
01000000
10000000
00010000
01000000
10000000
01000000
00010000
,
00100000
01000000
00100000
00001000
00011000
00000000
00010010
00000000
,
00000210
00000000
00000001
00000301
00020000
00000000
00000100
00030100
,
02000000
00000000
00100000
03100000
20000000
00000000
01000000
31000000
,
00200000
00000000
00001000
00001000
00000000
00000000
00010000
00310000
,
00002000
00000000
00000000
00000000
00000010
00000000
00003010
00000000
00000110
00000000
00000000
00000101
00000000
00000000
00001001
00000000
,
00000110
00000001
00001000
00000000
00000000
00000000
00020010
00000000
,
00000000
00031000
00100000
01000000
10000000
10100000
01200000
00000000
,
00000000
00000000
10300000
00010000
10000000
00000000
00000000
00000000
00000000
00000000
00000000
00000000
01200000
00000000
00000000
00000000
,
00000000
01000000
00000000
01000000
01300000
00000000
10020000
00000000
,
00000000
10030000
01000000
00100000
00001000
00000000
00000000
00010000
00000000
00000000
00000010
00000000
00000110
00000000
00000000
00000000
,
00001000
00000100
00000001
00001000
00000010
00000001
00002001
00000000
,
00000000
00000000
00003010
00000000
00000110
00000000
00000001
00000100
,
00001000
00000000
00000000
00000001
00000000
00000000
00000010
00000000
00000000
00001000
00000000
00000000
00000100
00010000
00000100
00010000
00001000
00010000
00001000
00000000
00000000
01000000
00000000
00000000
,
00100000
01000000
00010000
00010000
10000000
10000000
01000000
00100000
,
00010000
00000000
00001000
00001000
00000010
00000010
00010000
00000100
,
00000010
00000100
00020000
00000000
00032000
00000000
00000000
20000000
,
00000000
00000000
00000000
00000000
00000000
00000000
00000000
00000000
00000000
00000000
00000000
00003000
00000000
00000000
00000000
00000000
,
30000000
00000000
00000000
00000000
;

//---------------dance-single - ----------------
#NOTES:
     dance-single:
     :
     Beginner:
     3:
     0.106,0.144,0.098,0.000,0.000: // measure 1
0001
0000
0000
0000
,  // measure 2
1000
0000
0000
0000
,  // measure 3
0001
0000
0000
0000
,  // measure 4
1000
0000
0000
0000
,  // measure 5
1001
0000
0001
0000
,  // measure 6
0001
0000
0000
0000
,  // measure 7
1000
0000
1000
0000
,  // measure 8
1000
0000
0000
0000
,  // measure 9
0001
0000
0001
0000
,  // measure 10
0001
0000
0000
0000
,  // measure 11
1000
0000
1000
0000
,  // measure 12
1000
0000
0000
0000
,  // measure 13
1001
0000
0010
0000
,  // measure 14
0100
0000
0000
0000
,  // measure 15
1000
0000
0100
0000
,  // measure 16
0010
0000
0000
0000
,  // measure 17
0001
0000
0010
0000
,  // measure 18
0100
0000
0000
0000
,  // measure 19
1000
0000
0100
0000
,  // measure 20
0010
0000
0000
0000
,  // measure 21
1001
0000
0000
0000
,  // measure 22
0000
0000
0000
0000
,  // measure 23
1001
0000
0000
0000
,  // measure 24
0000
0000
0000
0000
,  // measure 25
0010
0000
0000
0000
,  // measure 26
0100
0000
0000
0000
,  // measure 27
0010
0000
0000
0000
,  // measure 28
0100
0000
0000
0000
,  // measure 29
1000
0000
0000
0000
,  // measure 30
0001
0000
0000
0000
,  // measure 31
1000
0000
0001
0000
,  // measure 32
1000
0000
0000
0000
,  // measure 33
1001
0000
0000
0000
,  // measure 34
0000
0000
0000
0000
,  // measure 35
0110
0000
0000
0000
,  // measure 36
0000
0000
0000
0000
,  // measure 37
1001
0000
0000
0000
,  // measure 38
0000
0000
0000
0000
,  // measure 39
0110
0000
0000
0000
,  // measure 40
0000
0000
0000
0000
,  // measure 41
1001
0000
1000
0000
,  // measure 42
1000
0000
0000
0000
,  // measure 43
0001
0000
0001
0000
,  // measure 44
0001
0000
0000
0000
,  // measure 45
0010
0000
0000
0000
,  // measure 46
0000
0000
0000
0000
,  // measure 47
0100
0000
0000
0000
,  // measure 48
0000
0000
0000
0000
,  // measure 49
1000
0000
0001
0000
,  // measure 50
1000
0000
0001
0000
,  // measure 51
1000
0000
0001
0000
,  // measure 52
1000
0000
0000
0000
,  // measure 53
0001
0000
0000
0000
,  // measure 54
0100
0000
0000
0000
,  // measure 55
0010
0000
0000
0000
,  // measure 56
1000
0000
0000
0000
,  // measure 57
0001
0000
1000
0000
,  // measure 58
0001
0000
1000
0000
,  // measure 59
0001
0000
0000
0000
,  // measure 60
0100
0000
0000
0000
,  // measure 61
0110
0000
0000
0000
,  // measure 62
0000
0000
0000
1001
,  // measure 63
0000
0000
0000
1000
,  // measure 64
0000
0000
0000
1001
,  // measure 65
0000
0000
0000
0010
,  // measure 66
0000
0000
0000
0100
,  // measure 67
0000
0000
0000
0010
,  // measure 68
0000
0000
0000
0100
,  // measure 69
0000
0000
0000
1000
,  // measure 70
0000
0000
0000
0010
,  // measure 71
0000
0000
0000
0000
0000
0000
0000
0100
;
