#TITLE:City Never Sleeps;
#SUBTITLE:;
#ARTIST:Dirty Androids;
#TITLETRANSLIT:;
#SUBTITLETRANSLIT:;
#ARTISTTRANSLIT:;
#CREDIT:DigiMindAxel;
#BANNER:City Never Sleeps.png;
#BACKGROUND:City Never Sleeps-bg.png;
#LYRICSPATH:;
#CDTITLE:REFLEC BEAT.png;
#MUSIC:City Never Sleeps.ogg;
#METERTYPE:DDR X;
#OFFSET:-11.340;
#SAMPLESTART:67.940;
#SAMPLELENGTH:12.000;
#SELECTABLE:YES;
#BPMS:0.000=178.000;
#STOPS:;
#BGCHANGES:;

//---------------dance-single - ----------------
#NOTES:
     dance-single:
     :
     Easy:
     5:
     0.247,0.316,0.020,0.029,0.000:
0001
0000
0100
0000
,
0001
0000
1000
0000
,
0001
0000
0100
0000
,
0001
0000
1000
0000
,
0001
0010
0001
0000
,
1000
0001
1000
0000
,
0100
1000
0100
1000
,
0020
0000
0000
0130
,
0001
0010
0100
0000
,
0010
0001
0010
0000
,
0001
0010
0100
0000
,
0010
0001
0010
0000
,
0001
1000
0010
0000
,
1000
0010
1000
0000
,
0001
1000
0010
0000
,
1000
0010
1000
0000
,
0001
0010
0100
1000
,
0001
0000
0100
0000
,
0001
1000
0010
0100
,
0001
0000
0010
0000
,
0001
0010
0100
1000
,
0010
0000
0100
0000
,
0001
1000
0100
0010
,
0001
0000
0100
0000
,
0010
0100
0001
1000
,
0100
0000
0010
0000
,
0001
0100
0010
0100
,
0001
0000
1000
0000
,
0100
0010
0001
0010
,
0100
0000
1000
0000
,
0020
0000
0000
0000
,
0230
0000
0000
0000
,
0310
0000
0000
0000
,
0000
0000
0000
0000
,
0010
0000
0000
0000
,
0000
0000
0000
0000
,
0010
0000
0000
0000
,
0000
0000
0000
0000
,
0010
0000
0000
0000
,
0000
0000
0000
0000
,
0110
0000
0000
0000
,
0000
0000
0000
0000
,
1000
0100
0010
0001
,
0100
0001
0100
0000
,
0001
0010
0100
1000
,
0010
1000
0010
0000
,
0100
0010
0100
0001
,
0010
0100
1000
0000
,
0010
0100
0010
1000
,
0100
0010
0001
0000
,
1000
0010
1000
0001
,
0010
0100
1000
0000
,
0010
0100
0010
0100
,
0001
0010
0100
0000
,
0010
0001
0010
0001
,
1000
0010
0100
0000
,
0010
0000
0000
0010
0000
0000
0010
0000
,
0000
0010
0000
0000
0010
0000
0000
0000
,
1000
0100
0010
0001
,
1000
0100
0010
0000
,
0001
0010
0100
1000
,
0001
0010
0100
0000
,
0010
0001
1000
0010
,
0100
0001
1000
0010
,
0110
0000
0000
0100
0000
0000
0100
0000
;

//---------------dance-single - ----------------
#NOTES:
     dance-single:
     :
     Medium:
     8:
     0.383,0.474,0.176,0.088,0.000:
1000
0010
1000
0001
,
0010
0100
1000
0000
,
0001
0100
0010
0100
,
0001
1000
0100
0000
,
0010
0001
1000
0001
,
0010
0100
1000
0001
,
0100
0001
0100
0000
0001
0100
0001
0000
,
0010
0100
0010
0100
1000
0000
1001
0000
,
0001
0000
0100
0000
0010
1000
0100
0000
,
0001
0000
0100
0000
1000
0100
0010
0000
,
0100
0000
1000
0000
0010
0100
0001
0000
,
0100
0000
1000
0000
0100
0001
1000
0000
,
0100
0000
0010
0000
0001
0010
0100
0000
,
1000
0000
0010
0000
0100
0001
1000
0000
,
0100
0000
0010
0000
0001
1000
0010
0000
,
0100
0000
0010
1000
0000
0010
1000
0000
,
0001
0000
0100
0000
0010
1000
0100
0000
,
0011
0000
0000
1001
0000
0000
1000
0000
,
1100
0000
0010
0000
0001
0100
0010
0000
,
0100
0000
0001
1000
0000
0000
0100
0000
,
0010
0000
0100
0000
1000
0001
0010
0100
,
0000
1000
0000
0000
0010
0000
0100
0000
,
0001
0000
0000
1001
0000
0000
1000
0000
,
0202
0000
0000
0303
,
0001
0000
1000
0000
0100
0010
0001
1000
,
0000
0010
0000
0100
0000
0001
1000
0000
,
0100
0000
0010
0000
0100
1000
0100
0010
,
0000
0001
0000
0000
0100
0000
0010
0000
,
0000
1010
0000
0000
0010
0000
0000
0000
,
0000
0101
0000
0000
0001
0000
0000
0000
,
2000
0000
0000
0000
,
0002
0000
0000
3003
,
1001
0000
1000
0000
,
0100
0000
0010
0000
,
0001
0000
0000
0000
,
0000
0000
0000
0000
,
1000
0000
0001
0000
,
0010
0000
0100
0000
,
1000
0000
0000
0000
,
0000
0000
0000
0000
,
0002
0000
0000
0000
,
2000
0000
0000
3003
,
0001
0100
1000
0000
0100
0000
0001
0000
,
1000
0100
0001
0000
0100
0000
1000
0000
,
0001
0100
0010
0000
0100
0000
0001
0000
,
0010
0200
0000
0310
,
0001
0010
1000
0000
0010
0000
0001
0000
,
1000
0010
0001
0000
0010
0000
1000
0000
,
0001
0010
0100
0000
0010
0000
0000
0002
,
0000
0000
0003
2000
0000
0000
3001
0000
,
1000
0000
0010
0000
0001
0010
1000
0000
,
0001
0000
0100
0000
1000
0100
0001
0000
,
1000
0000
0010
0000
0001
0010
1000
0000
,
0001
1000
0100
0000
0010
0000
0001
0000
,
1000
0010
1000
0001
0000
1000
0000
0010
,
0000
0000
0100
0000
0000
0100
0000
0000
,
1001
0000
0000
1001
0000
0000
1001
0000
,
0000
1001
0000
0000
1001
0000
0001
0000
,
0110
0000
1000
0010
1000
0010
0100
0000
,
0001
1000
0100
0010
,
0100
1000
0100
1000
0001
0000
0100
0000
,
0010
1000
0010
1000
0001
0000
0010
0000
,
1100
0000
0010
0001
0100
0010
1000
0000
,
0010
1000
0100
0010
0001
0000
1000
0000
,
1001
0000
0000
0110
0000
0000
0001
1000
;

//---------------dance-single - ----------------
#NOTES:
     dance-single:
     :
     Hard:
     12:
     0.545,0.538,0.195,0.195,0.029:
0001
0100
0000
0001
0000
1000
0000
0200
,
0000
0000
0000
0000
0300
0000
0010
0001
,
1000
0000
0010
1000
0000
0001
0000
0020
,
0000
0000
0032
0000
0000
0013
0100
1000
,
0010
0100
0000
0001
0000
1000
0000
0200
,
0000
0000
0000
0000
0310
0000
0001
0100
,
0010
1000
0010
1000
0100
0010
0100
0010
,
0001
1000
0010
1000
0001
0100
0110
0000
,
0010
1000
0010
0000
0010
0100
0001
0010
,
0100
1000
0100
0000
0100
1000
0010
0000
,
0100
0010
0100
0000
0100
0001
0010
0100
,
1000
0010
1000
0000
1000
0010
0100
0001
,
0010
0100
0010
0000
0010
0001
1000
0010
,
0100
0001
0100
0000
0100
0010
1000
0000
,
0100
0010
0100
0000
0100
1000
0001
0010
,
0100
0100
0010
0020
0000
0001
0031
0000
,
1001
0000
1100
0000
1000
0010
0100
0001
,
0020
0000
0000
0130
0000
0000
1000
0000
,
1001
0000
0011
0000
0100
0000
1000
0100
,
0001
0100
0000
2000
0000
0000
3010
0100
,
0001
0000
1001
0000
0001
0100
1000
0100
,
0000
0001
0010
0100
0010
0001
0000
0000
,
0201
0000
0000
0320
0000
0000
1030
0000
,
0001
0000
1000
0000
0000
0100
0000
0000
0010
0000
0000
0000
0000
0000
0000
0000
,
1001
0000
1100
0000
0010
0001
1000
0010
,
0000
1000
0001
0010
0000
0100
1000
0001
,
0100
0000
0110
0000
0010
1000
0100
0010
,
0000
0001
0100
1000
0100
0001
1000
0010
,
0000
0000
0100
0000
0000
0001
0000
0000
1000
0000
0000
0000
0100
0000
0010
0000
,
0001
1000
0010
0001
0000
0010
0000
0100
,
0000
0001
0000
1000
0000
0000
0000
0200
,
0000
0000
0000
0000
0000
0000
0310
0001
0010
0001
1000
0001
,
2000
0000
0100
0000
,
0010
0000
0001
0000
,
0002
0000
0000
0000
,
0000
0000
0000
3003
,
0200
0000
1000
0000
,
0010
0000
1000
0000
,
0020
0000
0000
0000
,
0000
0000
0330
0000
,
0002
1000
0000
1003
,
1001
0000
0000
2002
0000
0000
3003
0000
,
1000
0100
0001
0100
1000
0001
0010
0010
,
0100
0010
0001
1000
0001
0100
0001
0001
,
1000
0010
0001
0010
1000
0001
0100
0100
,
0010
1000
0100
0020
0000
0001
0031
0000
,
1000
0001
0100
1000
0100
0001
0010
0010
,
0100
1000
0010
0001
0010
1000
0100
0100
,
0010
0001
0100
1000
0100
0001
0010
0200
,
0000
1300
0010
0200
0000
0001
0301
0000
,
1000
0010
0001
0010
0100
0001
1000
1000
,
0001
0100
1000
0100
0010
1000
0001
0001
,
1000
0010
0100
1000
0100
0001
1000
1000
,
0001
0100
0010
0001
0010
1000
0001
0001
,
0100
0010
1000
0100
0000
1100
0000
1001
,
0000
0000
0001
0100
0000
0001
1000
0100
,
0110
0000
0010
0001
0000
0001
0100
0000
,
0100
0010
0000
0010
1000
0100
0010
0000
,
0001
0001
1000
0010
0100
1000
0100
0010
,
1000
0010
0100
0001
1000
0100
0010
0001
,
1000
0010
0001
0010
1000
0100
0001
0100
,
1000
0010
0001
0010
1000
0100
0010
0000
,
1001
0000
0001
0100
0010
0001
0010
0100
,
0001
1000
0010
0001
0010
1000
0100
0000
,
1100
0000
0000
1001
0000
0000
0011
0011
;

//---------------dance-single - ----------------
#NOTES:
     dance-single:
     :
     Challenge:
     15:
     0.794,0.917,0.312,0.127,0.468: // measure 1
0001
1000
0010
1000
0000
1010
0000
1002
,  // measure 2
0000
0000
1000
0000
1003
0000
0001
0100
,  // measure 3
0010
0000
1000
0002
0000
0013
0100
2000
,  // measure 4
0000
0000
3010
0000
0100
0001
0010
1000
,  // measure 5
0010
0001
0100
0010
1000
0100
0000
0120
,  // measure 6
0000
0000
0100
0000
0130
0000
1000
0001
,  // measure 7
0100
1000
0001
0010
1000
0001
0100
0001
,  // measure 8
1000
0001
1000
0001
0010
0001
0010
0001
1000
0000
0001
0000
1001
0000
0000
0000
,  // measure 9
0101
0001
0010
0100
1000
0010
0010
0000
,  // measure 10
1000
0100
0010
0001
1000
0010
0010
0000
,  // measure 11
0100
0010
0100
0001
0010
0100
0100
0000
,  // measure 12
0010
0000
0001
0000
1000
0000
0001
0100
0000
0001
1000
0000
0100
1000
0100
0000
,  // measure 13
0010
0100
1000
0001
0100
1000
0100
0000
,  // measure 14
0001
0000
0100
0000
0010
0000
0001
0000
1000
0010
1000
0000
0001
0000
1000
0000
,  // measure 15
0100
0001
1000
0010
0001
1000
1000
0010
,  // measure 16
0100
0000
0100
0000
0001
0000
2000
0000
0000
0000
3001
0000
1000
0010
1000
0010
,  // measure 17
0100
0001
0010
0100
0010
0001
0100
0000
,  // measure 18
0002
0000
0100
0203
0000
0000
0310
1000
,  // measure 19
0001
0000
1000
0100
0010
0000
0001
0100
,  // measure 20
1000
0000
0100
0000
0000
0000
1002
0000
0000
0000
0000
0000
0013
0000
0100
0010
,  // measure 21
0100
0000
1000
0010
1000
0100
0010
0001
,  // measure 22
0000
0000
0100
0000
0010
1000
0001
1000
0010
0000
0100
0000
0000
0000
0001
0000
,  // measure 23
2000
0000
0010
3020
0000
0130
0001
1000
,  // measure 24
0000
0000
1001
0000
0000
0011
0000
0000
0100
1000
0100
0000
1000
0001
1000
0001
,  // measure 25
1000
0010
1000
0001
0100
1000
0100
0001
,  // measure 26
0000
0000
1000
0000
0100
0000
0010
0000
0000
0000
0001
0000
0100
0010
1000
0010
,  // measure 27
0100
0001
0100
0000
0001
1000
0100
0010
,  // measure 28
0000
0000
0001
0100
0010
0100
0001
0000
1000
0001
1000
0000
0100
1000
0100
0000
,  // measure 29
0000
0000
0110
0000
0000
0110
0000
0000
1001
0000
0000
0000
0010
0001
0010
0001
,  // measure 30
0000
0000
0010
0100
1000
0000
0001
0000
0000
0000
0001
0000
0000
0000
1000
0000
,  // measure 31
0000
0010
0000
0100
0000
0000
0000
0001
,  // measure 32
0000
0000
0000
1000
0000
0000
0000
0000
0000
0001
0000
0000
0010
0000
0100
0000
1000
0000
0010
0000
0100
0000
0010
0000
,  // measure 33
1000
0001
0000
0001
0000
0001
0100
0010
,  // measure 34
1000
0100
0000
0100
0000
0100
0010
0001
,  // measure 35
1000
0010
0000
0010
0000
0010
0100
0001
,  // measure 36
0010
0100
0000
0100
0000
0100
1000
0001
,  // measure 37
0100
0010
0000
0010
0000
0010
1000
0100
,  // measure 38
0010
0001
0000
0001
0000
0001
1000
0100
,  // measure 39
0010
0100
0000
0100
0000
0100
1000
0001
,  // measure 40
0100
0010
0000
0010
0000
0010
0100
0001
,  // measure 41
1000
0000
0100
0000
1000
0000
0001
0100
0010
0100
0001
0000
1000
0000
0010
0000
,  // measure 42
0110
0000
0000
0000
0001
0000
1001
0000
1000
0010
1000
0000
0001
0010
0100
0000
,  // measure 43
1000
0010
0100
0010
1000
0000
0010
0100
0001
0000
1000
0000
0100
0000
0010
0000
,  // measure 44
0100
1000
0010
1000
0100
0000
0010
0001
0100
0000
0010
0000
1000
0000
0001
0000
,  // measure 45
0010
0100
1000
0100
0010
0000
0001
0100
0010
0000
1000
0000
0001
0000
0010
0000
,  // measure 46
0100
0010
0001
0010
0100
0010
0002
0000
0000
0000
1000
0000
1003
0001
0010
0000
,  // measure 47
0100
1000
0001
1000
0100
0000
0010
0001
0100
0000
0010
0000
1000
0000
0010
0000
,  // measure 48
0100
0001
1000
0001
0100
0000
0010
1000
0100
0000
0010
0000
0100
0000
1000
0000
,  // measure 49
0001
0100
0010
0100
0001
0000
1000
0100
0010
0000
0100
0000
1000
0000
0020
0000
,  // measure 50
0000
0000
0130
0000
0101
0000
0002
0000
0000
0000
1000
0000
1003
0100
0010
0000
,  // measure 51
0100
1000
0001
1000
0100
0000
0010
0100
1000
0000
0010
0000
0001
0000
0010
0000
,  // measure 52
1000
0100
0010
0100
1000
0000
0010
0100
0001
0000
0100
0000
1000
0000
0100
0000
,  // measure 53
0001
1000
0010
1000
0001
0000
0010
0100
1000
0000
0010
0000
0001
0000
0010
0000
,  // measure 54
1000
0000
0100
0010
0100
0010
0001
0100
0010
0000
1000
0000
0001
0000
0010
0000
,  // measure 55
1100
1000
0010
0110
0000
1001
0000
1001
,  // measure 56
0000
0000
1000
0000
0010
0000
0110
0000
0000
0000
0001
0000
0011
0000
0010
0100
,  // measure 57
1000
0000
1010
0110
0000
0110
0101
0000
,  // measure 58
1001
0000
1100
0000
0100
0000
0010
0001
1000
0000
0100
0000
0010
0100
0010
0000
,  // measure 59
1001
0000
0001
0000
0010
0100
0010
0100
1000
0010
0100
0001
0010
0100
0010
0001
,  // measure 60
1000
0010
0001
0010
0100
0001
1000
0100
,  // measure 61
0010
0100
1000
0001
0100
0010
0100
0000
0001
1000
0100
1000
0001
0000
0100
0010
,  // measure 62
1000
0010
0100
0000
0001
0010
0100
0010
0001
1000
0010
0000
0100
0010
0100
0000
,  // measure 63
1001
0000
0000
0000
0001
0000
0100
0000
0010
0000
1000
0001
0010
0000
0100
1000
,  // measure 64
0010
0000
0100
0001
0010
0000
0100
0010
0000
0010
0001
0000
0100
0010
1000
0000
,  // measure 65
1001
0000
0001
0110
0000
1000
0110
0110
;

//---------------dance-single - ----------------
#NOTES:
     dance-single:
     :
     Beginner:
     2:
     0.098,0.158,0.029,0.000,0.000:
1000
0000
0000
0000
,
0000
0000
0000
0000
,
0010
0000
0000
0000
,
0000
0000
0000
0000
,
0100
0000
0000
0000
,
0100
0000
0000
0000
,
0001
0000
0000
0000
,
0001
0000
0000
0000
,
1000
0000
0000
0000
,
0100
0000
0000
0000
,
1000
0000
0000
0000
,
0100
0000
0000
0000
,
0010
0000
0000
0000
,
0100
0000
0000
0000
,
0010
0000
0000
0000
,
0001
0000
0000
0000
,
0100
0000
0000
0000
,
0010
0000
0000
0000
,
0100
0000
0000
0000
,
0001
0000
0000
0000
,
1000
0000
0000
0000
,
0100
0000
0000
0000
,
0010
0000
0000
0000
,
0100
0000
0000
0000
,
1000
0000
0001
0000
,
1000
0000
0000
0000
,
0001
0000
1000
0000
,
0001
0000
0000
0000
,
0100
0000
0010
0000
,
0100
0000
0000
0000
,
0010
0000
0000
0000
,
0000
0000
0000
0000
,
1001
0000
0000
0000
,
0000
0000
0000
0000
,
0000
0000
0000
0000
,
0000
0000
0000
0000
,
1000
0000
0000
0000
,
0000
0000
0000
0000
,
0001
0000
0000
0000
,
0000
0000
0000
0000
,
1000
0000
0000
0000
,
0000
0000
0000
0000
,
0010
0000
0000
0000
,
0100
0000
0000
0000
,
0010
0000
0000
0000
,
1000
0000
0000
0000
,
0001
0000
0000
0000
,
0010
0000
0000
0000
,
0100
0000
0000
0000
,
0010
0000
0000
0000
,
0001
0000
0100
0000
,
0001
0000
0000
0000
,
1000
0000
0010
0000
,
1000
0000
0000
0000
,
0001
0000
1000
0000
,
0001
0000
0000
0000
,
1001
0000
0000
0000
,
0000
0000
0000
0000
,
1000
0000
0010
0000
,
0100
0000
0001
0000
,
1000
0000
0010
0000
,
0100
0000
0010
0000
,
0100
0000
0000
0000
,
0001
0000
0010
0000
,
0100
0000
0000
1001
;
