#TITLE:Celebrate ft. Shully;
#SUBTITLE:;
#ARTIST:lapix;
#TITLETRANSLIT:;
#SUBTITLETRANSLIT:;
#ARTISTTRANSLIT:;
#CREDIT:DigiMindAxel;
#BANNER:Celebrate ft. Shully.png;
#BACKGROUND:Celebrate ft. Shully-bg.png;
#LYRICSPATH:;
#CDTITLE:DigiMindAxel original simfile.png;
#MUSIC:Celebrate ft. Shully.ogg;
#METERTYPE:DDR X;
#OFFSET:-11.031;
#SAMPLESTART:26.598;
#SAMPLELENGTH:12.000;
#SELECTABLE:YES;
#BPMS:0.000=175.000,32.000=87.500,68.000=175.000;
#STOPS:;
#BGCHANGES:;

//---------------dance-single - ----------------
#NOTES:
     dance-single:
     :
     Easy:
     6:
     0.207,0.263,0.028,0.099,0.000:
1000
0000
0001
0000
,
1000
0100
1000
0000
,
0001
0000
1000
0000
,
0001
0010
0001
0000
,
1000
0000
0001
0000
,
1000
0010
1000
0000
,
0001
0000
1000
0000
,
0001
0100
0001
1000
,
2002
0000
0000
0000
,
0000
0000
0000
0000
0000
0000
0000
3003
,
2000
0000
0000
0000
,
3020
0000
0000
0000
,
0230
0000
0000
0000
,
0302
0000
0000
0000
,
1003
0000
0001
0000
,
0000
0100
0000
0000
0000
0000
0000
0000
,
0010
0000
0010
0000
,
1001
0000
1000
0000
,
1000
0000
0100
0000
,
0100
0000
0010
0000
,
0010
0000
0001
0000
,
0001
0000
1000
0000
,
1000
0000
0010
0000
,
0010
0000
1000
0000
,
1000
0000
0001
0000
,
0001
0000
0010
0000
,
0001
0000
1000
0000
,
0010
0000
0100
0000
,
0010
0000
0100
0000
,
0002
0000
0000
0000
,
2003
0000
0000
0000
,
3001
0000
0100
0100
,
0100
0000
0001
0000
,
1000
0000
0100
0100
,
0100
0000
1000
0000
,
0010
0000
0100
0000
,
0001
0000
0000
0000
,
1000
0000
0000
0000
,
0001
0000
0000
0000
,
1000
0000
0100
0100
,
0100
0000
0010
0000
,
0001
0000
0100
0100
,
0100
0000
0010
0000
,
2000
0000
0000
0000
,
0002
0000
0000
3003
,
2002
0000
0000
0000
,
0000
0000
0000
3003
,
0001
0000
0100
0100
,
0100
0010
0010
0010
,
1000
0000
0100
0100
,
0010
0010
0001
0000
,
1000
0000
0001
0001
,
0100
0100
0010
0010
,
1000
0000
0100
0100
,
0020
0000
0000
0000
,
0031
1000
0001
1000
,
0001
0100
0001
0000
,
1000
0010
1000
0010
,
1000
0001
1000
0000
,
0001
1000
0001
1000
,
0001
0010
0001
0000
,
1000
0100
1000
0001
,
1000
0000
0000
0000
,
0100
1000
0100
1000
,
0100
0010
0100
0010
,
0001
0100
0001
0100
,
0001
1000
0001
1000
,
0100
0010
0001
1000
,
0100
0010
0001
1000
,
0100
0010
0001
1000
,
0200
0000
0000
0000
,
0300
0000
0000
1001
,
0000
1000
0000
0001
,
0000
1000
0000
0100
,
0000
1000
0000
0001
,
0000
0100
0000
0010
,
0000
0100
0000
0010
,
0000
0100
0000
0001
,
0000
1000
0000
0100
,
0000
0010
0000
0010
,
0000
0001
0000
0001
,
0000
1000
0000
1000
,
0000
0100
0000
0100
;

//---------------dance-single - ----------------
#NOTES:
     dance-single:
     :
     Medium:
     10:
     0.468,0.468,0.155,0.282,0.035: // measure 1
1000
0001
1000
0000
0100
0000
0010
0000
,  // measure 2
0100
1000
0100
0000
0010
0000
0001
0000
,  // measure 3
1000
0010
1000
0000
0100
0000
0010
0000
,  // measure 4
0001
1000
0001
0000
0010
0000
0100
0000
,  // measure 5
1000
0010
1000
0000
0100
0000
0010
0000
,  // measure 6
0100
1000
0100
0000
0010
0000
0001
0000
,  // measure 7
1000
0001
1000
0001
1000
0001
1000
0000
,  // measure 8
0100
1000
0100
1000
0100
1000
0100
0000
,  // measure 9
2002
0000
0000
0000
,  // measure 10
0000
0000
0000
0000
0000
0000
0000
3003
,  // measure 11
2000
0000
3200
0000
,  // measure 12
2300
0000
3020
0230
,  // measure 13
0320
0000
2030
0000
,  // measure 14
3002
0000
0000
0000
0000
0000
0000
0000
0023
0000
0000
0032
0000
0000
0000
0000
,  // measure 15
2003
0000
3200
0000
,  // measure 16
0300
0000
1000
0000
0100
0000
0010
0002
0000
0000
0000
0000
0000
0000
0000
0000
,  // measure 17
2003
0000
0000
3020
0000
0000
0000
0000
0230
0000
0000
0302
0000
0000
0000
0000
,  // measure 18
0103
0000
0100
0000
1001
0000
1000
0100
,  // measure 19
0010
0000
0100
0000
1000
0000
0001
0100
,  // measure 20
0010
0100
0001
1000
,  // measure 21
0010
0000
0100
0000
0001
0000
1000
0100
,  // measure 22
0010
0100
1000
0001
,  // measure 23
1000
0000
0100
0000
1000
0000
0010
0100
,  // measure 24
0001
0100
0010
1000
,  // measure 25
0001
0000
1000
0010
0000
0100
0000
0000
,  // measure 26
0010
0010
1001
0001
,  // measure 27
0010
0000
0100
0000
1000
0000
0001
0100
,  // measure 28
0010
0000
0100
0000
0001
0000
0100
0010
,  // measure 29
0000
1000
0000
0000
0000
0000
0001
0000
,  // measure 30
2000
0000
0001
0000
,  // measure 31
0002
0000
0000
3003
,  // measure 32
1001
0000
0001
0000
1000
0100
0010
0000
,  // measure 33
0001
0100
0001
0000
0001
1000
0001
0000
,  // measure 34
1000
0000
0010
0000
0100
0001
0010
0000
,  // measure 35
0100
1000
0100
0000
0100
0010
0100
0000
,  // measure 36
1000
0000
0001
0100
0010
1000
0100
0000
,  // measure 37
0010
0100
0010
0000
0001
0000
0010
0001
,  // measure 38
0100
0010
0100
0000
0010
0000
1000
0000
,  // measure 39
0001
0000
0010
0100
1000
0100
0010
0000
,  // measure 40
1001
0000
1000
0000
0010
0100
0001
0100
,  // measure 41
0010
0100
0001
0000
0001
1000
0001
0000
,  // measure 42
1000
0000
0100
0010
0001
0010
0100
0000
,  // measure 43
1000
0001
0010
0000
0010
0100
0010
0000
,  // measure 44
0002
0203
0320
2030
,  // measure 45
3002
2003
3200
0320
,  // measure 46
0032
0000
0000
0000
,  // measure 47
0000
0000
0000
1003
,  // measure 48
1001
0000
1000
0010
1000
0010
0100
0001
,  // measure 49
0100
0001
0010
0100
0010
0000
0001
0000
,  // measure 50
0010
0000
0100
1000
0100
1000
0001
0010
,  // measure 51
0001
0010
0001
0000
0100
0000
0010
0000
,  // measure 52
1000
0001
1000
0001
0010
0001
0010
0001
,  // measure 53
0100
0010
0100
0010
1000
0000
0001
0000
,  // measure 54
0100
0000
0010
1000
0010
1000
0001
0010
,  // measure 55
0100
0000
2000
0002
0000
0000
0000
0000
,  // measure 56
3003
0000
1001
0000
1000
0010
1000
0010
,  // measure 57
0100
0001
0010
0100
2000
0000
3020
0000
,  // measure 58
0230
0000
0301
0000
1000
0001
0001
0010
,  // measure 59
0100
1000
1000
0100
0020
0000
0032
0000
,  // measure 60
0103
0000
0010
1000
0010
0100
0001
1000
,  // measure 61
0100
0010
0100
1000
0001
0100
0001
0100
,  // measure 62
0001
0000
0010
0100
0010
0001
0100
0010
,  // measure 63
2000
0000
0000
3001
,  // measure 64
1001
0000
0000
0000
0000
0000
0000
0000
0100
0000
0000
0100
0000
0000
0100
0000
,  // measure 65
0010
0000
0000
0010
0000
0000
0010
0000
0001
0000
0000
0001
0000
0000
0001
0000
,  // measure 66
1000
0000
0000
1000
0000
0000
1000
0000
0010
0000
0000
0010
0000
0000
0010
0000
,  // measure 67
0100
0000
0000
0100
0000
0000
0100
0000
0001
0000
0000
0000
0000
0000
0000
0000
,  // measure 68
1001
0000
0001
0010
0001
1000
0001
0010
,  // measure 69
0001
1000
0001
0010
0001
0100
0010
0000
,  // measure 70
1000
0010
0100
0000
0001
1000
0001
0100
,  // measure 71
0020
0000
0000
0000
,  // measure 72
0130
0100
0100
1001
,  // measure 73
1001
0000
0001
0100
0001
0000
0110
0000
,  // measure 74
0110
0000
0100
1000
0100
0000
0110
0000
,  // measure 75
0110
0000
0001
0100
0001
0000
1001
0000
,  // measure 76
1000
0100
0010
0001
1000
0010
1000
0000
,  // measure 77
1010
0000
0100
0001
0100
0000
0110
0000
,  // measure 78
0110
0000
1000
0001
1000
0000
0110
0000
,  // measure 79
0110
0000
1001
0000
0001
0010
0100
1000
,  // measure 80
0010
0010
0100
0100
,  // measure 81
0001
1000
0001
0000
1000
0001
1000
0000
,  // measure 82
0100
0010
0100
0000
0010
0001
0010
0001
,  // measure 83
0100
0010
0100
0010
1000
0100
2000
0000
,  // measure 84
3000
0000
0000
0000
;

//---------------dance-single - ----------------
#NOTES:
     dance-single:
     :
     Hard:
     14:
     0.671,0.761,0.247,0.254,0.420:
0001
0000
0010
0000
0001
0000
0000
0000
0010
0000
0100
0000
1000
0000
0001
0100
,
0001
0000
1000
0000
0100
0000
0000
0000
0010
0000
0100
0000
0010
0000
0001
0100
,
0001
0000
1000
0000
0100
0000
0000
0000
1000
0000
0001
0000
1000
0000
0100
0010
,
0100
0000
1000
0000
0010
0000
0000
0000
0100
0000
0001
0000
1000
0000
0100
0010
,
0100
0000
1000
0000
0001
0000
0100
0000
1000
0000
0100
0000
0001
0000
1000
0010
,
1000
0000
0100
0000
0001
0000
0100
0000
1000
0000
0010
0000
1000
0000
0001
0010
,
0001
0100
1000
0100
0001
1000
0100
0010
,
0002
0100
0100
0103
,
2001
3002
2003
3002
,
0203
0000
0000
0000
0320
0000
0000
0000
0230
0000
0000
0301
0010
0100
1000
0001
,
0200
0000
0000
0000
0000
0000
0301
1000
0010
0000
0000
1000
0100
0010
0001
1000
,
0020
0000
0000
0000
0000
0000
0130
0001
0010
0000
0100
1000
0010
0000
0100
0000
,
0001
0010
0100
1000
0000
0000
0010
0000
1000
0100
0010
0001
0000
0000
0100
0000
,
0110
0000
0000
1010
0000
0000
0010
0100
0001
0000
0000
1000
0100
0010
0001
1000
,
0020
0000
0000
0000
0130
0000
0001
0100
0010
0000
0000
1000
0100
0010
0001
1000
,
0000
0000
1001
0000
0001
0000
0200
0020
0000
0000
0000
0000
0330
0000
0100
0000
,
0001
0010
0100
1000
0000
0000
0000
0000
0001
0010
0100
1000
0000
0000
0001
0000
,
1001
0000
1000
0000
1000
0010
0100
0001
,
0010
0200
0000
0000
1000
0000
1000
0000
,
1300
0000
0001
0000
0001
0010
0100
1000
,
0001
0200
0000
0000
0010
0000
0010
0000
,
0310
0000
1000
0000
0100
0010
0001
1000
,
0010
2000
0000
0000
0001
0000
0001
0000
,
3001
0000
1000
0001
0010
0100
0010
0001
,
1000
0000
0010
0100
0000
0002
0000
0000
,
1003
0000
0001
0000
0001
1000
0010
0100
,
0001
0020
0000
0000
0100
0000
0100
0000
,
0130
0000
1000
0000
0010
0100
0001
0100
,
0010
0200
0000
0000
0001
0000
0302
0000
,
2003
0100
0100
3200
,
0320
0001
0001
0031
,
1001
0000
0000
0000
0001
0000
1000
0010
1000
0000
0001
0000
0010
0000
0100
0000
,
0001
0100
0010
0000
0001
0100
0010
0000
,
1000
0000
0000
0000
1000
0000
0001
0100
0001
0000
1000
0000
0100
0000
0010
0000
,
1000
0010
0100
0000
1000
0010
0100
0001
,
0010
0000
0000
0000
0010
0000
0100
1000
0100
0000
0010
0100
0010
0000
0001
0010
,
0001
0100
0020
0000
0000
0000
0130
0001
,
0010
0100
2000
0000
0000
0000
3001
0000
,
1000
0000
0100
0010
0100
0000
1000
0000
0001
0000
0100
0000
1000
0000
0100
0000
,
0001
0000
0000
0000
1000
0000
0001
0010
0001
0000
1000
0000
0010
0000
0100
0000
,
1000
0100
0010
0000
1000
0100
0010
0000
,
0001
0000
0000
0000
0001
0000
1000
0100
1000
0000
0001
0000
0100
0000
0010
0000
,
0001
0010
0100
0001
1000
0010
0001
0010
,
1000
0001
0010
0001
1000
0001
0100
0001
,
1000
0100
0010
0100
1000
0001
0100
0001
,
2002
0000
0000
0000
,
0000
0000
0000
0000
,
3003
0000
0000
0000
1000
0000
0001
0100
0000
0000
0001
1000
0000
0000
0001
0100
,
0000
0000
0001
1000
0000
0000
0001
0100
0001
0000
1000
0001
1000
0000
0100
0000
,
0010
0000
0000
0000
0011
0000
0000
0000
0001
0000
1000
0100
0000
0000
1000
0001
,
0000
0000
1000
0100
0000
0000
1000
0001
1000
0000
0100
0000
0010
0000
0001
0000
,
1000
0000
0000
0000
0001
0000
0100
0010
0000
0000
1000
0010
0000
0000
1000
0001
,
0000
0000
0100
0010
0000
0000
1000
0010
1000
0000
0001
1000
0001
0000
0010
0000
,
0100
0000
0000
0000
1100
0000
0000
0000
1000
0000
0001
0100
0001
0000
1000
0001
,
2000
0000
0001
0002
0000
0000
0000
3003
,
1001
0000
0000
0000
0001
0000
1000
0010
1000
0000
0010
1000
0010
0000
0100
0010
,
0100
0000
0010
0100
0010
0000
1000
0001
1000
0000
0001
0100
0010
0000
1000
0000
,
0001
0000
0000
0000
1001
0000
0000
0000
1000
0000
0010
0000
1000
0001
0000
0010
,
0001
0000
1000
0000
0010
1000
0000
0001
1000
0000
0100
0000
0010
0000
0000
0000
,
1001
0000
0000
0000
1000
0000
0001
0100
0001
0000
1000
0100
1000
0000
0001
0100
,
0001
0000
1000
0100
1000
0000
0100
0010
0001
0000
0100
0000
0001
0000
0000
0000
,
1001
0000
0000
0000
1000
0000
0001
0000
0010
0000
0100
0010
0100
0000
1000
0010
,
2000
0000
0000
3001
,
1001
0000
0000
0000
0100
0000
0000
0000
1100
0000
0000
1100
0000
0000
1100
0000
,
1001
0000
0000
0101
0000
0000
0101
0000
1001
0000
0000
0110
0000
0000
0110
0000
,
1001
0000
0000
0011
0000
0000
0011
0000
1001
0000
0000
1010
0000
0000
1010
0000
,
0110
0000
0000
0110
0000
0000
0110
0000
1001
0000
0000
0000
1000
0000
0000
0000
,
1100
0000
0000
0000
0010
0000
0001
1000
0001
0000
1000
0010
1000
0000
0001
1000
,
0001
0000
0010
0001
0010
0000
0001
1000
0001
0000
1000
0100
0010
0000
0100
0000
,
1000
0000
0001
0000
0100
0000
0000
0000
0010
0000
1000
0001
1000
0000
0001
0010
,
0002
0000
1000
2000
0000
0000
0000
3003
,
1000
0100
0010
0001
0010
0100
1001
0000
,
0001
0010
0100
1000
0010
0001
0010
1000
,
0100
0010
0100
1000
0010
0001
0010
1000
,
0001
0100
0001
0010
1000
0010
0001
1000
,
0100
0000
0010
0100
0010
0000
0001
0100
0001
0000
1000
0001
1000
0000
0001
0100
,
0001
0000
0100
0010
0100
0000
0001
0100
0001
0000
0100
0010
0100
0000
0001
1000
,
0001
0000
1000
0100
1000
0000
0001
1000
0001
0000
1000
0100
1000
0000
0100
0010
,
0100
0000
0010
0001
0010
0000
0100
0010
0200
0000
0000
0000
2300
0000
0000
0000
,
3001
0000
0000
0001
0010
0000
0000
0010
1000
0000
0000
1000
0010
0000
0000
0010
,
0001
0000
0000
0001
0100
0000
0000
0100
0010
0000
0000
0010
1000
0000
0000
1000
,
0100
0000
0000
0100
0001
0000
0000
0001
0100
0000
0000
0100
1000
0000
0000
1000
,
0001
0000
0000
0001
0010
0000
0000
0010
0100
0000
0000
0100
2000
0000
0002
0000
,
3003
0000
0000
0000
;

//---------------dance-single - ----------------
#NOTES:
     dance-single:
     :
     Beginner:
     3:
     0.118,0.175,0.028,0.000,0.000:
0001
0000
0000
0000
,
1000
0000
0000
0000
,
0001
0000
0000
0000
,
1000
0000
0000
0000
,
0001
0000
0000
0000
,
0010
0000
0000
0000
,
0100
0000
0000
0000
,
1000
0000
0000
0000
,
1001
0000
0000
0000
,
0000
0000
0000
0000
,
0010
0000
0100
0000
,
0010
0000
0100
0001
,
1000
0000
0001
0000
,
1000
0000
0000
0000
,
0100
0000
1000
0000
,
0000
0010
0000
0000
0000
0000
0000
0000
,
0100
0000
0100
0000
,
1001
0000
0001
0000
,
0000
0000
0000
0000
,
1000
0000
1000
0000
,
0000
0000
0000
0000
,
0001
0000
0001
0000
,
0000
0000
0000
0000
,
1000
0000
1000
0000
,
0000
0000
0000
0000
,
0010
0000
0100
0000
,
0000
0000
0000
0000
,
0000
0000
0001
0000
,
1000
0000
0000
0000
,
0100
0000
0000
0000
,
0010
0000
0000
0000
,
1001
0000
0000
0000
,
0000
0000
0000
0000
,
0001
0000
0000
0000
,
0000
0000
0000
0000
,
1000
0000
0000
0000
,
0000
0000
0000
0000
,
0001
0000
0000
0000
,
0000
0000
0000
0000
,
0010
0000
0000
0000
,
0100
0000
0000
0000
,
0010
0000
0000
0000
,
0100
0000
0000
0000
,
1000
0000
0001
0000
,
1000
0000
0001
0000
,
1001
0000
0000
0000
,
0000
0000
0000
0000
,
1000
0000
0010
0000
,
0100
0000
0010
0000
,
1000
0000
0001
0000
,
0010
0000
0001
0000
,
1000
0000
0010
0000
,
0100
0000
0010
0000
,
1000
0000
0001
0000
,
0010
0000
0000
0000
,
0100
0000
1000
0000
,
0100
0000
1000
0000
,
0001
0000
0100
0000
,
0001
0000
0100
0000
,
0001
0000
1000
0000
,
0001
0000
1000
0000
,
0100
0000
0000
0000
,
0010
0000
0000
0000
,
0001
0000
0100
0000
,
0010
0000
0100
0000
,
0001
0000
1000
0000
,
0100
0000
1000
0000
,
0001
0000
0100
0000
,
0010
0000
0100
0000
,
0001
0000
0010
0000
,
0100
0000
0000
0000
,
1000
0000
0000
0001
,
0000
0100
0000
0001
,
0000
1000
0000
0001
,
0000
0010
0000
0001
,
0000
0100
0000
0010
,
0000
1000
0000
0010
,
0000
0100
0000
0010
,
0000
1000
0000
0000
,
0001
0000
0000
0000
,
0010
0000
0000
0000
,
0100
0000
0000
0000
,
1000
0000
0000
0001
;
