#TITLE:Cat Song;
#SUBTITLE:~Theme of UPA;
#ARTIST:UPA & NORA;
#TITLETRANSLIT:;
#SUBTITLETRANSLIT:~Theme of UPA;
#ARTISTTRANSLIT:;
#CREDIT:DigiMindAxel;
#BANNER:Cat Song ~Theme of UPA.png;
#BACKGROUND:Cat Song ~Theme of UPA-bg.png;
#LYRICSPATH:;
#CDTITLE:beatmania.png;
#MUSIC:Cat Song ~Theme of UPA.ogg;
#METERTYPE:DDR X;
#OFFSET:-7.650;
#SAMPLESTART:7.677;
#SAMPLELENGTH:12.000;
#SELECTABLE:YES;
#BPMS:0.000=127.000;
#STOPS:;
#BGCHANGES:;

//---------------dance-single - ----------------
#NOTES:
     dance-single:
     :
     Easy:
     3:
     0.162,0.236,0.243,0.020,0.000:
0000
1001
0000
0000
,
0000
1001
0000
0000
,
0000
1001
0000
1001
,
0000
0010
0010
0010
,
0000
1000
0000
0000
,
0000
0001
0000
0000
,
0000
1000
0000
0000
,
0000
0010
0000
0000
,
0100
0110
0001
0001
,
0000
0010
0110
1000
,
1000
0001
1000
0000
,
0010
0000
0100
0000
,
0000
1001
0010
0010
,
0000
1001
0100
0100
,
0000
1001
0000
1000
,
0000
0001
1000
0010
,
1000
0001
0000
0000
,
0000
0010
0000
0000
,
0000
0100
0000
0000
,
0000
1000
0000
0000
,
0000
1001
0010
0010
,
0000
1001
0100
0100
,
0000
1001
0010
0000
,
0010
0000
0010
0000
,
0000
1001
0100
0100
,
0000
1001
0010
0010
,
0000
1001
0100
0000
,
0100
0000
0100
0000
,
0000
0020
0000
0000
,
0000
0000
0000
0000
,
0000
0230
0000
0000
,
0000
0000
0000
0000
,
0000
0301
0000
1000
,
0000
0001
0000
1001
,
0000
0100
0000
0010
,
0000
0100
0000
0010
,
0000
1001
0000
0000
,
0000
0110
0000
0000
,
0000
1001
0000
1000
,
0000
0010
0010
0010
,
0000
1001
0000
0000
,
0000
1001
0000
0000
,
0000
1001
0000
0110
,
0000
1000
0100
0010
,
0001
1001
0000
0000
,
0000
0000
0000
0000
,
0000
0000
0010
0000
;

//---------------dance-single - ----------------
#NOTES:
     dance-single:
     :
     Hard:
     8:
     0.463,0.565,0.497,0.760,0.056:
0001
1000
2002
0000
3003
0000
0000
0000
,
1000
0001
2002
0000
3003
0000
0000
0000
,
0001
0100
0202
0000
0303
0000
2020
0000
,
3030
0000
2002
3003
0220
0330
2002
3003
,
0000
0000
1001
0000
1000
0000
0100
0010
,
0001
0010
0100
0000
1000
0000
0010
0100
,
0002
0000
1003
0000
0001
0000
0010
0100
,
1000
0100
0010
0000
0001
0000
0100
0010
,
1000
1000
2002
0000
0000
0000
3003
0000
,
0010
0010
0220
0000
0000
0000
0330
0000
,
1000
1000
2002
0000
3003
0000
0220
0000
,
0330
2002
0000
3003
,
0000
0010
0022
0000
0000
0000
0000
0033
,
0000
0100
2200
0000
0000
0000
0000
3300
,
0000
0010
0220
0000
0330
0000
2002
0000
,
3003
0220
0330
1000
,
0001
2001
0001
0000
,
0100
3100
0020
0000
0001
0000
0000
0100
,
0130
2000
0010
0000
,
3010
0000
0000
0000
0000
0000
0110
0000
0000
0000
0000
0000
0000
0000
0000
0000
0000
0000
0000
1002
0000
0000
0000
0000
,
0000
0000
1003
0100
0010
0010
0010
0010
,
0100
1000
0001
0100
0001
0001
0001
0001
,
0100
0010
1000
0100
0100
0100
0010
0001
,
0001
0001
1000
0010
0010
0010
0100
0100
,
0100
0000
0001
1000
0001
0000
0000
0000
2002
0000
3003
0000
2002
0000
3003
0000
,
0000
1000
0001
1000
0001
0000
0000
0000
2002
0000
3003
0000
2002
0000
3003
0000
,
0000
0000
1000
0001
1000
0000
0000
0000
2002
0000
0000
0000
3003
0000
0000
0000
,
0202
0000
0000
0000
0303
0000
0000
0000
1010
0000
0000
1010
0000
0000
0000
0000
,
0000
1002
0100
1000
,
0103
0020
0100
0001
,
0130
0002
0100
0010
,
0103
0000
0020
0000
1000
0000
0130
0100
,
0100
0100
0001
1000
0001
0010
0001
1000
,
0001
0000
1000
0100
1000
0001
1000
0100
,
1100
0000
0010
0001
1000
0001
0010
0001
,
1000
0000
0010
1000
0001
0010
0001
0100
,
0101
0220
0000
0000
,
0330
2002
0000
0000
,
3003
0210
0301
0120
,
1030
0000
2002
3003
2002
3003
2002
0000
,
3003
0000
0000
0000
1010
0000
0000
0000
0110
0000
0000
0110
0000
0000
0000
0000
,
0001
0000
1000
0000
1001
0000
0000
0000
1100
0000
0000
0100
0000
1000
0000
0000
,
0010
0000
0100
0000
0110
0000
0000
0000
0001
0010
0000
0000
0000
0100
0000
0000
,
0100
1000
2020
3030
0220
0330
0202
0303
,
0010
0100
2002
0000
0000
0000
0000
0000
,
0000
0000
0000
0000
,
0000
3003
1000
0000
;

//---------------dance-single - ----------------
#NOTES:
     dance-single:
     :
     Challenge:
     11:
     0.567,0.730,0.730,0.324,0.253:
0100
0100
1001
0000
0011
0000
0011
0000
,
0100
0100
1001
0000
1100
0000
1100
0000
,
0010
0010
1001
0000
0011
0000
1001
0000
,
1100
1001
0011
1001
,
1100
0000
0000
0000
1000
0000
0010
0000
1000
0000
0000
0001
0000
1000
0001
0000
,
1000
0000
1000
0000
0100
0000
0010
0000
0100
0000
0000
1000
0000
0010
1000
0000
,
0002
0000
0000
0000
1003
0000
0100
0000
1000
0000
0000
0001
0000
0100
0001
0000
,
1000
0000
1000
0000
0010
0000
0100
0000
0010
0000
0000
1000
0000
0010
1000
0000
,
0001
0001
0110
0000
1010
0000
1010
0000
,
1000
1000
0110
0000
0101
0000
0101
0000
,
1000
1000
0110
0000
1001
0000
0110
0000
,
1001
0000
0000
0000
0110
0000
0000
0000
1001
0000
0000
1001
0000
0000
0000
0000
,
0000
0000
0001
1000
0100
0000
0000
0000
1001
0000
0000
0000
1001
0000
0000
0000
,
0000
1000
0010
1000
0001
0000
0000
0000
1001
0000
0000
0000
1001
0000
0000
0000
,
0000
0000
1000
0001
0100
0000
0000
0000
1001
0000
0000
0000
0101
0000
0000
0000
,
1001
0000
1010
0000
1001
0000
1001
0010
,
0100
0000
1100
0000
1000
0010
0100
0001
,
1000
1000
0001
0000
0010
0100
0010
0001
,
2000
0000
3001
0000
1000
0010
0100
0001
,
0010
0000
0000
0100
0000
0000
1001
0000
0000
0000
0000
0000
0000
0000
0000
0000
0000
0000
0000
1000
0000
0100
0000
0010
,
0000
0000
0001
0000
0000
0000
1000
0000
0000
0001
0000
0000
1000
0000
0000
0000
0000
0000
0010
0000
0000
1000
0000
0000
0001
0000
0000
0000
0000
0000
0001
0000
0000
0000
0000
0000
0001
0000
0000
0000
0000
0000
0001
0000
0000
0000
0000
0000
,
0100
0000
0010
0000
0100
0000
0001
0010
0100
0000
0100
0000
0100
0000
0100
0000
,
1000
0000
0001
0000
0100
0000
0010
1000
0001
0000
0001
0000
0010
0000
0100
1000
,
0010
0000
0010
0000
0100
0000
0001
1000
0100
0000
0100
0000
0100
0000
0100
0000
,
0010
0000
0001
1000
0010
0000
0000
0000
1001
0000
0000
0000
1001
0000
0000
0000
,
0000
0001
0100
0001
1000
0000
0000
0000
1001
0000
0000
0000
1001
0000
0000
0000
,
0002
0000
1003
0100
0010
0000
0000
0000
0202
0000
0303
0000
0110
0000
0000
0000
,
2020
3030
0110
0000
0110
0000
0100
0100
,
1001
0000
0000
0000
0002
0000
0000
0000
0010
0000
0000
1000
0000
1003
0000
0000
,
1001
0000
0000
0000
2000
0000
0000
0000
0010
0000
0000
0001
0000
3001
0000
0000
,
1001
0000
0000
0000
0002
0000
0000
0000
0100
0000
0000
1000
0000
1003
0000
0000
,
1001
0000
2000
0000
0100
0000
3001
0010
,
0100
0000
1000
0000
0001
0000
0100
0001
0100
0000
0001
1000
0001
0000
1000
0000
,
0100
0000
0010
0000
0010
0000
0001
0100
0001
0000
1000
0100
1000
0000
1100
0000
,
1001
0000
0000
0000
1000
0000
0100
1000
0100
0000
0010
0100
0010
0000
0001
0000
,
1000
0000
0010
0000
0010
0000
1000
0001
1000
0000
0001
0100
0001
0000
0101
0000
,
1001
0000
0001
0100
1000
0100
0001
0100
,
0020
0030
1000
0100
0001
0100
1000
0100
,
0020
0030
2002
3003
0022
0033
2002
3003
,
2200
3300
0220
0330
0220
0330
2002
3003
,
0001
0000
1000
0010
0200
0000
0000
0000
0301
1000
0000
1001
0000
0000
0000
0000
,
0001
0000
0100
0010
2000
0000
0000
0000
3100
1000
0000
1100
0000
1100
0000
0000
,
1000
0000
0100
0010
0002
0000
0000
0000
1003
0010
0000
0000
0000
0110
0000
0000
,
0101
0001
1001
0000
0110
0000
1001
0100
,
0010
0100
2002
0000
0000
0000
0000
0000
,
0000
0000
0000
0000
,
0000
3003
0010
0000
;

//---------------dance-single - ----------------
#NOTES:
     dance-single:
     :
     Medium:
     7:
     0.339,0.377,0.517,0.334,0.005:
0000
1001
0000
0000
,
1000
1010
0000
0000
,
0010
0110
0200
0300
,
0200
0301
1000
0001
,
1001
1000
0100
0010
,
0001
1000
0001
0000
0010
0000
0100
0000
,
1001
0001
0100
0010
,
1000
0001
1000
0000
0100
0000
0010
0000
,
0001
0101
0000
0000
,
0100
0110
0000
0000
,
0010
1010
0020
0030
,
0020
0000
0000
0000
0030
0000
0000
0000
0010
0000
0000
0110
0000
0000
0000
0000
,
0000
1000
1001
0000
0000
0000
0000
0000
,
0001
0010
0011
0000
0000
0000
0000
0000
,
0000
0100
0110
0000
0000
0000
0200
0000
,
0300
0000
0200
0000
0300
0000
0100
0010
,
0100
1001
1000
0000
,
0010
1010
0000
0000
0000
0000
0000
0010
,
0110
0220
0000
0000
,
0330
1001
0000
0000
,
0000
0000
1010
0000
0010
0100
0010
0100
,
0001
0000
0010
0000
0100
1000
0100
1000
,
0001
0000
0100
0000
0010
1000
0010
0000
,
0100
0001
0100
0000
0010
0000
1000
0000
,
0001
1001
1000
1000
,
0100
0010
0100
0000
1000
0000
1000
0000
,
0110
0010
0011
0001
,
1001
0000
1000
0000
1010
0000
0010
0010
,
0010
1000
2002
3003
,
0220
0330
2002
3003
,
0220
0330
2002
3003
,
0220
0330
2002
3003
,
0000
0000
0010
1000
0010
0000
0110
0000
,
1001
0000
0100
0001
0100
0000
0110
0000
,
1001
0000
0100
1000
0100
0000
0110
0000
,
1001
0000
0010
0001
0010
0000
0110
0000
,
1001
0012
0000
0000
,
0013
2100
0000
0000
,
3100
2002
3003
2002
,
3003
1001
1001
1001
,
0000
1100
0220
0000
,
0330
0011
0220
0000
,
0330
1100
1000
0011
,
0001
1000
0100
0010
,
0001
1000
0002
0000
0000
0000
0000
0000
,
0000
0000
0000
0000
,
0000
0003
1000
0000
;

//---------------dance-single - ----------------
#NOTES:
     dance-single:
     :
     Beginner:
     1:
     0.088,0.094,0.132,0.000,0.000:
0000
1000
0000
0000
,
0000
1000
0000
0000
,
0000
1000
0000
0000
,
0000
0000
0000
0000
,
0000
0001
0000
0000
,
0000
0000
0000
0000
,
0000
1000
0000
0000
,
0000
0000
0000
0000
,
0000
0001
0000
0000
,
0000
0001
0000
0000
,
0000
0001
0000
0000
,
0000
0000
0000
0000
,
0000
0100
0000
0000
,
0000
0010
0000
0000
,
0000
0100
0000
0010
,
0000
0100
0000
0000
,
0000
1001
0000
0000
,
0000
0000
0000
0000
,
0000
1000
0000
0000
,
0000
0001
0000
0000
,
0000
1001
0000
0000
,
0000
0110
0000
0000
,
0000
1001
0000
0010
,
0000
0010
0000
0000
,
0000
1001
0000
0000
,
0000
0110
0000
0000
,
0000
1001
0000
0100
,
0000
0100
0000
0000
,
0000
0010
0000
0000
,
0000
0000
0000
0000
,
0000
0010
0000
0000
,
0000
0000
0000
0000
,
0000
1000
0000
1000
,
0000
0001
0000
0001
,
0000
0100
0000
0100
,
0000
0010
0000
0010
,
0000
1001
0000
0000
,
0000
1001
0000
0000
,
0000
1001
0000
1000
,
0000
0001
0000
0000
,
0000
0000
1001
0000
,
0000
0000
1001
0000
,
0000
0000
0001
0000
,
1000
0000
0001
0000
,
0000
1001
0000
0000
,
0000
0000
0000
0000
,
0000
0000
1000
0000
;

//---------------dance-double - ----------------
#NOTES:
     dance-double:
     :
     Easy:
     5:
     0.201,0.306,0.345,0.020,0.000: // measure 1
00000000
10010000
00000000
00000000
,  // measure 2
00000000
00011000
00000000
00000000
,  // measure 3
00000000
00001001
00000000
00011000
,  // measure 4
00000000
10010000
10000000
10000000
,  // measure 5
00100000
01000000
00000000
01000000
,  // measure 6
00000000
00010000
00000000
00010000
,  // measure 7
00000000
00001000
00000000
00001000
,  // measure 8
00000000
00000010
00000000
00000010
,  // measure 9
00001000
00001001
00000010
00000010
,  // measure 10
00000100
00000100
00001001
00000010
,  // measure 11
00000010
00011000
00010000
00011000
,  // measure 12
00001000
00011000
01000000
00000000
,  // measure 13
00100000
10010000
01000000
01000000
,  // measure 14
00000000
10010000
00100000
00100000
,  // measure 15
00000000
00001000
00000000
00000100
,  // measure 16
00000000
00000010
00000000
00000001
,  // measure 17
00001000
00001001
00000100
00000000
,  // measure 18
00000100
00001000
00010000
00000000
,  // measure 19
00100000
10010000
00000000
00000000
,  // measure 20
00000000
00011000
00000000
00000000
,  // measure 21
00000000
00001000
00000001
00001000
,  // measure 22
00000000
00000010
00000100
00000010
,  // measure 23
00000000
00001000
00000010
00000000
,  // measure 24
00000010
00000000
00010000
00000000
,  // measure 25
00000000
00011000
00001000
01000000
,  // measure 26
00001000
00011000
00010000
00000010
,  // measure 27
00010000
00011000
00011000
00011000
,  // measure 28
00011000
00000110
00001001
00000000
,  // measure 29
00000000
00000001
00000000
00000000
,  // measure 30
00000000
00000100
00000000
00000000
,  // measure 31
00000000
00000010
00000000
00000000
,  // measure 32
00000000
00010000
00000000
00000000
,  // measure 33
00000000
00001000
00000000
00100000
,  // measure 34
00000000
01000000
00000000
10010000
,  // measure 35
00000000
10000000
00000000
01000000
,  // measure 36
00000000
00100000
00000000
00011000
,  // measure 37
00000000
00000110
00000000
00000000
,  // measure 38
00000000
00000110
00000000
00000000
,  // measure 39
00000000
00001001
00000000
00001001
,  // measure 40
00000000
00000001
00000100
00000000
,  // measure 41
00000001
00011000
00000000
00000000
,  // measure 42
00000000
01100000
00000000
00000000
,  // measure 43
00000000
10010000
00000000
10010000
,  // measure 44
00000000
10000000
00001000
00010000
,  // measure 45
00000000
00022000
00000000
00000000
,  // measure 46
00000000
00000000
00000000
00000000
,  // measure 47
00000000
00033000
00001000
00000000
;

//---------------dance-double - ----------------
#NOTES:
     dance-double:
     :
     Medium:
     7:
     0.266,0.353,0.345,0.101,0.000: // measure 1
00000000
10010000
00000000
00000000
,  // measure 2
10000000
01000000
10000000
00000000
00000000
00000000
00000000
00000000
,  // measure 3
00010000
00100000
00010000
00000000
10000000
00000000
00000000
00000000
,  // measure 4
00001000
00000000
00010000
00000010
,  // measure 5
00001001
00000010
00001000
00001000
,  // measure 6
00000001
00000010
00000100
00001000
,  // measure 7
00001000
00010000
00100000
01000000
,  // measure 8
10000000
00010000
00010000
00100000
,  // measure 9
00001000
00010000
00001000
00000000
00000000
00000000
00000000
00000000
,  // measure 10
00010000
00001000
00010000
00000000
00000000
00000000
00000000
00000000
,  // measure 11
00000001
00001000
00000001
00000000
00000000
00000000
00001001
00000000
,  // measure 12
00000000
00000110
00011000
00000000
,  // measure 13
00000000
01000000
01100000
00000000
00000000
00000000
00000000
00000000
,  // measure 14
00000000
00100000
01100000
00000000
00000000
00000000
00000000
00000000
,  // measure 15
00000000
00010000
00011000
00000000
00000000
00000000
00000010
00000000
,  // measure 16
00000000
00000000
00001000
00000000
00000000
00000000
00000001
00001000
,  // measure 17
00000001
00011000
00010000
00000000
,  // measure 18
00010000
00001000
00000000
00000000
00000000
00000000
00000000
00001000
,  // measure 19
00010000
01100000
00000000
00000000
,  // measure 20
00000000
00011000
00000000
00000000
,  // measure 21
00000000
10000000
01000000
10000000
,  // measure 22
00100000
10000000
00010000
01000000
,  // measure 23
00100000
01000000
00011000
00000010
,  // measure 24
00001000
00000001
00000100
00000100
,  // measure 25
00000010
00011000
01000000
00100000
,  // measure 26
10000000
00100000
10000000
10000000
,  // measure 27
00010000
01000000
00100000
01000000
,  // measure 28
00001000
00000000
00011000
00000000
00011000
00000000
00000010
00000100
,  // measure 29
00000010
00001000
00000001
00000000
,  // measure 30
00000010
00000000
00000100
00000000
,  // measure 31
00001000
00000000
00010000
00000000
,  // measure 32
00100000
00000000
01000000
00000000
,  // measure 33
10000000
00100000
00100000
01000000
,  // measure 34
00100000
01000000
01000000
00010000
,  // measure 35
00011000
00000010
00000010
00000100
,  // measure 36
00000001
00001000
00000010
00000100
,  // measure 37
00011000
20001000
00000000
00000000
,  // measure 38
31000000
00102000
00000000
00000000
,  // measure 39
00103000
00021000
00000000
00030100
,  // measure 40
00000012
00000000
00010003
00011000
,  // measure 41
00000000
01001000
02200000
00000000
,  // measure 42
03300000
10100000
02200000
00000000
,  // measure 43
03300000
10001000
01001000
00011000
,  // measure 44
00010100
00010001
00000110
00001001
,  // measure 45
00000010
00000100
00000220
00000000
00000000
00000000
00000000
00000000
,  // measure 46
00000000
00000000
00000000
00000000
,  // measure 47
00000000
00000330
00010000
00000000
;
