#TITLE:クレイマーズ↑ハイ;
#SUBTITLE:;
#ARTIST:sasakure.UK feat. あやぽんず*;
#TITLETRANSLIT:CLAIMER'S↑HIGH;
#SUBTITLETRANSLIT:;
#ARTISTTRANSLIT:sasakure.UK feat. AYAPONZU*;
#CREDIT:DigiMindAxel;
#BANNER:CLAIMER'S HIGH.png;
#BACKGROUND:CLAIMER'S HIGH-bg.png;
#LYRICSPATH:CLAIMER'S HIGH.lrc;
#CDTITLE:DigiMindAxel original simfile.png;
#MUSIC:CLAIMER'S HIGH.ogg;
#METERTYPE:DDR X;
#OFFSET:-0.090;
#SAMPLESTART:55.373;
#SAMPLELENGTH:12.000;
#SELECTABLE:YES;
#BPMS:0.000=180.000;
#STOPS:;
#BGCHANGES:-2.000=CLAIMER'S HIGH.avi=1.000=1=1=0,
99999=-nosongbg-=1.000=0=0=0 // don't automatically add -songbackground-
;

//---------------dance-single - ----------------
#NOTES:
     dance-single:
     :
     Easy:
     4:
     0.184,0.275,0.184,0.008,0.000: // measure 1
0000
0000
0000
0000
,  // measure 2
0000
0000
0000
0000
,  // measure 3
0000
0000
0000
0000
,  // measure 4
0000
0000
0000
0000
,  // measure 5
0000
0000
0000
0000
,  // measure 6
0000
0000
0000
0000
,  // measure 7
0000
0000
0000
0000
,  // measure 8
0000
0000
0000
0000
,  // measure 9
1000
0000
0000
0000
,  // measure 10
0001
0000
0000
0000
,  // measure 11
1000
0000
0000
0000
,  // measure 12
0001
0000
0000
0000
,  // measure 13
1000
0000
0000
0000
,  // measure 14
0001
0000
0000
0000
,  // measure 15
1001
0000
0000
1001
,  // measure 16
0000
0000
0000
0000
,  // measure 17
0001
0000
0001
0000
,  // measure 18
0001
0000
0000
0000
,  // measure 19
1000
0000
1000
0000
,  // measure 20
1000
0000
0000
0000
,  // measure 21
0001
0000
0001
0000
,  // measure 22
0001
0000
0000
0000
,  // measure 23
1001
0000
0000
0110
,  // measure 24
0000
0000
0000
0000
,  // measure 25
0010
0000
0100
0000
,  // measure 26
0010
0000
0000
0000
,  // measure 27
0100
0000
0001
0000
,  // measure 28
0100
0000
0000
0000
,  // measure 29
0010
0000
1000
0000
,  // measure 30
0010
0000
0000
0000
,  // measure 31
1001
0000
0000
0110
,  // measure 32
0000
0000
0000
0000
,  // measure 33
0010
0000
0010
0000
,  // measure 34
0010
0000
0000
0000
,  // measure 35
0110
0000
0000
0000
,  // measure 36
0000
0000
0000
0000
,  // measure 37
0100
0000
0001
0000
,  // measure 38
0010
0000
0100
0000
,  // measure 39
1000
0000
0001
0000
,  // measure 40
0100
0000
0001
0000
,  // measure 41
2000
0000
0000
0000
,  // measure 42
3000
0000
0000
0000
,  // measure 43
1001
0000
0010
0000
,  // measure 44
1001
0000
0010
0000
,  // measure 45
1001
0000
0010
0000
,  // measure 46
0010
0000
0000
0000
,  // measure 47
1000
0000
0100
0000
,  // measure 48
0010
0000
0001
0000
,  // measure 49
0100
0010
0100
0000
,  // measure 50
0010
0100
0010
0000
,  // measure 51
1001
0000
0010
0000
,  // measure 52
1001
0000
0010
0000
,  // measure 53
1001
0000
0010
0000
,  // measure 54
0010
0000
0000
0000
,  // measure 55
1000
0001
1000
0000
,  // measure 56
0001
1000
0001
0000
,  // measure 57
0010
0001
0010
0000
,  // measure 58
0100
0010
0100
0000
,  // measure 59
1000
0100
1000
0000
,  // measure 60
0001
1000
0001
0000
,  // measure 61
0100
0001
0100
0000
,  // measure 62
0010
0100
0010
0000
,  // measure 63
1001
0000
0010
0000
,  // measure 64
1001
0000
0010
0000
,  // measure 65
1001
0000
0010
0000
,  // measure 66
0010
0000
0000
0000
,  // measure 67
0100
0000
0001
0000
,  // measure 68
0100
0000
0010
0000
,  // measure 69
1000
0000
0001
0000
,  // measure 70
1000
0000
0100
0000
,  // measure 71
1001
0000
0010
0000
,  // measure 72
1001
0000
0010
0000
,  // measure 73
1001
0000
0010
0000
,  // measure 74
0010
0000
0000
0000
,  // measure 75
0100
0000
0001
0000
,  // measure 76
1000
0000
0100
0000
,  // measure 77
0010
0000
0001
0000
,  // measure 78
1000
0000
0010
0000
,  // measure 79
1001
0000
0010
0000
,  // measure 80
1001
0000
0010
0000
,  // measure 81
1001
0000
0010
0000
,  // measure 82
0010
0000
0000
0000
,  // measure 83
0100
0000
0001
0000
,  // measure 84
0010
0000
0100
0000
,  // measure 85
1000
0000
0001
0000
,  // measure 86
0100
0000
0001
0000
,  // measure 87
1001
0000
0000
0000
;

//---------------dance-single - ----------------
#NOTES:
     dance-single:
     :
     Medium:
     8:
     0.344,0.482,0.344,0.016,0.000:
0000
0000
0000
0000
,
0000
0000
0000
0000
,
0000
0000
0000
0000
,
0000
0000
0000
0000
,
0000
0000
0000
0000
,
0000
0000
0000
0000
,
0000
0000
0000
0000
,
0000
0000
0000
0000
,
0001
0000
1000
0000
,
0001
0000
1000
0000
,
0001
0000
0010
0000
,
0001
0000
0010
0000
,
0100
0000
1000
0000
,
0100
0000
1000
0000
,
0001
1000
0000
1000
0000
0000
0001
1000
,
0000
1000
0000
0001
0000
0000
0100
0000
,
0001
0000
0010
0000
,
0100
0000
1000
0000
,
0010
0010
0100
0000
,
0001
0000
1000
0000
,
0100
0000
0010
0000
,
0100
0000
1000
0000
,
1001
0000
0000
0001
0000
0000
1000
0000
,
0000
1001
0000
0000
0000
0000
0000
0000
,
0100
0001
0100
0000
,
0001
1000
0001
0000
,
1000
0010
1000
0000
,
0100
0010
0001
0010
,
0100
1000
0100
0000
,
1000
0001
1000
0000
,
1001
0000
0000
0001
0000
0000
1001
0000
,
1000
0000
0000
0000
,
0010
0100
0010
0100
,
0001
0100
0001
0100
,
1001
0000
0000
0001
0000
0000
2002
0000
,
0000
0000
0000
3003
,
0001
0100
0001
1000
,
0100
0000
0010
0000
0001
0000
0000
1001
,
0000
0000
1000
0000
0100
0000
0010
0001
,
0000
0000
0010
0000
0100
0000
0010
0001
,
0000
0000
0010
0000
0100
0000
1000
0001
,
1000
0000
0000
0000
,
1001
0000
0000
0101
0000
0000
1000
0000
,
1001
0000
0000
0101
0000
0000
1000
0000
,
1001
0000
0000
0101
0000
0000
0010
0100
,
0000
0001
0000
0000
0000
0000
0000
0000
,
0010
0100
1000
0001
,
0100
0010
0100
0000
0001
0000
1000
0000
,
0100
0000
0010
0000
0001
0000
1000
0001
,
1000
0001
0100
0010
,
0110
0000
0000
1010
0000
0000
0010
0000
,
0110
0000
0000
1010
0000
0000
0010
0000
,
0110
0000
0000
1010
0000
0000
0010
0100
,
0000
0100
0000
0000
0000
0000
0000
0000
,
0001
0100
0001
0000
1000
0001
1000
0000
,
0001
0100
0001
0000
1000
0001
1000
0000
,
0100
1000
0100
0000
1000
0001
1000
0000
,
0100
1000
0100
0000
1000
0001
1000
0000
,
1001
0010
0100
1000
,
0010
0100
0010
0000
1000
0000
0100
0000
,
0010
0001
0010
0000
0001
1000
0001
0000
,
1000
0100
0010
0000
0001
0000
0100
0000
,
0101
0000
0000
0110
0000
0000
0100
0000
,
0101
0000
0000
0110
0000
0000
0100
0000
,
0101
0000
0000
0110
0000
0000
0010
0100
,
0000
0100
0000
0000
0000
0000
0000
0000
,
1001
0000
0000
1000
0000
0000
0001
0000
,
0110
0000
0000
1000
0000
0000
0100
0000
,
0110
0000
0000
0001
0000
0000
0010
0000
,
0110
0000
0000
1000
0000
0000
0001
0000
,
1001
0000
0000
1010
0000
0000
0001
0000
,
1001
0000
0000
1010
0000
0000
0001
0000
,
1001
0000
0000
1010
0000
0000
0010
0100
,
0000
0100
0000
0000
0000
0000
0000
0000
,
0001
1000
0000
0001
0000
0000
0100
0000
,
0001
1000
0000
0001
0000
0000
0010
0000
,
0100
1000
0000
0010
0000
0000
1000
0000
,
0001
0100
0001
0000
1000
0001
1000
0000
,
1001
0000
0000
1100
0000
0000
0001
0000
,
1001
0000
0000
1100
0000
0000
0001
0000
,
1001
0000
0000
1100
0000
0000
0010
0100
,
0000
0100
0000
0000
0000
0000
0000
0000
,
1000
0001
0000
0100
0000
0000
0001
0000
,
0010
0100
0000
0010
0000
0000
0001
0000
,
1000
0010
0000
0100
0000
0000
0001
0000
,
0100
0010
0000
0100
0000
0000
0001
0000
,
1001
0000
0000
0000
;

//---------------dance-single - ----------------
#NOTES:
     dance-single:
     :
     Hard:
     12:
     0.585,0.619,0.256,0.216,0.032:
0000
0000
0000
0000
,
0000
0000
0000
0000
,
0000
0000
0000
0000
,
0000
0000
0000
0000
,
0000
0000
0000
0000
,
0000
0000
0000
0000
,
0000
0000
0000
0000
,
0000
0000
0000
0000
,
1000
0000
0001
1000
0000
0000
0000
0001
,
0000
0100
0000
0001
0000
0100
0000
0000
,
0010
0000
0100
0010
0000
0000
0000
1000
,
0000
0100
0000
1000
0000
0001
0000
0000
,
0100
0000
0001
0100
0000
0000
0001
1000
,
0000
0100
0000
0010
0000
0100
0000
0000
,
1000
0001
0000
1001
0000
0000
0100
0010
,
0000
0110
0000
2010
0000
0000
3001
0000
,
1000
0100
0010
0000
0100
1000
0100
0000
,
1000
0001
0100
0000
0010
0100
0010
0000
,
1001
0000
1001
0000
0001
0010
0001
1000
,
0000
1000
0100
0010
0000
0010
0100
0000
,
1000
0010
1000
0000
0001
0010
0100
0000
,
0010
0001
0100
0000
0010
1000
0100
0010
,
0001
0100
0000
0101
0000
0000
0100
1000
,
0000
1100
0000
2001
0000
0000
3001
0000
,
0200
0001
0301
0000
2000
0100
3100
0000
,
0020
0100
0130
0000
2000
0001
3001
0000
,
1100
0000
1100
0000
0010
0001
0100
0010
,
0000
0010
1000
0100
0000
0100
0010
0000
,
0001
0000
0101
0000
0020
0100
0130
0000
,
2000
0010
3010
0000
0200
0001
0301
0000
,
1000
0100
0000
1100
0000
0010
0100
0000
,
0101
0010
0100
1000
,
0001
0100
0001
0000
0001
0100
0001
0000
,
1000
0001
1000
0000
1000
0001
1000
0000
,
0101
0000
0010
0110
0000
1000
2002
0000
,
0000
0000
0000
3003
,
1000
0000
0000
0100
1000
0100
0010
0000
0000
0001
0100
0001
,
1000
0000
0000
0000
0000
0000
0100
0000
0010
0000
0001
0000
0100
0000
0000
0000
0000
0000
0000
0000
0000
1001
0000
0000
,
0000
0001
0100
0001
1000
0100
0010
0011
,
0000
0100
0001
1000
0100
1000
0001
0101
,
0000
0010
1000
0001
0100
1000
0100
0001
,
2000
0000
0000
3000
,
1020
0000
0100
0130
0000
0000
0001
0000
,
1020
0000
0100
0130
0000
0000
0001
0000
,
1020
0000
0100
0130
0000
0001
0100
0001
,
1000
0100
0010
0001
0000
0000
0100
0000
,
0100
0001
0010
0100
1000
0000
0010
0000
,
0010
1000
0100
0010
0001
0000
0100
0000
,
0100
0001
0010
0100
1000
0000
0001
0010
,
0001
1000
0010
0100
0001
0000
1000
0000
,
0201
0000
0010
0310
0000
0000
1000
0000
,
0201
0000
0010
0310
0000
0000
1000
0000
,
0201
0000
0010
0310
0000
1000
0001
0100
,
0010
1000
0100
0010
0000
0000
0001
0000
,
0010
0100
1000
0100
0010
0100
1000
0100
,
0001
0100
1000
0100
0001
0100
1000
0001
,
0100
0010
0100
0001
0100
0010
0100
0001
,
1000
0010
0001
0010
1000
0100
0010
0001
,
0100
0001
0010
0100
0010
0001
0100
0010
,
1000
0100
0001
0100
1000
0010
0001
0010
,
1000
0100
0010
0100
1000
0001
0100
0010
,
0100
0010
0100
0000
0001
0000
0001
0000
1000
0000
1000
0000
0010
0000
0000
0000
,
0201
0000
0010
0310
0000
1000
0100
0010
,
0002
0000
0100
0103
0000
0010
1000
0100
,
0020
0000
0001
0031
0000
1000
0010
0100
,
0001
0010
0100
0010
0000
0001
1000
0000
,
1010
0010
0100
0001
0000
1000
0100
1000
,
0001
0100
0010
0100
0000
0001
0100
0001
,
0010
0100
1000
0001
0000
0100
0001
0100
,
0010
1000
0100
0010
0001
0000
0100
0000
,
0210
0000
0001
0301
0000
1000
0100
1000
,
0020
0000
0100
0130
0000
0001
0010
0001
,
2000
0000
0100
3100
0000
0010
0001
0100
,
0010
1000
0001
1000
0000
0001
0010
0000
,
1001
0001
0100
0010
0000
0100
0001
0100
,
0001
0010
0100
1000
0000
0001
0100
0001
,
0010
0100
1000
0001
0000
0100
0001
0100
,
0010
0100
0010
0000
1000
0000
1000
0000
0001
0000
0001
0000
0010
0000
0000
0000
,
1200
0000
0010
0310
0000
0001
0100
0001
,
2000
0000
0100
3100
0000
0010
0001
1000
,
0200
0000
0010
0310
0000
0001
0100
0001
,
1000
0100
0010
0001
0000
0100
0010
0000
,
1100
0100
0010
0001
0000
0100
0010
0100
,
0001
1000
0100
0010
0000
0001
0100
0001
,
1000
0100
0010
0100
0000
1000
0010
1000
,
0001
0010
0100
1000
0001
0000
0010
0000
,
1001
0000
0000
0000
;

//---------------dance-double - ----------------
#NOTES:
     dance-double:
     :
     Easy:
     5:
     0.209,0.275,0.184,0.048,0.000:
00000000
00000000
00000000
00000000
,
00000000
00000000
00000000
00000000
,
00000000
00000000
00000000
00000000
,
00000000
00000000
00000000
00000000
,
00000000
00000000
00000000
00000000
,
00000000
00000000
00000000
00000000
,
00000000
00000000
00000000
00000000
,
00000000
00000000
00000000
00000000
,
20000000
00000000
00000000
00000000
,
31000000
00000000
00000000
00000000
,
00200000
00000000
00000000
00000000
,
01300000
00000000
00000000
00000000
,
20000000
00000000
00000000
00000000
,
30010000
00000000
00000000
00000000
,
10010000
00000000
00000000
10010000
,
00000000
00000000
00000000
00000000
,
01000000
00000000
10000000
00000000
,
01000000
00000000
10000000
00000000
,
00100000
00000000
01000000
00000000
,
00100000
00000000
00000000
00000000
,
01000000
00000000
00001000
00000000
,
01000000
00000000
00001000
00000000
,
00011000
00000000
00000000
00011000
,
00000000
00000000
00000000
00000000
,
00001000
00000000
00000010
00000000
,
00001000
00000000
00000010
00000000
,
00000100
00000000
00000001
00000000
,
00000010
00000000
00000000
00000000
,
00000100
00000000
00010000
00000000
,
00000100
00000000
00010000
00000000
,
00011000
00000000
00000000
00011000
,
00000000
00000000
00000000
00000000
,
01000000
00000000
00100000
00000000
,
01000000
00000000
00100000
00000000
,
20020000
00000000
00000000
00000000
,
30030000
00000000
00000000
00000000
,
10000000
00000000
01000000
00000000
,
00100000
00000000
00001000
00000000
,
00010000
00000000
00000010
00000100
,
00000010
00000000
00001000
00000001
,
00002000
00000000
00000000
00000000
,
00003000
00000000
00000000
00000000
,
00001001
00000000
00000010
00000000
,
00001001
00000000
00000010
00000000
,
00001001
00000000
00000010
00000000
,
00000010
00000000
00000000
00000000
,
00010000
00000010
00010000
00000000
,
00001000
00010000
00001000
00000000
,
01000000
00001000
01000000
00000000
,
00100000
01000000
00100000
00000000
,
10010000
00000000
00100000
00000000
,
10010000
00000000
00100000
00000000
,
10010000
00000000
00100000
00000000
,
00100000
00000000
00000000
00000000
,
10000000
00010000
10000000
00000000
,
00010000
10000000
00010000
00000000
,
00100000
00001000
00100000
00000000
,
00001000
00100000
00001000
00000000
,
00010000
00001000
00010000
00000000
,
00001000
00010000
00001000
00000000
,
00010000
00000010
00010000
00000000
,
00000010
00010000
00000010
00000000
,
00001001
00000000
00000010
00000000
,
00001001
00000000
00000010
00000000
,
00001001
00000000
00000010
00000000
,
00000010
00000000
00000000
00000000
,
00000100
00000001
00000100
00000000
,
00000001
00001000
00000001
00000000
,
00001000
00010000
00001000
00000000
,
00010000
01000000
00010000
00000000
,
10010000
00000000
00100000
00000000
,
10010000
00000000
00100000
00000000
,
10010000
00000000
00100000
00000000
,
00100000
00000000
00000000
00000000
,
10000000
01000000
10000000
00000000
,
00001000
10000000
00001000
00000000
,
00100000
00001000
00100000
00000000
,
00001000
00010000
00000010
00000000
,
00001001
00000000
00000010
00000000
,
00001001
00000000
00000010
00000000
,
00001001
00000000
00000010
00000000
,
00000010
00000000
00000000
00000000
,
00000100
00000000
00000001
00000000
,
00000010
00000000
00000100
00000000
,
00001000
00000000
00010000
00000000
,
00100000
00000000
01000000
00000000
,
10010000
00000000
00000000
00000000
;

//---------------dance-double - ----------------
#NOTES:
     dance-double:
     :
     Medium:
     9:
     0.398,0.550,0.288,0.048,0.000:
00000000
00000000
00000000
00000000
,
00000000
00000000
00000000
00000000
,
00000000
00000000
00000000
00000000
,
00000000
00000000
00000000
00000000
,
00000000
00000000
00000000
00000000
,
00000000
00000000
00000000
00000000
,
00000000
00000000
00000000
00000000
,
00000000
00000000
00000000
00000000
,
20000000
00000000
01000000
00000000
,
00010000
00000000
31000000
00000000
,
00020000
00000000
10000000
00000000
,
00100000
00000000
10030000
00000000
,
00002000
00000000
00010000
00000000
,
01000000
00000000
00013000
00000000
,
00000010
00000100
00000000
00000100
00000000
00000000
00000010
00000100
,
00000000
00000100
00000000
00000002
00000000
00000000
00001003
00000000
,
00000010
00000100
00000010
00000000
,
00000100
00000001
00000100
00000000
,
00000001
00000010
00000100
00010000
,
00001000
00010000
00001000
00000000
,
00100000
01000000
10000000
00000000
,
00010000
01000000
00010000
00000000
,
01000000
00100000
00000000
00100000
00000000
00000000
01000000
00100000
,
00000000
00100000
00000000
20000000
00000000
00000000
30010000
00000000
,
10000000
00100000
10000000
00000000
,
00100000
01000000
00001000
00000000
,
00010000
00001000
00010000
00000010
,
00000100
00000010
00000100
00000000
,
00000001
00000100
00000001
00000000
,
00000010
00000100
00001000
00000000
,
00100000
01000000
00000000
01000000
00000000
00100000
01000000
00000000
,
01000000
00000000
00000000
00000000
,
00001000
00100000
00001000
00100000
,
00001000
00010000
00001000
00010000
,
00000100
00000000
00001000
00000010
00000000
00001000
00000020
00000000
,
00000000
00000000
00000000
00000030
,
00001001
00000100
00000011
00000100
,
00011000
00000000
01000000
00000000
01100000
00000000
00000000
10010000
,
00000000
00000000
00010000
10000000
00010000
00000000
10000000
00100000
,
00000000
00000000
01000000
00100000
01000000
00000000
00001000
01000000
,
00000000
00000000
00001000
00010000
00001000
00000000
00010000
00000010
,
00000100
00000000
00000000
00000000
,
00001001
00000000
00000000
00010010
00000000
00000000
00000001
00000000
,
00001001
00000000
00000000
00010010
00000000
00000000
00000001
00000000
,
00001001
00000000
00000000
00010010
00000000
00000000
00000010
00000100
,
00000000
00000010
00000000
00000000
00000000
00000000
00000000
00000000
,
00010000
00001000
00010000
00001000
00000000
00000000
00100000
00000000
,
01000000
10000000
01000000
10000000
00000000
00000000
01000000
00000000
,
00100000
00001000
00100000
00001000
00100000
00000000
00001000
00000000
,
00010000
00000100
00000010
00000001
,
00000110
00000000
00000000
00010100
00000000
00000000
00000010
00000000
,
00000110
00000000
00000000
00010100
00000000
00000000
00000010
00000000
,
00000110
00000000
00000000
00010100
00000000
00000000
00000010
00000100
,
00000000
00000100
00000000
00000000
00000000
00000000
00000000
00000000
,
00000001
00000010
00000001
00000010
00000001
00000010
00000001
00000010
,
00000100
00010000
00000100
00010000
00000100
00010000
00000100
00000000
,
00010000
00001000
00010000
00001000
00010000
00001000
00010000
00001000
,
00100000
01000000
00100000
01000000
00100000
01000000
00100000
00000000
,
01000000
10000000
01000000
10000000
01000000
10000000
01000000
10000000
,
00001000
01000000
00001000
01000000
00001000
01000000
00001000
00000000
,
00010000
00001000
00010000
00001000
00010000
00000010
00010000
00000010
,
00000100
00000001
00000010
00000000
00000100
00000000
00010000
00000000
,
00011000
00000000
00000000
01001000
00000000
00000000
00010000
00000000
,
00011000
00000000
00000000
01001000
00000000
00000000
00010000
00000000
,
00011000
00000000
00000000
01001000
00000000
00000000
00100000
01000000
,
00000000
01000000
00000000
00000000
00000000
00000000
00000000
00000000
,
00010000
01000000
00010000
01000000
00000000
00000000
00001000
00000000
,
00010000
00000100
00010000
00000100
00000000
00000000
00000010
00000000
,
00000001
00001000
00000001
00001000
00000000
00000000
00000010
00000000
,
00010000
00001000
00010000
00001000
00000000
00000000
00100000
00000000
,
01100000
00000000
00000000
11000000
00000000
00000000
00100000
00000000
,
01100000
00000000
00000000
11000000
00000000
00000000
00100000
00000000
,
01100000
00000000
00000000
11000000
00000000
00000000
10000000
00010000
,
00000000
00010000
00000000
00000000
00000000
00000000
00000000
00000000
,
00100000
00001000
00100000
00001000
00000000
00000000
00010000
00000000
,
00000100
00000010
00000100
00000010
00000000
00000000
00000001
00000000
,
00000100
00000001
00000100
00000001
00000000
00000000
00000010
00000000
,
00000100
00010000
00000100
00010000
00001000
00010000
00001000
00000000
,
00011000
00000000
00000000
01010000
00000000
00000000
00001000
00000000
,
00011000
00000000
00000000
01010000
00000000
00000000
00001000
00000000
,
00011000
00000000
00000000
01010000
00000000
00000000
00100000
10000000
,
00000000
10000000
00000000
00000000
00000000
00000000
00000000
00000000
,
01000000
00100000
01000000
10000000
00000000
00000000
00010000
00000000
,
01000000
00100000
01000000
00001000
00000000
00000000
00010000
00000000
,
00000100
00000010
00000100
00001000
00000000
00000000
00000001
00000000
,
00000100
00000001
00000100
00000010
00010000
00000000
00001000
00000000
,
00011000
00000000
00000000
00000000
;

//---------------dance-double - ----------------
#NOTES:
     dance-double:
     :
     Hard:
     12:
     0.579,0.619,0.224,0.216,0.032:
00000000
00000000
00000000
00000000
,
00000000
00000000
00000000
00000000
,
00000000
00000000
00000000
00000000
,
00000000
00000000
00000000
00000000
,
00000000
00000000
00000000
00000000
,
00000000
00000000
00000000
00000000
,
00000000
00000000
00000000
00000000
,
00000000
00000000
00000000
00000000
,
10000000
00000000
01000000
10000000
00000000
00000000
00000000
00100000
,
00000000
00100000
00000000
01000000
00000000
01000000
00000000
00000000
,
00001000
00000000
00010000
00001000
00000000
00000000
00000000
00010000
,
00000000
00010000
00000000
00000010
00000000
00000010
00000000
00000000
,
00000100
00000000
00000001
00000100
00000000
00000000
00000001
00010000
,
00000000
00010000
00000000
00001000
00000000
00001000
00000000
00000000
,
01000000
00100000
00000000
01100000
00000000
00000000
10000000
01000000
,
00000000
11000000
00000000
10020000
00000000
00000000
00130000
00000000
,
00001000
00010000
00000010
00000100
,
00000001
00000010
00000100
00010000
,
00011000
00000000
00011000
00000000
00100000
01000000
10000000
00100000
,
00000000
01000000
00100000
01000000
00000000
00010000
00100000
00000000
,
00001000
00000000
00010000
00000000
00000100
00000010
00000100
00000000
,
00010000
00000000
00000010
00000000
00000100
00000001
00000100
00000010
,
00001000
00010000
00000000
00011000
00000000
00000000
00100000
01000000
,
00000000
01100000
00000000
20010000
00000000
00000000
30100000
00000000
,
02000000
00100000
03100000
00000000
20000000
01000000
31000000
00000000
,
00200000
00001000
00301000
00000000
00020000
00000100
00030100
00000000
,
00000011
00000000
00000011
00000000
00000010
00000001
00000100
00000010
,
00000000
00010000
00000100
00010000
00000000
00001000
00100000
00000000
,
01000000
00000000
10000000
00000000
00200000
10000000
10300000
00000000
,
00002000
00010000
00013000
00000000
00000200
00000010
00000310
00000000
,
00000001
00000010
00000000
00000011
00000000
00000100
00000010
00000000
,
00000110
00001000
00010000
00001000
,
00100000
01000000
00100000
01000000
00100000
01000000
00100000
00000000
,
00010000
10000000
00010000
10000000
00010000
10000000
00010000
00000000
,
00110000
00000000
01000000
01100000
00000000
10000000
22000000
00000000
,
00000000
00000000
00000000
33000000
,
10000000
00000000
00000000
01000000
10000000
01000000
00100000
00000000
00000000
00001000
00010000
00000010
,
00000100
00000000
00000000
00000000
00000000
00000000
00000001
00000000
00000100
00000000
00000010
00000000
00000100
00000000
00000000
00000000
00000000
00000000
00000000
00000000
00000000
00001001
00000000
00000000
,
00000000
00000001
00000100
00000001
00001000
00010000
01000000
01100000
,
00000000
00100000
10000000
00100000
01000000
00001000
00010000
00010010
,
00000000
00000010
00001000
00000100
00000010
00000001
00000100
00000010
,
00000200
00000000
00000000
00000300
,
00020010
00000000
00001000
00031000
00000000
00000000
00000100
00000000
,
00020010
00000000
00001000
00031000
00000000
00000000
00000100
00000000
,
00020010
00000000
00001000
00031000
00000000
00100000
01000000
10000000
,
00010000
01000000
00010000
10000000
00000000
00000000
00100000
00000000
,
00100000
01000000
10000000
00010000
01000000
00000000
00001000
00000000
,
00001000
00010000
00000010
00000100
00000001
00000000
00000010
00000000
,
00000010
00000100
00010000
00001000
01000000
00000000
00100000
01000000
,
00100000
10000000
01000000
00100000
00010000
00000000
01000000
00000000
,
00102000
00000000
00010000
00013000
00000000
00000000
01000000
00000000
,
00102000
00000000
00010000
00013000
00000000
00000000
01000000
00000000
,
00102000
00000000
00010000
00013000
00000000
00000100
00000010
00000100
,
00001000
00000001
00000100
00000001
00000000
00000000
00001000
00000000
,
00000100
00000010
00000001
00000010
00000100
00000010
00000001
00000010
,
00000100
00010000
00001000
01000000
00100000
01000000
00001000
01000000
,
00100000
10000000
01000000
00100000
01000000
10000000
01000000
00100000
,
01000000
10000000
00100000
01000000
00001000
00010000
00000100
00000010
,
00000001
00001000
00000010
00001000
00000001
00001000
00000010
00001000
,
00000001
00000010
00000100
00001000
00010000
01000000
00100000
01000000
,
00010000
10000000
01000000
10000000
00010000
01000000
00100000
01000000
,
00010000
10000000
00010000
00000000
00100000
00000000
00100000
00000000
01000000
00000000
01000000
00000000
00100000
00000000
00000000
00000000
,
00012000
00000000
00010000
00013000
00000000
00000100
00000010
00000001
,
00000200
00000000
00000001
00000301
00000000
00001000
00000100
00010000
,
00002000
00000000
00100000
00103000
00000000
01000000
10000000
00010000
,
00100000
01000000
10000000
00010000
00000000
00100000
01000000
00100000
,
00010000
01000000
00001000
00010000
00000000
00000100
00000010
00000100
,
00010000
00000010
00000100
00000001
00000000
00000010
00000100
00000010
,
00000001
00000100
00000010
00000100
00000000
00000001
00000100
00000001
,
00000010
00000100
00010000
00001000
00100000
00000000
00010000
00000000
,
02100000
00000000
00100000
03100000
00000000
10000000
01000000
10000000
,
00200000
00000000
01000000
01300000
00000000
00001000
01000000
00001000
,
00020000
00000000
00001000
00031000
00000000
00000100
00000010
00000100
,
00001000
00000010
00000100
00000001
00000000
00000010
00000100
00000010
,
00000001
00000100
00000010
00010000
00000000
00001000
00010000
00001000
,
00100000
01000000
10000000
00100000
00000000
01000000
00100000
01000000
,
00010000
10000000
01000000
00100000
00000000
00001000
00010000
00001000
,
00010000
00000100
00010000
00000000
00000100
00000000
00000100
00000000
00000010
00000000
00000010
00000000
00000001
00000000
00000000
00000000
,
00000210
00000000
00000010
00000310
00000000
00010000
00000100
00010000
,
00002000
00000000
01000000
01003000
00000000
00100000
10000000
01000000
,
00200000
00000000
00010000
00310000
00000000
00001000
00000100
00001000
,
00000010
00000100
00000001
00000010
00000000
00000001
00001000
00000001
,
00000010
00000100
00010000
00001000
00000000
00100000
01000000
00100000
,
00010000
10000000
00100000
01000000
00000000
00001000
01000000
00001000
,
00010000
00000100
00000010
00000001
00000000
00000100
00000001
00000100
,
00000010
00001000
00010000
01000000
00100000
00000000
01000000
00000000
,
01100000
00000000
00000000
00000000
;

//---------------dance-single - ----------------
#NOTES:
     dance-single:
     :
     Beginner:
     2:
     0.093,0.206,0.104,0.000,0.000: // measure 1
0000
0000
0000
0000
,  // measure 2
0000
0000
0000
0000
,  // measure 3
0000
0000
0000
0000
,  // measure 4
0000
0000
0000
0000
,  // measure 5
0000
0000
0000
0000
,  // measure 6
0000
0000
0000
0000
,  // measure 7
0000
0000
0000
0000
,  // measure 8
0000
0000
0000
0000
,  // measure 9
1000
0000
0000
0000
,  // measure 10
0000
0000
0000
0000
,  // measure 11
0001
0000
0000
0000
,  // measure 12
0000
0000
0000
0000
,  // measure 13
1000
0000
0000
0000
,  // measure 14
0000
0000
0000
0000
,  // measure 15
1001
0000
0000
0000
,  // measure 16
0000
0000
0000
0000
,  // measure 17
0010
0000
0000
0000
,  // measure 18
0100
0000
0000
0000
,  // measure 19
0010
0000
0000
0000
,  // measure 20
0100
0000
0000
0000
,  // measure 21
1000
0000
0000
0000
,  // measure 22
0010
0000
0000
0000
,  // measure 23
1001
0000
0000
0000
,  // measure 24
0000
0000
0000
0000
,  // measure 25
0001
0000
0000
0000
,  // measure 26
0010
0000
0000
0000
,  // measure 27
0001
0000
0000
0000
,  // measure 28
0010
0000
0000
0000
,  // measure 29
0100
0000
0000
0000
,  // measure 30
1000
0000
0000
0000
,  // measure 31
1001
0000
0000
0000
,  // measure 32
0000
0000
0000
0000
,  // measure 33
0010
0000
0000
0000
,  // measure 34
0000
0000
0000
0000
,  // measure 35
0110
0000
0000
0000
,  // measure 36
0000
0000
0000
0000
,  // measure 37
0100
0000
0000
0000
,  // measure 38
0001
0000
0000
0000
,  // measure 39
1000
0000
0000
0000
,  // measure 40
0001
0000
0000
0000
,  // measure 41
1000
0000
0000
0000
,  // measure 42
0000
0000
0000
0000
,  // measure 43
1001
0000
0000
0000
,  // measure 44
1001
0000
0000
0000
,  // measure 45
1001
0000
0000
0000
,  // measure 46
0000
0000
0000
0000
,  // measure 47
0010
0000
0000
0000
,  // measure 48
0100
0000
0000
0000
,  // measure 49
0010
0000
0000
0000
,  // measure 50
1000
0000
0000
0000
,  // measure 51
1001
0000
0000
0000
,  // measure 52
1001
0000
0000
0000
,  // measure 53
1001
0000
0000
0000
,  // measure 54
0000
0000
0000
0000
,  // measure 55
0100
0000
0000
0000
,  // measure 56
0010
0000
0000
0000
,  // measure 57
0100
0000
0000
0000
,  // measure 58
0010
0000
0000
0000
,  // measure 59
0001
0000
0000
0000
,  // measure 60
0100
0000
0000
0000
,  // measure 61
0001
0000
0000
0000
,  // measure 62
1000
0000
0000
0000
,  // measure 63
1001
0000
0000
0000
,  // measure 64
0001
0000
0000
0000
,  // measure 65
1000
0000
0000
0000
,  // measure 66
0100
0000
0000
0000
,  // measure 67
0010
0000
0000
0000
,  // measure 68
0001
0000
0000
0000
,  // measure 69
0100
0000
0000
0000
,  // measure 70
0001
0000
0000
0000
,  // measure 71
1001
0000
0000
0000
,  // measure 72
0001
0000
0000
0000
,  // measure 73
1000
0000
0000
0000
,  // measure 74
0100
0000
0000
0000
,  // measure 75
1000
0000
0000
0000
,  // measure 76
0010
0000
0000
0000
,  // measure 77
0100
0000
0000
0000
,  // measure 78
0010
0000
0000
0000
,  // measure 79
0110
0000
0000
0000
,  // measure 80
0100
0000
0000
0000
,  // measure 81
0010
0000
0000
0000
,  // measure 82
0100
0000
0000
0000
,  // measure 83
0001
0000
0000
0000
,  // measure 84
1000
0000
0000
0000
,  // measure 85
0001
0000
0000
0000
,  // measure 86
1000
0000
0000
0000
,  // measure 87
0100
0000
0000
0000
;
