#TITLE:カートゥーン ランド:にじを こえて! かくしコースへ むかえ;
#SUBTITLE:;
#ARTIST:かめりあ;
#TITLETRANSLIT:CARTOON LAND - NIJI WO KOETE! KAKUSHI COURSE E MUKAE;
#SUBTITLETRANSLIT:;
#ARTISTTRANSLIT:Camellia;
#CREDIT:DigiMindAxel;
#BANNER:CARTOON LAND - NIJI WO KOETE! KAKUSHI COURSE E MUKAE.png;
#BACKGROUND:CARTOON LAND - NIJI WO KOETE! KAKUSHI COURSE E MUKAE-bg.png;
#LYRICSPATH:;
#CDTITLE:DigiMindAxel original simfile.png;
#MUSIC:CARTOON LAND - NIJI WO KOETE! KAKUSHI COURSE E MUKAE.ogg;
#METERTYPE:DDR X;
#OFFSET:-8.754;
#SAMPLESTART:21.130;
#SAMPLELENGTH:12.000;
#SELECTABLE:YES;
#BPMS:0.000=155.000,104.000=77.500,108.000=155.000,116.000=77.500,120.000=155.000;
#STOPS:;
#BGCHANGES:;

//---------------dance-single - ----------------
#NOTES:
     dance-single:
     :
     Easy:
     6:
     0.291,0.333,0.189,0.199,0.000:
1002
0000
0200
0000
,
0000
0303
0200
0000
,
0302
0000
2000
0000
,
0000
0000
0000
3003
,
1001
0000
0010
0000
,
0100
0000
1000
0000
,
0220
0000
0000
0330
,
0110
0000
0000
0000
,
1002
0000
0103
0001
,
1000
0100
0010
0001
,
1000
1000
0001
0000
,
1000
1000
0001
0000
,
0200
0000
0310
1000
,
0010
0100
0001
0000
,
0010
0010
0100
0000
,
0010
0010
0100
0000
,
1001
0100
0010
0010
,
0001
0100
0010
0000
,
0100
0001
0010
0010
,
0100
1000
0020
0000
,
0130
0001
1000
1000
,
0100
0010
0001
0000
,
0010
0010
0001
0001
,
0100
0010
1000
0000
,
1001
0001
0000
0100
,
0010
0100
0010
0100
,
2001
0000
3200
0000
,
1300
0001
0000
0100
,
0010
0100
0010
0100
,
2002
0000
0000
3003
,
1001
0001
0001
0000
,
1000
0001
1000
0001
,
0100
0100
0100
0000
,
0010
0100
0010
0100
,
0001
0001
0001
0000
,
1000
0001
1000
0001
,
0010
0010
0010
0000
,
0220
0000
0000
0330
,
0010
0010
0100
0000
,
0001
0010
0100
2000
,
3001
0001
0100
0000
,
0001
1000
0020
0030
,
0100
0100
0001
0000
,
1000
1000
0100
0010
,
0001
0001
0100
0000
,
0001
0010
0100
1000
,
2001
0000
3010
0100
,
0001
1000
0001
0001
,
0010
0100
1000
1000
,
0001
0001
0100
0010
,
1001
0100
0010
0001
,
1001
0000
0010
0100
,
0110
0000
1001
0001
,
1001
0000
0110
0100
,
0110
0010
1000
0001
,
0200
0000
0000
0300
;

//---------------dance-single - ----------------
#NOTES:
     dance-single:
     :
     Medium:
     9:
     0.469,0.472,0.209,0.338,0.000:
2001
0000
3200
0000
,
0000
0000
0320
0032
,
0203
0000
0320
0000
,
0000
0000
0230
0000
0302
0000
0023
0030
,
0200
1000
1000
1300
,
0020
0100
0100
0130
,
0202
0000
0000
0303
,
2002
0000
0000
3003
,
0002
0000
0000
0000
0103
0010
1000
0000
,
0100
0010
0100
0010
0001
1000
0001
0000
,
0010
0100
1000
0001
0200
0000
0301
0000
,
1000
0100
1000
0001
0200
0000
0310
0000
,
2000
0000
0000
0000
3100
0010
0001
0000
,
0100
0010
0100
0010
1000
0100
1000
0000
,
0100
0010
0001
0100
0002
0000
0103
0000
,
0010
1000
0100
0010
0001
0000
0000
0000
,
1000
0001
0010
0000
0100
0000
0100
1000
,
0010
0000
0010
0100
0001
0000
0010
0000
,
0100
1000
0010
0100
0001
0000
0001
0010
,
0100
0000
0100
1000
0010
0100
0010
0000
,
0100
0001
0100
0001
1000
0000
1000
0100
,
0010
0000
0010
0001
0100
0000
0010
1000
,
0100
0100
0010
0010
,
0001
1000
0001
1000
0100
0000
0000
0000
,
1001
0000
0101
0000
0000
0100
0010
0000
,
1000
0000
0100
0000
0010
0001
0010
0001
,
0200
0000
0000
0000
0010
0010
0010
0310
,
1001
0000
1100
0000
0000
0010
0100
0000
,
0001
0000
0001
0000
0100
0010
0100
0010
,
2000
0000
0000
3000
,
1001
0000
0001
0000
0010
0100
1000
0000
,
0010
0100
0010
0100
0001
0010
0100
1000
,
0001
0000
0001
0000
0100
0010
1000
0000
,
0100
0010
0100
0010
0001
0100
0010
0000
,
1000
0000
1000
0000
0100
0010
0001
0000
,
0100
0001
0100
0010
0100
0010
1000
0000
,
0100
0000
0100
0000
0010
0001
1000
0000
,
2002
0000
0000
3003
,
1100
0000
0100
0000
0010
0001
0100
0000
,
0010
0100
0010
1000
0100
0010
0001
0000
,
0101
0000
0100
0000
0010
1000
0001
0000
,
0010
0100
0010
0100
2000
0001
3001
0000
,
1001
0000
1000
0000
0100
0010
0001
0000
,
0100
0010
0100
0010
1000
0100
0010
0000
,
1001
0000
1000
0000
0010
1000
0100
0000
,
1002
1000
0100
0103
,
1020
0000
1000
0000
1030
0001
0010
0000
,
1000
0010
0001
0000
0010
0100
1000
0000
,
0010
1000
0010
1000
0100
0001
0100
0000
,
1000
0001
1000
0001
0010
1000
0010
0000
,
0102
0100
0100
0103
,
0210
0010
0010
0310
,
1002
0013
2001
3100
,
0102
1003
2100
3010
,
0100
0001
0100
0010
1000
0100
0001
0100
,
2000
0000
0000
3100
;

//---------------dance-single - ----------------
#NOTES:
     dance-single:
     :
     Hard:
     14:
     0.677,0.694,0.169,0.468,0.537:
1002
0000
0000
0100
0203
0000
0000
0000
,
0000
0000
0302
0023
,
0230
0000
0000
1000
2300
0000
0000
0000
,
0000
3002
0203
0320
,
1030
0010
1000
0010
0001
0010
0001
0010
,
1000
0100
0010
0001
1000
0100
0010
0001
,
0202
0000
0000
0303
,
0120
0000
0000
0000
0000
0000
0000
0000
0000
0000
0000
0000
0000
0000
0000
0130
0000
0000
0001
0000
1000
0001
0000
1000
,
0002
0000
0103
0010
1000
0100
1000
0001
,
0010
0000
0100
1000
0000
0100
1000
0000
0000
0000
0000
0000
0001
0000
0100
0001
0000
0200
0000
0000
0000
0301
0000
0000
,
1000
0000
0000
0100
0000
0000
0001
0000
0000
0100
0000
0000
2000
0000
0000
0000
0000
3001
0000
0000
0000
1000
0000
0000
,
0001
0000
0000
0100
0000
0000
1000
0000
0000
0100
0000
0000
0002
0000
0000
0000
1003
0000
0000
0010
0000
0000
0000
0000
,
0200
0000
0310
1000
0100
1000
0010
0100
,
0001
0000
0100
0010
0000
0100
0010
0000
0000
0000
0000
0000
1000
0000
0100
1000
0000
0200
0000
0000
0000
1300
0000
0000
,
0001
0000
0000
0010
0000
0000
1000
0000
0000
0010
0000
0000
0002
0000
0000
0000
0000
1003
0000
0000
0000
0001
0000
0000
,
1000
0010
0001
0010
1000
0001
0200
0000
,
0310
0000
1000
0010
0000
1000
0010
0000
0100
0000
0000
0000
0002
0000
0000
0000
0000
0013
0000
0000
0100
1000
0000
0001
,
0200
0000
0000
0000
0301
0000
0000
0000
1000
0001
0000
0000
0010
0000
0000
0100
0000
0000
0010
0000
0000
0000
0000
0000
,
0001
0000
0100
0001
0000
0100
0001
0000
1000
0000
0000
0000
0200
0000
0000
0000
0000
1300
0000
0000
0010
0100
0000
0010
,
0200
0000
0000
0000
0000
0301
0000
0000
0000
2000
0000
0000
0001
0000
0000
0001
0000
0000
3001
0000
0000
0000
0000
0000
,
0100
0000
0001
0100
0000
0001
0100
0000
0010
0000
0000
0000
2000
0000
0000
0000
0000
3001
0000
0000
1000
0100
0000
1000
,
0002
0000
0000
0000
0103
0000
0000
0000
0001
1000
0000
0000
0010
0000
0000
1000
0000
0000
0001
0000
0000
0000
0000
0000
,
1000
0000
0001
0000
0000
0001
0000
0000
0100
0010
0000
0100
0010
0000
1000
0000
0000
1000
0000
0000
0100
0010
0000
0000
,
0001
1000
0010
1000
0002
0000
0103
0000
,
1001
0000
0000
0001
0000
0000
1000
0000
0000
0000
0000
1010
0000
0000
0000
0100
0000
0000
0001
0000
0000
1000
0000
0000
,
0100
0100
0001
0001
0100
0100
1000
0010
,
0110
0000
0010
0000
0100
0000
1000
0000
0010
0010
1000
1000
0001
0010
0100
0000
,
1010
0000
0000
0010
0000
0000
0100
0000
0000
0000
0000
0101
0000
0000
0000
0001
0000
0000
1000
0000
0000
0001
0000
0000
,
0100
0100
1000
1000
0100
0100
0001
0010
,
0220
0000
0000
0000
0000
0000
0000
0330
,
1001
0000
0000
0000
0000
0000
0001
0000
0000
0000
0000
0000
0100
0000
0001
0000
0000
2000
0000
0000
0000
3001
0000
0000
,
1000
0010
0001
0010
0100
0001
1000
0100
,
0010
0000
0000
0000
0000
0000
0010
0000
0000
0000
0000
0000
0001
0000
1000
0000
0000
0020
0000
0000
0000
1030
0000
0000
,
0001
0100
1000
0100
0010
1000
0001
0100
,
0010
0000
0000
0000
0000
0000
0010
0000
0000
0000
0000
0000
1000
0000
0100
0000
0000
2000
0000
0000
0000
3001
0000
0000
,
1000
0010
0001
0010
0100
0001
1000
0001
,
0100
0000
0000
0000
0000
0000
0100
0000
0000
0000
0000
0000
0010
0000
0100
0000
0000
0002
0000
0000
0000
1003
0000
0000
,
0001
0010
1000
0001
0010
0100
0001
1000
,
1001
0000
0000
0000
0000
0000
1001
0000
0000
0000
0000
0000
0010
0000
0100
0000
0000
0001
0100
0000
0000
0001
0000
0000
,
1000
1000
0010
0010
0100
0100
0002
1000
,
1003
0000
0000
0000
0000
0000
1001
0000
0000
0000
0000
0000
1000
0000
0100
0000
0000
0010
0100
0000
0000
1000
0000
0000
,
0001
0001
0010
0010
0200
1000
1300
0000
,
1001
0000
0000
0000
0000
0000
1000
0000
0000
0000
0000
0000
0010
0000
0100
0000
0000
0020
0000
0000
0000
1030
0000
0000
,
0001
0001
0100
0100
1000
1000
0100
0100
,
1001
0000
0000
0000
0000
0000
0001
0000
0000
0000
0000
0000
1000
0000
0100
0000
0000
2000
0000
0000
0000
3010
0000
0000
,
0220
0000
0000
0000
0000
0000
0000
0000
0000
0000
0000
0000
0330
0000
0000
0001
0000
1000
0001
0000
1000
0001
0000
0000
,
1000
0000
0000
0010
0000
0000
1000
0000
0000
0001
0000
0010
0001
0000
0010
0001
0000
0100
0010
0000
0000
0000
0000
0000
,
1000
0000
0010
0100
0000
0010
0100
0000
0001
0000
0000
0000
0100
0000
0100
0010
0000
2000
0000
0000
0000
3001
0000
0000
,
1000
0000
0000
0100
0000
0000
0001
0000
0000
0100
0000
0000
2000
0000
0000
0000
0000
3001
0000
0000
0000
1000
0000
0000
,
0001
0000
0000
0100
0000
0000
1000
0000
0000
0100
0000
0000
0001
0000
1000
0000
0000
0100
0000
0000
0010
0000
0000
0000
,
2002
0000
0000
0000
0000
0000
3003
0000
0000
0001
0000
0100
0001
0000
0100
0001
0000
1000
0200
0000
0000
0000
0000
0000
,
1300
0000
0010
0100
0000
0010
0100
0000
0001
0000
0000
0000
0010
0000
0100
1000
0000
0100
2000
0000
0000
0000
0000
0000
,
3001
0000
0010
0001
0000
0010
0001
0000
0010
0001
0000
1000
0000
0000
0010
0000
0000
0100
0000
0000
0001
1000
0000
0000
,
0100
0000
1000
0100
0000
1000
0100
0000
1000
0100
0000
0010
0000
0000
0001
0000
0000
0100
0000
0000
0001
1000
0000
0000
,
0001
0000
0010
0001
0000
0010
0001
0000
0100
0010
0000
1000
0000
0000
0100
0000
0000
0010
0000
0000
0001
1000
0000
0000
,
0020
0000
0000
0130
;

//---------------dance-single - ----------------
#NOTES:
     dance-single:
     :
     Beginner:
     2:
     0.124,0.164,0.169,0.000,0.000:
1001
0000
0000
0000
,
0000
0000
0000
0000
,
0000
0000
0000
0000
,
0000
0000
0000
0000
,
1001
0000
0000
0000
,
0001
0000
0000
0000
,
1000
0000
0000
0000
,
0010
0000
0000
0000
,
0110
0000
0000
0000
,
0100
0000
0001
0000
,
0100
0000
0000
0000
,
0001
0000
0000
0000
,
1001
0000
0000
0000
,
1000
0000
0100
0000
,
1000
0000
0000
0000
,
0110
0000
0000
0000
,
0100
0000
0000
0000
,
0001
0000
0000
0000
,
0010
0000
0000
0000
,
0100
0000
1000
0000
,
0001
0000
0000
0000
,
1000
0000
0000
0000
,
0010
0000
0000
0000
,
0110
0000
0000
0000
,
1001
0000
0000
0000
,
1000
0000
0000
0000
,
1001
0000
0000
0000
,
1001
0000
0000
0000
,
0001
0000
0000
0000
,
0110
0000
0000
0000
,
0010
0000
1000
0000
,
0010
0000
0000
0000
,
0100
0000
0001
0000
,
1000
0000
0000
0000
,
0100
0000
1000
0000
,
0100
0000
0000
0000
,
0010
0000
0001
0000
,
0100
0000
0000
0000
,
0110
0000
0010
0000
,
1000
0000
0000
0000
,
0110
0000
0100
0000
,
0001
0000
0000
0000
,
1001
0000
0000
0000
,
1001
0000
0000
0000
,
0001
0000
1000
0000
,
1001
0000
0000
0000
,
0010
0000
0100
0000
,
0001
0000
0100
0000
,
0010
0000
0010
0000
,
1000
0000
1000
0000
,
1001
0000
0000
0000
,
1001
0000
0000
0000
,
0001
0000
1000
0000
,
0001
0000
1000
0000
,
0100
0000
0010
0000
,
0001
0000
0000
0000
;

//---------------dance-single - ----------------
#NOTES:
     dance-single:
     :
     Challenge:
     15:
     0.796,0.777,0.518,0.398,0.732: // measure 1
1000
0001
0000
0010
0000
0001
0000
0010
,  // measure 2
0000
1000
0000
0010
0000
1000
0000
0010
,  // measure 3
0000
0001
0000
1000
0000
0001
0000
1000
,  // measure 4
0000
0100
0000
0010
0000
0100
0000
0010
,  // measure 5
0001
1000
0100
0010
0001
1000
0001
0100
,  // measure 6
1000
0100
0001
0010
0200
1000
1000
1300
,  // measure 7
2002
0000
0000
3003
,  // measure 8
0110
0000
0000
0000
0000
0000
0000
0000
0000
0000
0000
0000
0000
0000
0000
1000
0000
0010
0100
0000
0010
0100
0000
0010
,  // measure 9
2000
0000
0000
0000
0000
0000
3001
0000
0000
1000
0000
0100
1000
0000
0100
1000
0000
0100
1000
0000
0001
0000
0000
0000
,  // measure 10
0100
0000
0010
1000
0000
0010
1000
0000
0001
0000
0000
0000
0010
0000
0100
1000
0000
0020
0000
0000
0000
0130
0000
0001
,  // measure 11
0100
0000
0000
0001
0000
1000
0100
0000
0000
1000
0000
0000
1001
0000
0000
0000
0000
1001
0000
0000
0000
0001
0000
0100
,  // measure 12
0001
0000
0000
0100
0000
0010
0100
0000
0000
0010
0000
1000
0100
0000
1000
0000
0010
0000
0000
0100
0000
0000
0000
0000
,  // measure 13
1002
0000
0000
0000
0000
0000
1003
0000
0000
0001
0000
0100
0001
0000
0100
0001
0000
0100
0001
0000
1000
0000
0000
0000
,  // measure 14
0100
0000
0010
0001
0000
0010
0001
0000
1000
0000
0000
0000
0001
0000
0100
0001
0000
2000
0000
0000
0000
3001
0000
0100
,  // measure 15
0001
0000
0000
1000
0000
0100
1000
0000
0000
0001
0000
0000
1001
0000
0000
0000
0000
1001
0000
0000
0000
1000
0000
0010
,  // measure 16
0100
0000
0000
0010
0000
0100
0001
0000
0000
0010
0000
0100
2000
0000
0000
0001
0000
0000
3001
0000
0000
0000
0000
0000
,  // measure 17
1000
0000
0001
0100
0000
0010
0100
0000
0001
0100
0000
0000
1001
0000
0000
0000
0000
1001
0000
0000
1000
0010
0000
1000
,  // measure 18
0001
0000
0000
0000
0000
1001
0000
0000
0001
0100
0000
0000
0010
0000
0000
0100
0000
0000
0001
0000
0000
0000
0000
0000
,  // measure 19
1000
0000
0001
0010
0000
0001
1000
0000
0001
0010
0000
0000
1001
0000
0000
0000
0000
1001
0000
0000
1000
0010
0000
1000
,  // measure 20
0001
0000
0000
0000
0000
1001
0000
0000
0000
1000
0000
0000
0020
0000
0000
0100
0000
0000
0100
0000
0000
0130
0000
0000
,  // measure 21
0001
0000
1000
0100
0000
1000
0001
0000
1000
0100
0000
0000
1001
0000
0000
0000
0000
1001
0000
0000
0001
0010
0000
0001
,  // measure 22
1000
0000
0000
0000
0000
1001
0000
0000
1000
0001
0000
0000
0010
0000
0000
0100
0000
0000
0010
0000
0001
0100
0000
0001
,  // measure 23
2000
0000
0100
0000
0000
3100
0000
0000
0010
0001
0000
0010
0002
0000
1000
0000
0000
1003
0000
0000
0001
0100
0000
0001
,  // measure 24
0100
0000
0000
0010
0000
1000
0100
0000
1000
0100
0000
0000
0020
0000
0000
0100
0000
0000
0130
0000
0000
0000
0000
0000
,  // measure 25
1001
0000
0000
1000
0000
0000
1100
0000
0000
0000
0000
1100
0000
0000
0000
0020
0000
0000
0001
0000
0000
0031
0000
0000
,  // measure 26
1001
1000
1100
0100
0110
0010
0011
1100
,  // measure 27
1001
0000
0000
0001
0000
0000
0001
0000
0000
0001
0000
0000
0000
0000
0000
0010
0000
0000
0000
0000
0100
0000
0000
0000
1000
0000
0000
1000
0000
0000
0001
0000
0000
0001
0000
0000
0010
0000
0000
0100
0000
0000
0010
0000
0000
0001
0000
0000
,  // measure 28
1001
0000
0000
1000
0000
0000
1010
0000
0000
0000
0000
1010
0000
0000
0000
0020
0000
0000
0100
0000
0000
0130
0000
0000
,  // measure 29
1001
0001
0011
0010
0110
0100
1100
0011
,  // measure 30
2002
0000
0000
0000
0000
0000
0000
3003
,  // measure 31
1001
0000
0000
0000
0000
0000
1001
0000
0000
0000
0000
0000
0001
0000
0200
0000
0000
0302
0000
0000
0000
1003
0000
0000
,  // measure 32
0001
0100
1000
0100
0010
1000
0001
0100
,  // measure 33
1001
0000
0000
0000
0000
0000
1001
0000
0000
0000
0000
0000
1000
0000
0002
0000
0000
0023
0000
0000
0000
0031
0000
0000
,  // measure 34
1000
0010
0001
0010
0100
0001
1000
0100
,  // measure 35
1001
0000
0000
0000
0000
0000
1001
0000
0000
0000
0000
0000
0001
0000
0020
0000
0000
0200
0030
0000
0000
0310
0000
0000
,  // measure 36
0001
0010
1000
0010
0100
1000
0001
0100
,  // measure 37
1001
0000
0000
0000
0000
0000
1001
0000
0000
0000
0000
0000
1000
0000
0200
0000
0000
0020
0300
0000
0000
0130
0000
0000
,  // measure 38
1000
0100
0001
1000
0100
0010
1000
0001
,  // measure 39
1001
0000
0000
0000
0000
0000
1001
0000
0000
0000
0000
0000
1000
0000
0010
0000
0000
1000
0001
0000
0000
0010
0000
0000
,  // measure 40
0200
0000
0000
1000
0000
0000
2300
0000
0000
0001
0000
0000
3001
0000
0000
1000
0000
0100
0010
0000
0100
0010
0000
0000
,  // measure 41
1001
0000
0000
0000
0000
0000
1001
0000
0000
0000
0000
0000
1000
0000
0010
0000
0000
1000
0001
0000
0000
0100
0000
0000
,  // measure 42
0020
0000
0000
1000
0000
0000
2030
0000
0000
0001
0000
0000
3001
0000
0000
1000
0000
0010
0100
0000
0010
0100
0000
0010
,  // measure 43
2000
0001
0001
3001
,  // measure 44
1010
0010
0100
0100
0001
0001
1000
1000
,  // measure 45
1002
1003
2001
3001
,  // measure 46
2002
0000
0000
0000
0000
0000
0000
0000
0000
0000
0000
0000
3003
0000
0000
0001
0000
0100
0010
0000
0100
0010
0000
0000
,  // measure 47
1000
0000
0000
0100
0000
0000
0010
0000
0000
0100
0000
1000
0010
0000
1000
0010
0000
1000
0001
0000
1000
0001
0000
0000
,  // measure 48
0010
0000
0100
1000
0000
0100
1000
0000
0002
0000
0000
0000
0103
0000
0010
0100
0000
0002
0000
0000
0000
1003
0000
0001
,  // measure 49
0100
0000
0000
0001
0000
0100
0010
0000
0000
0100
0000
0000
0001
0000
0000
0000
0000
1001
0000
0000
0000
1000
0000
0001
,  // measure 50
0100
0000
0000
0001
0000
1000
0100
0000
0000
1000
0000
0000
0001
0000
1000
0000
0000
0100
0000
0000
0010
0000
0000
0000
,  // measure 51
2002
0000
0000
0000
0000
0000
3003
0000
0000
1000
0000
0001
0010
0000
0001
0010
0000
0001
2000
0000
0000
0000
0000
0000
,  // measure 52
3001
0000
1000
0100
0000
1000
0100
0000
1000
0001
0000
0000
0100
0000
0010
1000
0000
0010
2000
0000
0000
0000
0000
0000
,  // measure 53
3001
0000
1000
0100
0000
1000
0100
0000
1000
0100
0000
0000
1000
0000
0001
0000
0000
0100
0000
0000
0010
1000
0000
0000
,  // measure 54
0001
0000
0010
0001
0000
0010
0001
0000
0010
0001
0000
0000
1000
0000
0001
0000
0000
0100
0000
0000
0010
1000
0000
0000
,  // measure 55
0100
0000
0010
0001
0000
0010
0001
0000
0010
0001
0000
0000
1000
0000
0010
0000
0000
0100
0000
0000
0001
1000
0000
0000
,  // measure 56
0100
0000
1000
0100
0000
0010
0000
0000
0001
0100
0000
0001
0200
0000
0000
0000
0000
0000
0310
0000
0000
0000
0000
0000
;
