#TITLE:CALDERA;
#SUBTITLE:;
#ARTIST:CALF;
#TITLETRANSLIT:;
#SUBTITLETRANSLIT:;
#ARTISTTRANSLIT:;
#CREDIT:DigiMindAxel;
#BANNER:CALDERA.png;
#BACKGROUND:CALDERA-bg.png;
#LYRICSPATH:;
#CDTITLE:beatmania.png;
#MUSIC:CALDERA.ogg;
#METERTYPE:DDR X;
#OFFSET:-2.792;
#SAMPLESTART:24.191;
#SAMPLELENGTH:12.000;
#SELECTABLE:YES;
#DISPLAYBPM:120.000:210.000;
#BPMS:0.000=210.000,56.000=105.000,63.000=210.000,77.500=105.000,78.500=210.000,108.500=105.000,109.500=210.000,158.000=120.000,172.000=60.000,173.000=120.000,189.000=210.000,203.500=105.000,204.500=210.000,233.000=105.000;
#STOPS:63.000=1.440
,189.000=0.820
;
#BGCHANGES:;

//---------------dance-single - ----------------
#NOTES:
     dance-single:
     :
     Easy:
     7:
     0.304,0.341,0.147,0.102,0.000: // measure 1
1000
1000
0000
0000
,  // measure 2
0000
0000
0010
0010
,  // measure 3
0100
0100
0000
0000
,  // measure 4
0000
0000
0010
0010
,  // measure 5
0100
0100
0000
0000
,  // measure 6
0000
0000
0001
0000
,  // measure 7
1001
0000
0100
0000
,  // measure 8
0010
0000
0100
0000
,  // measure 9
1000
0000
0010
0000
,  // measure 10
0100
0000
0010
0000
,  // measure 11
1001
0000
0100
0000
,  // measure 12
0010
0000
0100
0000
,  // measure 13
1000
0000
0010
0000
,  // measure 14
0100
0000
0000
0000
,  // measure 15
2002
0000
0000
0000
,  // measure 16
0000
0000
0000
3003
,  // measure 17
1000
0001
1000
0001
,  // measure 18
0100
0001
0100
0001
,  // measure 19
1000
0100
0010
0001
,  // measure 20
0010
0100
0000
1000
,  // measure 21
0100
1000
0100
1000
,  // measure 22
0001
1000
0001
0010
,  // measure 23
0100
1000
0001
0100
,  // measure 24
0100
0100
0100
0100
,  // measure 25
0001
0010
0001
0010
,  // measure 26
0100
1000
0100
1000
,  // measure 27
0010
0100
0001
1000
,  // measure 28
0001
0000
1000
0010
,  // measure 29
1000
0010
1000
0001
,  // measure 30
1000
0001
0010
0100
,  // measure 31
1000
0100
0010
0010
,  // measure 32
0010
0010
1001
0000
,  // measure 33
0000
0000
0110
0000
,  // measure 34
0100
0100
1001
0000
,  // measure 35
0000
0000
0110
0000
,  // measure 36
0010
0010
1001
0000
,  // measure 37
0000
0000
0110
0000
,  // measure 38
0100
0100
1001
0000
,  // measure 39
0000
0000
0110
0000
,  // measure 40
0010
0000
2000
0000
,  // measure 41
0000
0000
3002
0000
,  // measure 42
0000
0000
0203
0000
,  // measure 43
0000
0000
0320
0000
,  // measure 44
0030
1000
0100
1000
,  // measure 45
0010
0100
0001
0010
,  // measure 46
0001
1000
0100
1000
,  // measure 47
0010
0100
0010
0000
,  // measure 48
1001
0000
0001
0100
,  // measure 49
0001
0100
0001
1000
,  // measure 50
0001
1000
0100
0010
,  // measure 51
0001
1000
0001
0000
,  // measure 52
0000
0010
0100
0010
,  // measure 53
0100
1000
0010
1000
,  // measure 54
0010
1000
0100
0010
,  // measure 55
0001
0100
0100
0100
,  // measure 56
0100
0100
1001
0001
,  // measure 57
0100
0010
1000
0001
,  // measure 58
0100
0010
1000
0001
,  // measure 59
0100
0020
0000
0000
,  // measure 60
0000
0230
0000
0320
,  // measure 61
0000
1030
0000
0000
;

//---------------dance-single - ----------------
#NOTES:
     dance-single:
     :
     Challenge:
     13:
     0.682,0.817,0.384,0.079,0.181: // measure 1
1000
1000
1000
0000
1001
0000
0100
0001
,  // measure 2
0000
0100
0001
0000
0010
0100
0010
0100
,  // measure 3
1000
1000
1000
0000
1001
0000
0010
1000
,  // measure 4
0000
0010
1000
0000
0100
0010
0100
0010
,  // measure 5
0001
0001
0001
0000
1001
0000
0010
0100
,  // measure 6
0000
0010
0100
0000
2000
0000
0000
0000
,  // measure 7
3001
0000
0001
0000
0001
0000
0001
1000
,  // measure 8
0001
0000
0100
0000
0010
1000
0010
0000
,  // measure 9
1001
0000
1000
0000
1000
0000
1000
0001
,  // measure 10
1000
0010
0100
0000
,  // measure 11
1001
0000
0001
0000
0001
0000
0001
1000
,  // measure 12
0001
0000
0100
0000
0010
1000
0010
0000
,  // measure 13
1001
0000
1000
0000
1000
0000
1000
0001
,  // measure 14
1000
0010
0000
0000
,  // measure 15
2002
0000
0000
0000
,  // measure 16
0000
0000
0000
3003
,  // measure 17
0001
0100
0001
0100
0010
1000
0010
1000
,  // measure 18
0001
0010
0001
0010
0100
1000
0100
1000
,  // measure 19
0001
0100
0010
0100
0001
0100
0010
1000
,  // measure 20
0100
0000
0010
0000
0011
0000
0000
0100
0000
0100
0100
0000
0001
0000
1000
0000
,  // measure 21
0001
1000
0010
1000
0010
1000
0100
0010
,  // measure 22
0100
0010
0001
0100
0001
0100
0001
0010
,  // measure 23
0100
0010
0001
0100
0010
1000
1001
0000
,  // measure 24
0110
0000
1001
0000
0110
0000
0100
0001
,  // measure 25
0100
0001
1000
0100
1000
0100
1000
0001
,  // measure 26
1000
0001
0100
0001
0100
0001
1000
0100
,  // measure 27
0010
0100
1000
0001
0100
0001
1000
0100
,  // measure 28
1100
0000
0000
0010
0000
0010
0010
0000
0001
0000
0100
0000
0001
0000
0100
0000
,  // measure 29
0001
1000
0001
1000
0100
0010
0100
0010
,  // measure 30
0001
0100
0001
0100
0001
1000
0100
0010
,  // measure 31
0100
1000
0001
1000
1001
0000
0110
0000
,  // measure 32
1001
0000
0110
0000
0001
0001
0001
0000
,  // measure 33
1100
0000
0010
0100
0000
0010
0100
0000
,  // measure 34
0001
0100
0001
0100
0010
0010
0010
0000
,  // measure 35
1100
0000
0010
0001
0000
0010
0001
0000
,  // measure 36
0100
0010
0100
0010
1000
1000
1000
0000
,  // measure 37
1001
0000
0100
1000
0000
0100
1000
0000
,  // measure 38
0010
0100
0010
0100
0001
0001
0001
0000
,  // measure 39
1010
0000
0100
0001
0000
0100
0001
0000
,  // measure 40
1001
0000
0000
0000
0000
0000
0000
0000
1002
0000
0000
0000
0000
0000
0000
0103
,  // measure 41
0000
0000
0000
0000
0000
0000
0000
0000
2010
0000
0000
0000
0000
0000
0000
3001
,  // measure 42
0000
0000
0000
0000
0000
0000
0000
0000
0120
0000
0000
0000
0000
0000
0000
1030
,  // measure 43
0000
0000
0000
0000
0000
0000
0000
0000
0012
0000
0000
0000
0000
0000
0000
1003
,  // measure 44
0000
0000
0000
0000
0001
0000
0001
0000
0100
0001
1000
0000
0100
0000
0100
0000
,  // measure 45
0010
0001
1000
0000
0010
0000
0010
0000
1000
0100
0010
0000
0100
0000
0100
0000
,  // measure 46
1000
0001
0010
0000
1100
0000
0100
0000
1000
0010
0100
0000
0010
0000
0010
0000
,  // measure 47
1000
0100
0010
0000
0001
0000
0001
0000
0100
0000
0110
0000
0000
0000
0000
0000
,  // measure 48
1001
0000
0000
0000
0100
0001
0100
0001
,  // measure 49
0100
1000
0100
1000
0010
0100
0010
0100
,  // measure 50
0001
0010
0001
0010
0100
1000
0001
0100
,  // measure 51
0001
0000
1000
0000
0100
0000
0010
0000
0001
0000
1000
0000
1001
0000
0000
0100
,  // measure 52
0000
0100
0100
0000
0010
0000
0001
0000
0010
0000
0001
0000
0010
0000
1000
0000
,  // measure 53
0010
1000
0100
0010
0100
0010
0001
0100
,  // measure 54
0001
0100
0001
0010
1000
0010
0001
0010
,  // measure 55
0100
1000
1001
0000
0110
0000
1001
0000
,  // measure 56
0110
0000
0100
0001
0100
0001
0100
1000
,  // measure 57
0100
1000
0001
0010
0001
0010
0001
1000
,  // measure 58
0010
1000
0010
0001
0010
0001
0010
1000
,  // measure 59
0100
0000
0010
0000
0001
1000
0000
1000
0000
1000
0000
1000
0000
1000
0000
1000
,  // measure 60
0000
1000
0000
1000
0010
1000
0010
1000
0010
1000
0010
1000
0010
0001
0010
0001
,  // measure 61
0010
0001
0010
0001
1000
0000
0000
0000
0000
0000
0000
0000
0000
0000
0000
0000
;

//---------------dance-single - ----------------
#NOTES:
     dance-single:
     :
     Hard:
     12:
     0.557,0.613,0.757,0.113,0.102: // measure 1
1001
0000
0000
0000
1001
0000
0100
0010
,  // measure 2
0000
0100
0010
0000
0011
0000
0011
0000
,  // measure 3
1001
0000
0000
0000
1001
0000
0010
0100
,  // measure 4
0000
0010
0100
0000
1100
0000
1100
0000
,  // measure 5
1001
0000
0000
0000
1001
0000
0010
0100
,  // measure 6
0000
0010
0100
0000
0001
0000
0000
0000
,  // measure 7
0201
0000
0000
0000
0010
0000
0000
0310
,  // measure 8
0000
0000
1000
0001
,  // measure 9
0200
0000
0000
0000
0001
0000
0000
0301
,  // measure 10
0000
0000
0000
0000
,  // measure 11
2000
0000
0000
0000
0100
0000
0000
3100
,  // measure 12
0000
0000
0010
0001
,  // measure 13
0200
0000
0000
0000
0010
0000
0000
0310
,  // measure 14
0000
0000
0000
0000
,  // measure 15
2002
0000
0000
0000
,  // measure 16
0000
0000
0000
3003
,  // measure 17
1000
0100
0010
0000
0010
0100
1000
0000
,  // measure 18
0001
0010
0100
0000
0100
0010
0001
0000
,  // measure 19
1000
0010
0100
0000
0100
0010
1000
0000
,  // measure 20
0010
0000
0000
0000
1001
0000
0000
0100
0000
0100
0000
0000
0001
0000
0010
0000
,  // measure 21
0100
0000
0100
0010
0001
0000
1000
0100
,  // measure 22
0010
0000
0010
0100
1000
0000
0001
0100
,  // measure 23
0010
0000
0010
0100
0001
0000
1001
0000
,  // measure 24
1001
0000
1001
0000
1001
0000
1000
0100
,  // measure 25
0010
0000
0010
0100
0010
0000
0001
0010
,  // measure 26
0100
0000
0100
0010
0100
0000
1000
0010
,  // measure 27
0100
0000
0100
0010
0100
0000
0001
0000
,  // measure 28
1001
0000
0000
0100
0000
0100
0000
0000
0001
0000
0010
0000
0100
0000
0000
0000
,  // measure 29
0100
0010
0100
0000
1000
0100
0010
0000
,  // measure 30
0010
0100
0010
0000
0001
0100
0010
0000
,  // measure 31
0010
0100
0010
0000
1001
0000
1001
0000
,  // measure 32
1001
1001
2100
0000
,  // measure 33
0001
0000
3001
0100
0000
0001
0100
0000
,  // measure 34
1001
1001
0012
0000
,  // measure 35
1000
0000
1003
0100
0000
1000
0100
0000
,  // measure 36
1001
1001
2010
0000
,  // measure 37
0001
0000
3001
0010
0000
0001
0010
0000
,  // measure 38
1001
1001
0102
0000
,  // measure 39
1000
0000
1003
0010
0000
1000
0010
0000
,  // measure 40
1001
0000
0000
0000
0000
0000
0000
0000
0011
0000
0000
0000
0000
0000
0000
1010
,  // measure 41
0000
0000
0000
0000
0000
0000
0000
0000
1100
0000
0000
0000
0000
0000
0000
0101
,  // measure 42
0000
0000
0000
0000
0000
0000
0000
0000
0011
0000
0000
0000
0000
0000
0000
1001
,  // measure 43
0000
0000
0000
0000
0000
0000
0000
0000
1100
0000
0000
0000
0000
0000
0000
1001
,  // measure 44
0000
0000
0001
0000
0011
0010
0001
0000
,  // measure 45
0011
0001
1000
0000
1100
0100
1000
0000
,  // measure 46
1100
1000
0001
0000
0101
0001
1000
0000
,  // measure 47
1010
0010
1001
0000
0000
1100
0000
0000
,  // measure 48
1001
0000
0000
0000
1000
0100
1000
0001
,  // measure 49
1000
0100
1000
0000
0001
0010
0001
1000
,  // measure 50
0001
0010
0001
0000
1000
0010
0100
0001
,  // measure 51
1000
0000
0100
0000
1000
0000
0000
0000
0001
0000
1000
0000
0001
0000
0000
0100
,  // measure 52
0000
0100
0000
0000
0001
0000
0100
0000
0001
0000
1000
0000
0001
0000
0100
0000
,  // measure 53
0001
0000
1000
0010
1000
0001
1000
0010
,  // measure 54
1000
0000
0001
0100
0010
1000
0001
0010
,  // measure 55
0001
1001
1001
1001
,  // measure 56
1001
1100
1010
1100
,  // measure 57
1010
0101
0011
0101
,  // measure 58
0011
0110
1100
1010
,  // measure 59
0110
0000
0000
0000
0000
0001
0000
0001
0000
0001
0000
0001
0000
0001
0000
0001
,  // measure 60
0000
0001
0000
0001
1000
0000
0100
0000
0010
0000
0001
0000
1000
0000
0100
0000
,  // measure 61
0010
0001
1010
0000
0000
0000
0000
0000
;

//---------------dance-single - ----------------
#NOTES:
     dance-single:
     :
     Medium:
     9:
     0.438,0.545,0.520,0.113,0.000: // measure 1
1001
0000
0001
0100
,  // measure 2
0001
0000
1000
1000
,  // measure 3
0010
0000
0100
0000
,  // measure 4
1001
0000
0001
0100
,  // measure 5
0001
0000
0010
0000
,  // measure 6
0100
0000
1000
0000
,  // measure 7
1001
0001
1000
0001
,  // measure 8
1000
0001
1000
0100
,  // measure 9
0010
0001
1000
0001
,  // measure 10
1000
0000
0000
0000
,  // measure 11
0001
1000
0001
1000
,  // measure 12
0001
1000
0001
0010
,  // measure 13
0100
1000
0001
1000
,  // measure 14
0001
1000
0000
0000
,  // measure 15
2002
0000
0000
0000
,  // measure 16
0000
0000
0000
3003
,  // measure 17
1000
0100
1000
0001
,  // measure 18
1000
0100
1000
0001
,  // measure 19
0100
0010
0100
0010
,  // measure 20
1000
1001
0000
0001
,  // measure 21
0010
0001
1000
0001
,  // measure 22
0010
0001
1000
0100
,  // measure 23
0010
0100
0010
1001
,  // measure 24
1001
0000
1001
0000
1001
0000
0001
0100
,  // measure 25
0000
0001
0000
0100
0000
0000
0001
1000
,  // measure 26
0001
0000
1000
0001
1000
0000
0001
0000
,  // measure 27
0010
0100
0010
0100
,  // measure 28
1001
0000
1000
0010
,  // measure 29
1000
0001
1000
0010
,  // measure 30
1000
0001
1000
0100
,  // measure 31
0010
0001
1001
1001
,  // measure 32
1001
0000
1001
0000
0010
0100
0010
0000
,  // measure 33
1000
1100
0000
0000
,  // measure 34
1001
0000
0001
0000
0100
0010
0100
0000
,  // measure 35
0001
0011
0000
0000
,  // measure 36
1001
0000
1000
0000
0010
0100
0010
0000
,  // measure 37
1000
1010
0000
0000
,  // measure 38
1001
0000
0001
0000
0100
0010
0100
0000
,  // measure 39
0001
0101
0000
0000
,  // measure 40
1001
0000
2200
0000
,  // measure 41
0000
3300
0220
0000
,  // measure 42
0000
0330
0022
0000
,  // measure 43
0000
0033
2002
0000
,  // measure 44
3003
0000
1000
0100
1000
0000
0100
1000
,  // measure 45
0100
0000
1000
0100
0010
0000
0001
0010
,  // measure 46
0100
0000
1000
0010
1000
0000
0001
0100
,  // measure 47
0001
0000
1000
0100
0010
1001
0000
0000
,  // measure 48
1001
0000
0001
0011
,  // measure 49
0010
0110
0100
1100
,  // measure 50
1000
1001
1000
1010
,  // measure 51
0010
0110
0100
0101
,  // measure 52
0000
1000
1100
0100
,  // measure 53
0110
0010
0011
0001
,  // measure 54
0101
0100
0110
0010
,  // measure 55
1010
1001
1001
1001
,  // measure 56
1001
0000
0010
0100
0010
0000
0100
0010
,  // measure 57
0100
0000
0001
1000
0001
0000
1000
0001
,  // measure 58
1000
0000
0100
1000
0100
1000
0001
0010
,  // measure 59
0001
0010
0001
0000
0000
0000
0000
0000
,  // measure 60
0000
1000
0100
0010
,  // measure 61
0001
0110
0000
0000
;

//---------------dance-single - ----------------
#NOTES:
     dance-single:
     :
     Beginner:
     3:
     0.132,0.170,0.113,0.000,0.000: // measure 1
0000
0000
0000
0000
,  // measure 2
0000
0000
0000
0000
,  // measure 3
0000
0000
0000
0000
,  // measure 4
0000
0000
0000
0000
,  // measure 5
1001
0000
0000
0000
,  // measure 6
0100
0000
0000
0000
,  // measure 7
1001
0000
0000
0000
,  // measure 8
0000
0000
0000
0000
,  // measure 9
0100
0000
0000
0000
,  // measure 10
0000
0000
0000
0000
,  // measure 11
0010
0000
0000
0000
,  // measure 12
0000
0000
0000
0000
,  // measure 13
0001
0000
0000
0000
,  // measure 14
1001
0000
0000
0000
,  // measure 15
1001
0000
0000
0000
,  // measure 16
0000
0000
0000
0000
,  // measure 17
0000
1000
0000
1000
,  // measure 18
0000
0001
0000
0001
,  // measure 19
0000
1000
0000
1000
,  // measure 20
0000
0010
0000
0000
,  // measure 21
0100
0000
0001
0000
,  // measure 22
0001
0000
1000
0000
,  // measure 23
1000
0000
0000
1001
,  // measure 24
0000
0000
0000
0000
,  // measure 25
0001
0000
0001
0000
,  // measure 26
1000
0000
1000
0000
,  // measure 27
0001
0000
0001
0000
,  // measure 28
0100
0000
0000
0010
,  // measure 29
0000
1000
0000
1000
,  // measure 30
0000
0001
0000
0001
,  // measure 31
0000
0000
1001
0000
,  // measure 32
0000
0000
0110
0000
,  // measure 33
0000
0000
0000
0000
,  // measure 34
0100
0000
0100
0000
,  // measure 35
0000
0000
0000
0000
,  // measure 36
0010
0000
0010
0000
,  // measure 37
0000
0000
0000
0000
,  // measure 38
0001
0000
0001
0000
,  // measure 39
0000
1000
0000
0000
,  // measure 40
0000
0000
0010
0000
,  // measure 41
0000
0000
0100
0000
,  // measure 42
0000
0000
0010
0000
,  // measure 43
0000
0000
0100
0000
,  // measure 44
0000
0010
0000
0000
,  // measure 45
0000
1000
0000
0000
,  // measure 46
0000
1001
0000
0000
,  // measure 47
0000
0001
0000
0000
,  // measure 48
0000
0000
0000
0100
,  // measure 49
0000
0100
0000
0001
,  // measure 50
0000
0001
0000
1000
,  // measure 51
0000
1000
0000
0000
,  // measure 52
0000
0000
0001
0000
,  // measure 53
0001
0000
1000
0000
,  // measure 54
1000
0000
0100
0000
,  // measure 55
0100
0000
0000
0000
,  // measure 56
0000
1001
0000
1000
,  // measure 57
0000
0001
0000
0001
,  // measure 58
0000
0010
0000
0010
,  // measure 59
0000
0100
0000
0000
,  // measure 60
0000
1000
0000
0001
,  // measure 61
0000
1001
0000
0000
;

//---------------dance-double - ----------------
#NOTES:
     dance-double:
     :
     Easy:
     7:
     0.315,0.307,0.204,0.102,0.000:
10010000
00000000
00100000
00000000
,
01100000
00000000
10000000
10000000
,
10010000
00000000
00100000
00000000
,
01100000
00000000
00010000
00010000
,
10010000
00000000
01000000
00000000
,
01100000
00000000
00000000
00000000
,
00011000
00000000
00010000
00000000
,
00001000
00000000
00010000
00000000
,
00001000
00000000
00010000
00000000
,
00000010
00000000
00000100
00000000
,
00001001
00000000
00000001
00000000
,
00001000
00000000
00000001
00000000
,
00010000
00000000
00001000
00000000
,
01000000
00000000
00000000
00000000
,
20020000
00000000
00000000
00000000
,
00000000
00000000
00000000
30030000
,
10000000
00010000
10000000
00010000
,
01000000
00010000
01000000
00010000
,
10000000
01000000
00100000
00010000
,
00000010
00000100
00000000
00000001
,
00000010
00000001
00000010
00000001
,
00001000
00000001
00001000
00000100
,
00010000
00100000
01000000
10000000
,
10000000
10000000
10000000
01000000
,
00100000
01000000
10000000
00100000
,
01000000
00100000
01000000
00001000
,
00010000
00000100
00000010
00000001
,
00001000
00000000
00000001
00000010
,
00000001
00000010
00000100
00010000
,
00000100
00010000
00001000
01000000
,
00100000
01000000
00001000
00001000
,
00001000
00001000
00011000
00000000
,
00000000
00000000
01100000
00000000
,
01000000
01000000
10010000
00000000
,
00000000
00000000
01100000
00000000
,
00001000
00001000
00011000
00000000
,
00000000
00000000
00000110
00000000
,
00000100
00000100
00001001
00000000
,
00000000
00000000
00000110
00000000
,
00000010
00000000
00020000
00000000
,
00000000
00000000
00032000
00000000
,
00000000
00000000
02003000
00000000
,
00000000
00000000
03200000
00000000
,
00300000
10000000
01000000
10000000
,
00100000
01000000
00001000
00100000
,
00001000
00010000
00000010
00010000
,
00000100
00000010
00000100
00000000
,
00001001
00000000
00000001
00000010
,
00000001
00000010
00000100
00010000
,
00000100
00010000
00001000
01000000
,
00100000
10000000
00100000
00000000
,
00000000
10000000
00010000
10000000
,
00010000
10000000
00100000
10000000
,
00100000
10000000
01000000
00100000
,
00010000
00001000
00001000
00001000
,
00001000
00010000
00000010
00000100
,
00000001
00000100
00000010
00010000
,
00001000
00100000
01000000
00100000
,
00001000
00200000
00000000
00000000
,
00000000
02300000
00000000
03200000
,
00000000
01300000
00000000
00000000
;

//---------------dance-double - ----------------
#NOTES:
     dance-double:
     :
     Medium:
     9:
     0.443,0.511,0.384,0.113,0.000:
10010000
00000000
00100000
01000000
,
00100000
00000000
10000000
10000000
,
11000000
00000000
00001000
01000000
,
00001000
00000000
00010000
00010000
,
00011000
00000000
00000010
00000100
,
00000010
00000000
00000010
00000000
,
00001001
00001000
00000001
00001000
,
00000001
00001000
00000001
00000010
,
00000100
00010000
00001000
00010000
,
00001000
00000000
00000000
00000000
,
00100000
01000000
00100000
01000000
,
00100000
01000000
00100000
00010000
,
10000000
01000000
00100000
00001000
,
00100000
00001000
00000000
00000000
,
00022000
00000000
00000000
00000000
,
00000000
00000000
00000000
00033000
,
00010000
00000010
00000100
00000010
,
00010000
00000010
00000100
00000010
,
00010000
00000001
00010000
00000001
,
00000010
00000110
00000000
00001000
,
00100000
01000000
00100000
00001000
,
00100000
01000000
00100000
00001000
,
10000000
00001000
10000000
01100000
,
01100000
00000000
01100000
00000000
01100000
00000000
00100000
01000000
,
00000000
00100000
00000000
10000000
00000000
00000000
00001000
00100000
,
00001000
00000000
00010000
00001000
00010000
00000000
00000100
00000000
,
00000010
00000001
00000010
00000001
,
00001001
00000000
00000100
00000010
,
00000001
00000010
00000100
00010000
,
00001000
00100000
01000000
00100000
,
00010000
01000000
01100000
01100000
,
01100000
00000000
01100000
00000000
10000000
01000000
10000000
00000000
,
00100000
01100000
00000000
00000000
,
00010000
00000000
00010000
00000000
00000010
00000100
00000010
00000000
,
00000100
00001001
00000000
00000000
,
00000001
00000000
00000001
00000000
00010000
00000100
00010000
00000000
,
00001000
00011000
00000000
00000000
,
00100000
00000000
00100000
00000000
01000000
10000000
01000000
00000000
,
00100000
01100000
00000000
00000000
,
00011000
00000000
00020020
00000000
,
00000000
00030030
00000220
00000000
,
00000000
00000330
00000022
00000000
,
00000000
00000033
00000220
00000000
,
00000330
00000000
00010000
00001000
00010000
00000000
00001000
01000000
,
00001000
00000000
01000000
00100000
10000000
00000000
00100000
01000000
,
00010000
00000000
00001000
00010000
00001000
00000000
00000010
00000100
,
00000010
00000000
00001000
00000001
00000010
00000110
00000000
00000000
,
00010010
00000000
00000000
00000000
01000000
00100000
01000000
00000000
,
00100000
00000000
10100000
00000000
00001000
00010000
00001000
00000000
,
00010000
00000000
00010010
00000000
00000100
00000010
00000100
00000000
,
00000001
00000011
00000100
00000110
,
00000000
00000000
00010000
00001000
00010000
00000000
00001000
00000000
,
01001000
00000000
00100000
01000000
00100000
00000000
10000000
00000000
,
11000000
00000000
00100000
00001000
00100000
00000000
00001000
00000000
,
00011000
00000000
00010000
00000010
00010000
00000010
00010000
00000010
,
00010000
00000000
00000001
00000010
00000001
00000000
00000010
00000100
,
00000010
00000000
00000100
00010000
00000100
00000000
00010000
00001000
,
00010000
00000000
00001000
01000000
00001000
01000000
00100000
10000000
,
00100000
10000000
00001000
00000000
00000000
00000000
00000000
00000000
,
00000000
00000000
00010000
00010000
00010000
00010000
00000010
00000010
,
00000010
00000010
00001001
00000000
00000000
00000000
00000000
00000000
;

//---------------dance-double - ----------------
#NOTES:
     dance-double:
     :
     Hard:
     12:
     0.548,0.613,0.611,0.113,0.102:
10010000
00000000
00000000
00000000
10010000
00000000
00100000
01000000
,
00000000
00100000
01000000
00000000
00001000
00010000
00001000
00000000
,
00011000
00000000
00000000
00000000
00011000
00000000
00000010
00000100
,
00000000
00000010
00000100
00000000
00000001
00001000
00000001
00000000
,
00001001
00000000
00000000
00000000
00001001
00000000
00000010
00000100
,
00000000
00000010
00000100
00000000
00010000
00000000
00000000
00000000
,
00012000
00000000
00000000
00000000
01000000
00000000
00000000
01003000
,
00000000
00000000
00100000
10000000
,
00020000
00000000
00000000
00000000
00100000
00000000
00000000
00130000
,
00000000
00000000
00000000
00000000
,
00002000
00000000
00000000
00000000
00010000
00000000
00000000
00013000
,
00000000
00000000
00000100
00000010
,
00000002
00000000
00000000
00000000
00001000
00000000
00000000
00001003
,
00000000
00000000
00000000
00000000
,
00000220
00000000
00000000
00000000
,
00000000
00000000
00000000
00000330
,
00000100
00000010
00000001
00000000
00000001
00000010
00000100
00000000
,
00001000
00010000
01000000
00000000
01000000
00010000
00001000
00000000
,
01000000
00100000
10000000
00100000
01000000
00100000
10000000
00000000
,
01000000
00000000
00000000
00000000
10010000
00000000
00000000
00010000
00000000
00010000
00000000
00000000
00100000
00000000
01000000
00000000
,
10000000
00000000
10000000
01000000
00100000
00000000
00001000
00010000
,
00000010
00000000
00000010
00010000
00001000
00000000
00000100
00000010
,
00000001
00000010
00000100
00010000
00001000
00000000
01100000
00000000
,
01100000
00000000
01100000
00000000
01100000
00000000
01000000
00010000
,
10000000
00000000
10000000
00010000
01000000
00000000
00001000
00010000
,
00000100
00000000
00000100
00010000
00001000
00000000
00000100
00000010
,
00000001
00000100
00000001
00000010
00000100
00000000
00010000
00000000
,
00011000
00000000
00000000
00001000
00000000
00001000
00000000
00000000
00100000
00000000
01000000
00000000
10000000
00000000
00000000
00000000
,
10000000
01000000
00100000
00000000
00001000
00010000
00000010
00000000
,
00000010
00010000
00001000
00000000
00000100
00000010
00000001
00000100
,
00000001
00000010
00000100
00000000
00011000
00000000
00011000
00000000
,
00011000
00011000
01001000
00000000
,
01000000
00000000
01000000
00100000
00000000
10000000
01000000
00000000
,
10010000
10010000
01001000
00000000
,
00001000
00000000
00001000
00010000
00000000
00000010
00001000
00000000
,
00001001
00001001
00000011
00000000
,
00000100
00000000
00000100
00000010
00000000
00010000
00001000
00000000
,
01100000
01100000
11000000
00000000
,
01000000
00000000
01000000
10000000
00000000
00100000
01000000
00000000
,
00101000
00000000
00000000
00000000
00000000
00000000
00000000
00000000
00021000
00000000
00000000
00000000
00000000
00000000
00000000
00030001
,
00000000
00000000
00000000
00000000
00000000
00000000
00000000
00000000
00000201
00000000
00000000
00000000
00000000
00000000
00000000
00000310
,
00000000
00000000
00000000
00000000
00000000
00000000
00000000
00000000
00012000
00000000
00000000
00000000
00000000
00000000
00000000
01003000
,
00000000
00000000
00000000
00000000
00000000
00000000
00000000
00000000
01200000
00000000
00000000
00000000
00000000
00000000
00000000
10300000
,
00000000
00000000
10010000
00000000
10000000
01000000
00100000
00000000
,
00001000
00010000
00000100
00000000
00000010
00000001
00000100
00000000
,
00000001
00000010
00001100
00000000
00010000
00001000
01000000
00000000
,
00100000
10000000
01000000
00000000
00000000
01010000
00000000
00000000
,
00011000
00001000
00000000
00000000
00010000
00000100
00000010
00000100
,
00010000
00000100
00000010
00000000
00000001
00000100
00000010
00000100
,
00000001
00000100
00000010
00000000
00001000
00000100
00000010
00000001
,
00000010
00000000
00000100
00000000
00001000
00000000
00000000
00000000
00000001
00000000
00000100
00000000
00000001
00000000
00000000
00010000
,
00000000
00010000
00000000
00000000
00001000
00000000
00100000
00000000
01000000
00000000
00100000
00000000
00001000
00000000
00100000
00000000
,
01000000
00000000
10000000
00010000
01000000
00010000
10000000
00010000
,
01000000
00000000
00010000
00100000
01000000
10000000
01000000
00100000
,
00010000
10010000
10010000
10010000
,
10010000
11000000
01001000
00011000
,
00010010
00000110
00000101
00001001
,
00010100
00011000
01001000
01100000
,
11000000
00000000
00000000
00000000
00000000
00100000
00000000
00100000
00000000
00100000
00000000
00100000
00000000
00100000
00000000
00100000
,
00000000
00100000
00000000
00100000
01000000
00000000
00001000
00000000
00010000
00000000
00000100
00000000
00000010
00000000
00000001
00000000
,
00000100
00000010
00011000
00000000
00000000
00000000
00000000
00000000
;

//---------------dance-double - ----------------
#NOTES:
     dance-double:
     :
     Challenge:
     13:
     0.680,0.817,0.373,0.079,0.181:
10000000
10000000
10000000
00000000
10010000
00000000
00100000
01000000
,
00000000
00100000
01000000
00000000
00001000
00010000
00001000
00010000
,
00000010
00000010
00000010
00000000
00001001
00000000
00000100
00000010
,
00000000
00000100
00000010
00000000
00001000
00010000
00001000
00010000
,
00100000
00100000
00100000
00000000
01100000
00000000
10000000
00010000
,
00000000
10000000
00010000
00000000
02000000
00000000
00000000
00000000
,
03100000
00000000
00100000
00000000
00100000
00000000
00100000
01000000
,
00001000
00000000
00010000
00000000
00000100
00000000
00000010
00000001
,
00000010
00000000
00000010
00000000
00000010
00000000
00000010
00000001
,
00000100
00000010
00000100
00000000
,
00011000
00000000
00001000
00000000
00001000
00000000
00001000
00100000
,
01000000
01000000
01000000
01000000
,
10000000
00000000
10000000
00000000
10000000
00000000
10000000
00100000
,
01000000
00100000
00000000
00000000
,
20020000
00000000
00000000
00000000
,
00000000
00000000
00000000
30030000
,
01000000
00100000
01000000
00100000
10000000
01000000
10000000
01000000
,
00100000
00001000
00100000
00001000
00010000
00000010
00010000
00000010
,
00000100
00000001
00000010
00000100
00000010
00000001
00000100
00000010
,
00010000
00000000
00001000
00000000
01001000
00000000
00000000
01000000
00000000
01000000
01000000
00000000
00010000
00000000
10000000
00000000
,
00010000
10000000
00100000
01000000
00100000
01000000
00001000
00100000
,
00001000
00100000
00010000
00001000
00010000
00001000
00000010
00000100
,
00000001
00000100
00000010
00000100
00000001
00010000
00010010
00000000
,
00011000
00000000
01001000
00000000
01100000
00000000
00100000
10000000
,
00100000
10000000
01000000
00100000
01000000
00100000
00001000
00010000
,
00001000
00010000
00000010
00000100
00000010
00000100
00000001
00001000
,
00000100
00000010
00000001
00000010
00000100
00010000
00001000
00100000
,
01100000
00000000
00000000
10000000
00000000
10000000
10000000
00000000
00001000
00000000
00100000
00000000
00001000
00000000
00100000
00000000
,
00010000
00001000
00010000
00001000
00000010
00000100
00000010
00000100
,
00000001
00001000
00000001
00001000
00000100
00000010
00000100
00010000
,
00001000
01000000
00100000
01000000
01100000
00000000
11000000
00000000
,
01001000
00000000
00011000
00000000
00010000
00010000
00010000
00000000
,
00000101
00000000
00000100
00000010
00000000
00000100
00000010
00000000
,
00000100
00000001
00000100
00000001
00010000
00010000
00010000
00000000
,
01001000
00000000
01000000
00100000
00000000
01000000
00100000
00000000
,
10000000
00010000
10000000
00010000
01000000
01000000
01000000
00000000
,
00011000
00000000
00010000
00000010
00000000
00010000
00000010
00000000
,
00000100
00000010
00000100
00000010
00010000
00010000
00010000
00000000
,
00101000
00000000
00100000
01000000
00000000
00100000
01000000
00000000
,
10100000
00000000
00000000
00000000
00000000
00000000
00000000
00000000
01200000
00000000
00000000
00000000
00000000
00000000
00000000
10300000
,
00000000
00000000
00000000
00000000
00000000
00000000
00000000
00000000
02100000
00000000
00000000
00000000
00000000
00000000
00000000
03001000
,
00000000
00000000
00000000
00000000
00000000
00000000
00000000
00000000
00010020
00000000
00000000
00000000
00000000
00000000
00000000
00000130
,
00000000
00000000
00000000
00000000
00000000
00000000
00000000
00000000
00002001
00000000
00000000
00000000
00000000
00000000
00000000
00003100
,
00000000
00000000
00000000
00000000
00011000
00000000
00001000
00000000
00100000
01000000
10000000
00000000
00100000
00000000
00100000
00000000
,
10000000
00100000
01000000
00000000
00010000
00000000
00010000
00000000
00001000
00000100
00000010
00000000
00000001
00000000
00000001
00000000
,
00000100
00000001
00000010
00000000
00001001
00000000
00001000
00000000
00000100
00010000
00001000
00000000
01000000
00000000
01000000
00000000
,
00100000
10000000
01000000
00000000
00100000
00000000
00100000
00000000
00001000
00000000
00011000
00000000
00000000
00000000
00000000
00000000
,
00000110
00000100
00000000
00000000
00000001
00000010
00000001
00000010
,
00001000
00000010
00001000
00000010
00000001
00001000
00000001
00001000
,
00000010
00010000
00000010
00010000
00001000
01000000
00100000
00010000
,
00100000
00000000
01000000
00000000
00001000
00000000
10000000
00000000
00100000
00000000
01000000
00000000
01100000
00000000
00000000
00001000
,
00000000
00001000
00001000
00000000
00010000
00000000
00000010
00000000
00010000
00000000
00000010
00000000
00000001
00000000
00000010
00000000
,
00000001
00000010
00010000
00000001
00010000
00000001
00000010
00000100
,
00000010
00000100
00010000
00000001
00000010
00000001
00010000
00001000
,
00100000
01000000
01100000
00000000
10100000
00000000
01001000
00000000
,
00011000
00000000
00010000
00000010
00010000
00000010
00000001
00000010
,
00000001
00000010
00001000
00000100
00001000
00000100
00000001
00000100
,
00000001
00000100
00010000
00001000
00010000
00001000
00100000
01000000
,
10000000
00000000
01000000
00000000
00100000
00001000
00000000
00001000
00000000
00001000
00000000
00001000
00000000
00001000
00000000
00001000
,
00000000
00001000
00000000
00001000
00010000
00000010
00010000
00000010
00010000
00000010
00010000
00000010
00000100
00000001
00000100
00000001
,
00000100
00000001
00000100
00000001
00010000
00000000
00000000
00000000
00000000
00000000
00000000
00000000
00000000
00000000
00000000
00000000
;
