#TITLE:BlazeConductor;
#SUBTITLE:;
#ARTIST:TatshMusicCircle;
#TITLETRANSLIT:;
#SUBTITLETRANSLIT:;
#ARTISTTRANSLIT:;
#CREDIT:DigiMindAxel;
#BANNER:BlazeConductor.png;
#BACKGROUND:BlazeConductor-bg.png;
#LYRICSPATH:;
#CDTITLE:DigiMindAxel original simfile.png;
#MUSIC:BlazeConductor.ogg;
#METERTYPE:DDR X;
#OFFSET:-6.061;
#SAMPLESTART:17.595;
#SAMPLELENGTH:12.000;
#SELECTABLE:YES;
#BPMS:0.000=174.000,163.000=87.000,200.000=174.000;
#STOPS:99.500=0.3448275
;
#BGCHANGES:;

//---------------dance-single - ----------------
#NOTES:
     dance-single:
     :
     Easy:
     5:
     0.244,0.265,0.035,0.028,0.000:
1000
1000
1000
0000
,
0001
0100
0001
0000
,
0100
0100
0100
0000
,
0001
1000
0001
0000
,
0010
0010
0010
0000
,
0100
0010
0100
0000
,
1000
1000
1000
1000
,
0001
0001
0001
0001
,
2000
0000
0000
3000
,
1001
0000
0001
0000
,
0100
0000
0010
0100
,
0001
0000
1000
0000
,
0100
0000
0010
0100
,
1000
0000
0001
0000
,
0100
0001
1000
0000
,
0100
0000
0010
0000
,
0001
0100
0001
1000
,
0100
0000
0010
0000
,
0001
0000
1000
0100
,
0010
0000
0100
0000
,
1000
0000
0001
0100
,
0010
0000
0100
0000
,
0001
0000
1000
0000
,
0100
0010
0100
0000
,
0010
0001
0010
0001
,
1001
0000
0000
1000
,
0000
0001
0010
0100
,
0000
0010
0000
0001
,
0100
0010
0000
0100
,
0000
0010
0000
1000
,
0000
0100
0000
0010
,
0001
0010
0001
0100
,
0010
0100
0010
1000
,
0000
0001
0000
0010
,
0000
0100
0000
1000
,
0010
0100
0000
0010
,
0100
0001
0000
1000
,
0000
0100
0000
0010
,
0100
1000
0000
0010
,
0100
0010
0100
0001
,
1000
0001
1000
0200
,
0000
0000
0000
1300
,
0000
1000
0000
0001
,
0000
0001
0000
1000
,
0001
1000
0000
0001
,
0100
0001
0000
1000
,
0010
1000
0000
0100
,
0010
0100
0000
0010
,
0001
0010
0000
0001
,
1000
0001
0000
0000
,
1001
0000
0001
0000
,
0010
0100
1000
0000
,
0010
0000
0100
0000
,
0010
0100
0001
0000
,
1000
0000
0100
0000
,
0010
0100
1000
0000
,
0010
0000
0100
0000
,
0010
1000
0010
0100
,
0001
0000
0010
0000
,
0100
0000
0010
0001
,
1000
0010
1000
0000
,
0001
0000
0010
0000
,
0100
0010
0100
0000
,
0000
1001
0001
0100
,
0001
0000
1000
0000
,
0100
0010
0100
0010
,
0001
0000
1000
1000
,
0000
0010
0100
0100
,
0000
0001
0010
0010
,
0001
0010
0100
1000
,
0000
0010
0100
0100
,
0000
0001
1000
1000
,
0100
0010
0001
0100
,
0001
0000
1000
0100
,
1000
0001
0010
0000
,
0100
1000
0100
0010
,
0100
0000
1000
0010
,
0100
0001
1000
0000
,
0100
1000
0100
0010
,
0001
0100
0001
0100
,
0010
0010
0010
0010
,
0010
0000
0000
0000
,
2002
0000
0000
0000
,
3003
0000
0000
0000
;

//---------------dance-single - ----------------
#NOTES:
     dance-single:
     :
     Medium:
     10:
     0.471,0.470,0.128,0.064,0.004: // measure 1
1100
0000
0100
0000
0100
0000
0010
0001
,  // measure 2
0010
0100
0010
0001
,  // measure 3
0101
0000
0100
0000
0100
0000
0010
1000
,  // measure 4
0010
0100
0010
1000
,  // measure 5
1001
0000
0001
0000
0001
0000
0010
0001
,  // measure 6
0010
0100
0010
0001
,  // measure 7
0100
0010
0100
0010
0100
0010
0100
0000
,  // measure 8
0001
1000
0001
1000
0001
1000
0001
1000
,  // measure 9
0200
0000
0000
0300
,  // measure 10
1100
0000
0010
0000
0001
0000
0100
0010
,  // measure 11
0100
0000
0001
0000
1000
0100
1000
0100
,  // measure 12
0010
0000
0001
0000
0100
0000
0010
0100
,  // measure 13
0010
0000
0100
0000
0001
1000
0001
1000
,  // measure 14
0100
0000
0010
0000
0100
0000
0010
0001
,  // measure 15
0010
0100
1000
0010
,  // measure 16
1000
0001
1000
0000
0001
1000
0001
0000
,  // measure 17
0010
0001
0010
0001
0100
0010
0100
0010
,  // measure 18
1000
0000
0001
0000
0010
0001
0010
0000
,  // measure 19
0100
0000
1000
0000
0001
0100
0001
0100
,  // measure 20
0010
0000
0100
0000
0001
0000
0100
0010
,  // measure 21
0100
0000
0001
0000
0010
0100
0010
0100
,  // measure 22
1000
0000
0010
0000
1000
0000
0001
1000
,  // measure 23
0010
1000
0010
0100
,  // measure 24
0001
1000
0001
0000
1000
0001
1000
0000
,  // measure 25
0100
0010
0100
0010
0001
0100
0001
0100
,  // measure 26
1001
0000
1000
0000
0100
0010
0001
0000
,  // measure 27
0100
0000
0001
1000
0100
0000
0010
0000
,  // measure 28
0100
0000
0020
0000
0001
0000
0031
1000
,  // measure 29
0001
0000
0100
0000
0010
1000
0100
0000
,  // measure 30
0010
0000
0100
0000
0010
0000
0001
1000
,  // measure 31
0010
0000
0100
0000
1001
0000
0001
0010
,  // measure 32
0001
0000
1000
0100
1000
0000
0010
0100
,  // measure 33
0010
0100
0001
0010
0100
1000
0010
0000
,  // measure 34
0100
0000
0010
0000
0100
0001
1000
0000
,  // measure 35
0100
0000
0010
0100
1000
0000
0001
0000
,  // measure 36
0100
0002
1000
1003
,  // measure 37
0001
0000
0010
0000
0100
0010
0001
0000
,  // measure 38
0100
0000
0010
0100
0010
0000
1000
0100
,  // measure 39
0010
0000
0100
0000
1001
0000
1000
0001
,  // measure 40
1000
0001
0010
0001
0010
0001
0100
0010
,  // measure 41
0100
0010
1000
0100
0010
0001
2000
0000
,  // measure 42
0000
0000
0000
0000
0000
0000
3001
0100
,  // measure 43
0001
0000
1000
0001
1000
0000
0010
0100
,  // measure 44
0010
0000
1000
0001
1000
0000
0001
0010
,  // measure 45
0001
0000
0100
0010
1000
0000
0100
0010
,  // measure 46
0100
0010
1000
0100
0010
0000
0001
0010
,  // measure 47
0100
0000
1000
0010
1000
0000
0001
0010
,  // measure 48
0100
1000
0001
0100
0001
0000
1000
0100
,  // measure 49
1000
0000
0100
0010
0001
0000
0010
0100
,  // measure 50
1000
0001
0200
0000
0000
0000
0300
0000
,  // measure 51
1001
0000
0001
0000
0010
0100
1000
0000
,  // measure 52
0100
0000
0001
0000
0100
0000
1000
0010
,  // measure 53
0100
0000
0001
1000
0001
0000
0010
0100
,  // measure 54
1000
0000
0001
0000
0100
0000
0010
1000
,  // measure 55
0100
0010
0101
0100
,  // measure 56
0110
0000
0010
0000
0010
1000
0100
0010
,  // measure 57
0001
0100
0001
1000
,  // measure 58
0100
0000
0010
0100
1000
0001
0010
0001
,  // measure 59
1000
0000
0010
1000
0010
0000
0100
0010
,  // measure 60
0100
0000
0001
0000
1000
0000
0100
0010
,  // measure 61
0001
0000
1000
0010
1000
0000
0010
0100
,  // measure 62
0001
0000
0010
0000
0100
0000
0010
0001
,  // measure 63
1000
0000
0010
1000
0000
0010
1000
0001
,  // measure 64
0000
0000
1001
0000
1000
0100
1000
0100
,  // measure 65
0010
0000
0000
0000
0000
0000
0000
0000
0101
0000
0000
0100
0000
0000
0200
0000
,  // measure 66
0000
0000
0320
0000
,  // measure 67
0130
0000
0001
0010
0100
0000
0100
0000
,  // measure 68
1000
0000
0100
1000
0010
0000
0010
0000
,  // measure 69
0100
0000
0001
0010
0100
0000
0100
0000
,  // measure 70
0010
0001
1000
0000
1000
0000
0100
1000
,  // measure 71
0010
0000
0100
0001
0010
0000
0010
0000
,  // measure 72
0100
1000
0001
0000
0001
0000
0100
0000
,  // measure 73
0010
1000
0100
0000
0010
0001
0100
0000
,  // measure 74
0010
0100
0010
0000
1001
0000
1001
0000
,  // measure 75
1100
0000
0010
0001
0100
0000
0100
0000
,  // measure 76
0010
1000
0100
0000
0100
0000
0010
0001
,  // measure 77
1000
0000
1000
0000
0100
1000
0001
0000
,  // measure 78
0001
0000
0010
0100
1000
0000
1000
0000
,  // measure 79
0001
0100
0001
0100
0010
0000
1000
0000
,  // measure 80
0010
0000
1001
0000
1000
0100
0010
0001
,  // measure 81
1000
0100
1000
0100
0010
0001
0010
0001
,  // measure 82
0100
0100
0100
0110
,  // measure 83
2002
0000
0000
0000
,  // measure 84
3003
0000
0000
0000
;

//---------------dance-single - ----------------
#NOTES:
     dance-single:
     :
     Hard:
     14:
     0.688,0.735,0.177,0.404,0.347: // measure 1
0101
0000
0100
0000
0100
0001
0010
0100
,  // measure 2
1000
1000
0010
0010
,  // measure 3
0100
0000
0100
0000
0001
0010
0100
1000
,  // measure 4
0001
0001
0100
0100
,  // measure 5
1010
0000
0010
0000
0010
1000
0100
0010
,  // measure 6
0001
0001
1000
1000
,  // measure 7
0001
0100
1000
0100
0001
1000
0100
1000
,  // measure 8
0001
1000
0001
1000
0001
1000
0010
0100
0010
0100
0010
0100
0001
0100
0001
0100
,  // measure 9
0002
0000
0000
1003
0100
0010
0001
1000
,  // measure 10
1020
0100
1000
0130
,  // measure 11
1002
0000
0000
0013
0100
1000
0001
0100
,  // measure 12
0001
1000
0200
0000
1000
0000
0000
0000
1000
0000
0000
0000
0010
0000
0000
0000
,  // measure 13
0010
0000
0310
0001
0010
0100
1000
0001
,  // measure 14
0200
0000
0010
0000
0001
0000
0310
1000
,  // measure 15
0002
0000
0000
0000
0000
0000
1003
0100
0010
0000
0000
0000
0011
0000
0000
0000
,  // measure 16
0001
1000
0001
1000
0001
0000
0000
0000
1000
0001
1000
0001
1000
0000
0000
0000
,  // measure 17
0001
0100
0001
0000
1000
0010
1000
0000
0001
0000
0100
0000
1000
0000
0100
0000
,  // measure 18
0002
1000
0010
1003
,  // measure 19
2001
0000
0000
3001
0100
1000
0100
0001
,  // measure 20
0010
0100
2000
0000
0100
0000
0000
0000
0100
0000
0000
0000
0001
0000
0000
0000
,  // measure 21
0001
0000
3001
1000
0001
0100
1000
0100
,  // measure 22
0002
0000
1000
0000
0100
0000
1003
0001
,  // measure 23
0020
0100
0130
1001
,  // measure 24
1000
0100
1000
0100
1000
0000
0000
0000
0001
0010
0001
0010
0001
0000
0000
0000
,  // measure 25
1000
0001
1000
0000
0001
1000
0001
0000
1000
0000
0100
0000
0010
0100
0010
0000
,  // measure 26
1001
0000
0001
0000
1000
0100
0001
0000
,  // measure 27
0100
0000
1000
0010
0100
0002
1000
0000
,  // measure 28
1000
0000
1003
0001
0020
0000
0031
0100
,  // measure 29
0010
0100
0001
0000
1000
0010
0001
0000
,  // measure 30
0010
0000
1010
0000
1001
0000
0001
0100
,  // measure 31
1000
0000
0100
0000
0001
0000
0010
0000
0100
0000
0000
0000
1000
0010
1000
0010
,  // measure 32
1000
0000
0000
0000
0001
0010
0001
0010
0001
0000
0000
0000
1000
0001
1000
0000
,  // measure 33
0001
1000
0001
0000
0100
0000
0010
0000
1000
0010
1000
0000
0002
0000
0000
0000
,  // measure 34
1000
0000
0100
0000
1003
0001
0010
0000
,  // measure 35
0110
0000
0100
1000
0001
0200
0001
0000
,  // measure 36
0001
0000
0301
0010
1000
0010
0002
0000
,  // measure 37
1000
0000
0100
0000
1003
0100
0001
0000
,  // measure 38
0100
0000
1100
0000
1001
0000
0001
0100
,  // measure 39
1000
0000
0100
0000
0001
0000
0000
0000
1001
0000
0000
0000
0001
0010
0001
0010
,  // measure 40
0001
0000
0000
0000
1000
0100
1000
0100
1000
0000
0000
0000
0001
1000
0001
0000
,  // measure 41
1000
0001
1000
0000
0100
0010
0100
0000
0010
0001
0010
0000
2002
0000
0000
0000
,  // measure 42
0000
0000
0000
0000
0000
0000
0000
0000
0000
0000
0000
3003
1010
0000
0010
0000
,  // measure 43
0110
0000
0000
0000
0011
0000
0010
0100
1000
0000
0001
0000
0101
0000
0100
0000
,  // measure 44
0100
0000
0001
1000
0000
0100
1000
0000
0200
0000
0310
0001
0200
0000
0000
0320
,  // measure 45
0000
0000
2030
0000
3002
0000
0000
0023
0000
0000
0230
0000
2300
0000
3020
0000
,  // measure 46
2030
0000
3001
0010
0000
0100
0010
0000
0002
0000
1003
0000
0200
0000
0000
0320
,  // measure 47
0000
0000
0032
0000
2003
0000
0000
3200
0000
0000
0320
0000
0032
0000
2003
0000
,  // measure 48
3002
0000
0103
0010
0000
1000
0100
0000
0020
0000
0230
0000
2300
0000
0010
0000
,  // measure 49
0010
0000
3002
0100
0100
0000
2003
0100
,  // measure 50
3200
0000
0010
0000
0320
0000
0000
0000
0000
0000
0000
0031
0010
0100
1000
0010
,  // measure 51
0110
0000
0100
0000
0100
0001
1000
0100
,  // measure 52
0010
0000
0010
0000
0010
0001
0100
0010
,  // measure 53
1000
0000
0000
1000
0001
0000
0010
0000
0100
0000
0000
0100
1000
0000
0001
0000
,  // measure 54
0100
0000
0100
0000
0100
0010
1000
0100
,  // measure 55
0001
0000
0100
0000
1000
0010
0001
0000
,  // measure 56
0010
0000
1000
0000
0001
0000
0000
0000
1000
0010
0100
0010
1000
0000
0001
0000
,  // measure 57
0010
0000
0010
0000
0010
0001
0100
0010
,  // measure 58
1000
0000
0000
0000
1000
0000
0001
0000
0010
0000
0100
0000
1000
0000
0001
0100
,  // measure 59
0020
0000
0000
0000
1030
0000
0001
0010
0200
0000
0000
0000
1300
0000
0001
0100
,  // measure 60
0020
0000
0000
0000
0100
0000
0000
0000
0100
0000
0000
0000
0130
0001
0100
0001
,  // measure 61
2000
0000
0000
3020
0000
0000
0130
0000
0002
0000
0000
0203
0000
0000
0301
0000
,  // measure 62
2000
0000
0010
0000
0010
0000
3010
0100
,  // measure 63
0002
0000
0013
0100
0000
0010
0100
1000
,  // measure 64
0010
0000
0000
0000
1001
0000
0000
0000
0001
0100
0001
0100
0010
0000
1000
0000
,  // measure 65
0100
0000
0010
0000
0001
0000
0000
0000
1001
0000
0000
1100
0000
0000
0010
0001
,  // measure 66
1000
0000
0100
0000
0010
0000
0001
0000
1000
0010
1000
0010
1000
0010
1000
0010
,  // measure 67
1000
0000
0001
0000
0010
0000
0100
0000
0010
0000
0001
0100
0000
0001
1000
0000
,  // measure 68
0100
0000
0001
0000
0100
0000
1000
0000
0001
0000
0010
0001
0000
1000
0010
0000
,  // measure 69
0100
0000
0001
0000
0010
0000
0100
0000
0010
0000
0001
0100
0000
0001
1000
0000
,  // measure 70
0010
0000
0001
0000
0010
0000
1000
0000
0001
0100
0001
0000
1000
0100
1000
0000
,  // measure 71
0001
0010
0100
0010
0002
0100
0103
0000
,  // measure 72
0010
1000
0100
0010
0002
0100
0103
0000
,  // measure 73
0001
0000
0100
0000
1000
0000
0100
0000
0001
1000
0001
0000
1000
0100
1000
0000
,  // measure 74
0001
0000
0010
0000
0100
0000
1000
0000
0001
0100
0001
0000
1000
0100
1000
0000
,  // measure 75
1001
0001
1000
0010
0001
0010
1000
0100
,  // measure 76
0001
0100
1000
0001
0010
0100
1000
0010
,  // measure 77
1000
0100
0001
0100
1000
0010
0001
0010
,  // measure 78
1000
0001
0010
0100
0010
0001
0100
0000
,  // measure 79
0010
0100
0010
0000
0100
0001
0100
0000
0001
1000
0001
1000
0001
0100
0010
0000
,  // measure 80
0100
0000
1001
0000
0001
0010
0100
1000
,  // measure 81
0001
0100
1000
0100
0010
1000
0001
0010
,  // measure 82
0001
1000
0001
1000
0001
1000
0100
1000
0100
1000
0100
1000
0010
0100
0010
0100
,  // measure 83
0020
0000
0000
0000
,  // measure 84
0030
0000
0000
0000
;

//---------------dance-single - ----------------
#NOTES:
     dance-single:
     :
     Beginner:
     2:
     0.087,0.116,0.043,0.000,0.000:
1000
0000
0000
0000
,
1000
0000
0000
0000
,
0001
0000
0000
0000
,
0001
0000
0000
0000
,
0010
0000
0000
0000
,
0010
0000
0000
0000
,
0100
0000
0000
0000
,
0100
0000
0000
0000
,
1001
0000
0000
0000
,
1000
0000
0000
0000
,
0100
0000
0000
0000
,
1000
0000
0000
0000
,
0000
0000
0000
0000
,
0010
0000
0000
0000
,
0100
0000
0000
0000
,
0010
0000
0000
0000
,
0000
0000
0000
0000
,
0100
0000
0000
0000
,
0001
0000
0000
0000
,
0100
0000
0000
0000
,
0000
0000
0000
0000
,
0001
0000
0000
0000
,
1000
0000
0000
0000
,
0001
0000
0000
0000
,
0010
0000
0000
0000
,
0100
0000
0000
1000
,
0000
0000
0000
0010
,
0000
0000
0000
0100
,
0000
0000
0000
0010
,
0000
0000
0000
1000
,
0000
0000
0000
0001
,
0000
0000
0000
0001
,
0000
0000
0000
1000
,
0000
0000
0000
0100
,
0000
0000
0000
0010
,
0000
0000
0000
0100
,
0000
0000
0000
0010
,
0000
0000
0000
0001
,
0000
0000
0000
1000
,
0000
1000
0000
0001
,
0000
0001
0000
1001
,
0000
0000
0000
1000
,
0000
0000
0000
0010
,
0000
0000
0000
0100
,
0000
0000
0000
0001
,
0000
0000
0000
1000
,
0000
0000
0000
0100
,
0000
0000
0000
0010
,
0000
0000
0000
0100
,
0000
1000
0000
0000
,
1001
0000
0000
0000
,
0001
0000
0000
0000
,
0010
0000
0000
0000
,
0001
0000
0000
0000
,
1000
0000
0000
0000
,
0100
0000
0000
0000
,
1000
0000
0000
0000
,
0000
0000
0000
0000
,
0001
0000
0000
0000
,
1000
0000
0000
0000
,
0001
0000
0000
0000
,
0010
0000
0000
0000
,
0100
0000
0000
0000
,
0000
1001
0000
0000
,
0001
0000
0000
0000
,
0000
0000
0000
0000
,
1000
0000
0000
0000
,
0010
0000
0000
0000
,
0100
0000
0000
0000
,
0010
0000
0000
0000
,
1000
0000
0000
0000
,
0001
0000
0000
0000
,
1000
0000
0000
0000
,
0000
0000
0000
0000
,
0001
0000
0000
0000
,
0010
0000
0000
0000
,
0100
0000
0000
0000
,
0010
0000
0000
0000
,
0001
0000
0000
0000
,
0000
1001
0000
0000
,
1000
0000
0000
0000
,
0010
0000
0000
0000
,
1001
0000
0000
0000
;
