#TITLE:Beat of getting entangled;
#SUBTITLE:;
#ARTIST:Shoichiro Hirata;
#TITLETRANSLIT:;
#SUBTITLETRANSLIT:;
#ARTISTTRANSLIT:;
#CREDIT:DigiMindAxel;
#BANNER:Beat of getting entangled.png;
#BACKGROUND:Beat of getting entangled-bg.png;
#LYRICSPATH:;
#CDTITLE:maimai.png;
#MUSIC:Beat of getting entangled.ogg;
#METERTYPE:DDR X;
#OFFSET:-0.761;
#SAMPLESTART:17.877;
#SAMPLELENGTH:12.000;
#SELECTABLE:YES;
#BPMS:0.000=140.000,174.000=70.000,190.000=140.000;
#STOPS:36.000=0.8571428
;
#BGCHANGES:-4.000=Beat of getting entangled.avi=1.000=1=1=0,
99999=-nosongbg-=1.000=0=0=0 // don't automatically add -songbackground-
;

//---------------dance-single - ----------------
#NOTES:
     dance-single:
     :
     Easy:
     4:
     0.181,0.293,0.025,0.279,0.000:
0000
0000
0000
0000
,
0000
0000
0000
0000
,
0000
0000
0000
0000
,
0000
0000
0000
0000
,
0000
0000
0000
0000
,
2000
0000
0000
0000
,
3200
0000
0000
0000
,
0320
0000
0000
0000
,
0032
0000
0000
0000
,
0003
0000
1001
0000
,
1000
0000
0001
0000
,
1000
0000
0001
0000
,
0100
0000
0001
0000
,
0100
0000
0010
0000
,
0100
0000
0010
0000
,
0100
0000
0010
0000
,
1000
0000
0002
0000
,
0000
0000
1003
0000
,
0100
0000
0010
0000
,
0100
0000
1000
0000
,
0001
0000
0200
0000
,
0000
0000
0310
0000
,
0100
0000
0001
0000
,
0100
0000
0010
0000
,
1000
0000
0002
0000
,
0000
0000
2000
0000
,
0000
3003
2000
0000
,
3100
0000
0010
0000
,
0001
0000
2000
0000
,
3010
0000
0100
0000
,
0001
0000
0020
0000
,
0130
0000
1000
0000
,
0001
0000
0200
0000
,
0310
0000
1000
0000
,
0001
0000
0020
0000
,
0031
0000
0200
0000
,
0310
0000
2000
0000
,
3100
0000
0020
0000
,
0031
0000
0200
0000
,
0310
0000
2000
0000
,
3100
0000
0020
0000
,
0001
0000
0001
0000
,
0001
0000
0031
0000
,
0000
0000
1002
1003
,
0200
0000
2300
3001
,
0200
0000
0320
1030
,
0002
0023
0032
0103
,
0020
0000
0130
0000
,
0001
0000
1000
0000
,
0100
0000
0010
0000
,
0001
0000
1000
0000
,
0010
0000
0100
0000
,
0010
0000
1000
0000
,
0001
0000
0010
0000
,
0001
0000
2000
0000
,
0000
0000
3001
0000
,
0010
0001
0010
0000
,
0100
1000
0100
0000
,
0010
0001
0020
0000
,
0000
0000
0130
0000
,
1000
0010
1000
0000
,
0001
0100
0001
0000
,
1000
0010
2000
0000
,
0000
0000
0002
0000
,
0000
0000
3003
0000
2002
0000
0000
3003
;

//---------------dance-single - ----------------
#NOTES:
     dance-single:
     :
     Medium:
     8:
     0.345,0.533,0.107,0.263,0.078:
0000
0000
0000
0000
,
0000
0000
0000
0000
,
0000
0000
0000
0000
,
0000
0000
0000
0000
,
0000
0000
0000
0000
,
1001
0000
0000
1000
0000
0000
0001
0000
,
0101
0000
0000
0100
0000
0000
0001
0000
,
1001
0000
0000
1000
0000
0000
0100
0000
,
0110
0000
0000
0010
0000
0000
0001
0000
,
0000
0000
1000
0000
1001
0000
0000
0001
,
0010
0000
0000
0001
0010
0000
0000
0100
,
0010
0000
0000
0100
0010
0000
0000
0100
,
1000
0000
0000
0100
1000
0000
0000
0001
,
1000
0000
0000
0000
1001
0000
0000
0001
,
0100
0000
0000
0001
0100
0000
0000
0001
,
1000
0000
0000
0001
1000
0000
0000
0100
,
0010
0000
0000
0100
0020
0000
0000
0032
,
0000
0000
0000
0000
1003
0000
0001
1000
,
0100
0000
1000
0001
0100
0000
0001
1000
,
0100
0000
1000
0001
0100
0000
0001
0010
,
0100
0000
0010
0001
0200
0000
0320
0000
,
2030
0000
3001
0000
1001
0000
0000
1000
,
0010
0000
0000
1000
0001
0000
0000
1000
,
0010
0000
0000
1000
0001
0000
0000
0010
,
0100
0000
0000
0010
0002
0000
0000
2000
,
0000
0000
0000
0000
,
0000
0000
0000
0000
3003
0000
0000
0000
1000
0000
0000
0100
0000
0000
2000
0000
,
0000
0100
0000
0100
,
0000
0000
0000
0000
3100
0000
0000
0000
0010
0000
0000
0001
0000
0000
0200
0000
,
0000
0010
0000
0010
,
0000
0000
0000
0000
0310
0000
0000
0000
1000
0000
0000
0001
0000
0000
2000
0000
,
0000
0010
0000
0010
,
0000
0000
0000
0000
0010
3000
0000
0000
0100
0000
0000
0001
0000
0000
2000
0000
,
0000
0100
0000
0100
,
0000
0000
0000
0000
3100
0000
0000
0000
0010
0000
0000
0010
0000
0000
0010
0001
,
0000
0000
0000
0000
0000
0000
0000
0000
0001
0000
0000
0100
0000
0000
0010
0000
,
0000
0100
0000
0000
0001
0000
0000
0000
1000
0000
0000
0100
0000
0000
0010
0000
,
0000
0000
0000
0000
0000
0000
0000
0000
0001
0000
0000
1000
0000
0000
0010
0000
,
0000
1000
0000
0000
0001
0000
0000
0000
0010
0000
0000
0100
0000
0000
1000
0000
,
0000
0000
0000
0000
0000
0000
0000
0000
0001
0000
0000
0100
0000
0000
0010
0000
,
0000
0100
0000
0000
0001
0000
0000
0000
1000
0000
0000
0100
0000
0000
0020
0000
,
0000
0000
0031
0100
,
0010
1000
0200
0000
,
0000
0000
1300
0000
1002
0000
0010
0013
,
0100
1000
0001
0000
2000
0000
0000
0000
3002
0000
0000
0000
0010
0000
0013
0000
,
0100
0000
1000
0000
0010
0000
0200
0000
0000
0000
0000
0000
0302
0000
0000
0000
0000
0000
1000
0000
0000
1003
0000
0000
,
0001
0100
0010
0000
2000
0000
0000
0000
3200
0000
0000
0000
0010
0000
0310
0000
,
0002
0203
0020
0330
1001
0000
1000
0010
,
0100
0000
0010
0100
0001
0000
1000
0010
,
0100
0000
0010
0100
0001
0000
1000
0100
,
0010
0000
0100
0010
0001
0000
1000
0100
,
0010
0000
0001
0000
1001
0000
1000
0001
,
0100
0000
0001
1000
0100
0000
1000
0001
,
0010
0000
0001
1000
0010
0000
0100
0001
,
1000
0000
0100
1000
0002
0000
0000
0020
,
0000
0000
0033
0000
1001
0000
0001
0010
,
0100
0000
0010
0100
1000
0000
0001
0010
,
0100
0000
0010
0100
1000
0000
0001
0100
,
0010
0000
0100
0010
2000
0000
3002
0000
,
0200
0000
0303
0000
1001
0000
1000
0001
,
0010
0000
0100
1000
0001
0000
1000
0001
,
0100
0000
0010
1000
0001
0000
0010
0100
,
1000
0001
0010
0100
2000
0000
0000
0020
,
0000
0000
0000
0000
,
0000
0000
3030
0000
2002
0000
0000
3003
;

//---------------dance-single - ----------------
#NOTES:
     dance-single:
     :
     Hard:
     12:
     0.517,0.880,0.312,0.279,0.756: // measure 1
0000
0000
0000
0000
,  // measure 2
0000
0000
0000
0000
,  // measure 3
0000
0000
0000
0000
,  // measure 4
0000
0000
0000
0000
,  // measure 5
0000
0000
0000
0000
,  // measure 6
1000
0000
0000
0100
0000
0000
0001
0000
0000
0100
0000
0000
1000
0000
1000
0000
,  // measure 7
0001
0000
0000
0010
0000
0000
1000
0000
0000
0010
0000
0000
0001
0000
0001
0000
,  // measure 8
1000
0000
0000
0010
0000
0000
0001
0000
0000
0010
0000
0000
1000
0000
1000
0000
,  // measure 9
0001
0000
0000
0100
0000
0000
1000
0000
0000
0100
0000
0000
0001
0000
1000
0000
,  // measure 10
0000
0000
0000
0000
0110
0000
0000
0000
1001
0000
1000
0000
0000
0010
0000
0100
,  // measure 11
0000
0000
0000
0000
0000
0001
0000
1000
0000
0000
0000
0000
0000
0100
0000
0010
,  // measure 12
0000
0000
0000
0000
0000
0001
0000
0100
0000
0000
0000
0000
0000
0001
0000
1000
,  // measure 13
0000
0000
0000
0000
0000
0100
0000
1000
0000
0000
0000
0000
0000
0010
0000
0100
,  // measure 14
0000
0000
0002
0000
2000
0000
3003
0000
1001
0000
0001
0000
0000
0010
0000
0100
,  // measure 15
0000
0000
0000
0000
0000
0010
0000
0001
0000
0000
0000
0000
0000
0100
0000
0010
,  // measure 16
0000
0000
0000
0000
0000
1000
0000
0001
0000
0000
0000
0000
0000
0010
0000
0100
,  // measure 17
0000
0000
0000
0000
1000
0000
0010
0000
0200
0000
0000
0302
0000
0000
2000
0000
,  // measure 18
0000
0000
0000
0000
3003
0000
0000
0000
1001
0000
0000
0000
1000
0001
0000
0100
,  // measure 19
0000
0001
0000
0000
1000
0010
0000
0100
0000
0010
0000
0000
1000
0001
0000
0010
,  // measure 20
0000
0001
0000
0000
0100
0010
0000
1000
0000
0000
0000
0000
0001
1000
0000
0100
,  // measure 21
0000
0000
0000
1000
0000
0000
0000
0000
0000
0000
0000
0000
0010
0000
0000
0100
0000
0000
0000
0000
0000
0001
0000
0000
1000
0000
0000
0000
0100
0000
0000
0000
0010
0000
0000
0000
0200
0000
0000
0000
0000
0000
0000
0000
0000
0000
0000
0000
,  // measure 22
1000
0000
0000
0000
1300
0000
0000
0000
1001
0000
0000
0000
0001
0100
0000
0010
,  // measure 23
0000
0100
0000
0000
0001
1000
0000
0100
0000
1000
0000
0000
0100
0010
0000
0001
,  // measure 24
0000
0010
0000
0000
0100
1000
0000
0010
0000
0000
0000
0000
1000
0001
0000
0010
,  // measure 25
0000
0100
0000
0000
1000
0000
0000
0001
0020
0000
0000
0230
0000
0000
2000
0000
,  // measure 26
0000
0000
0000
0000
,  // measure 27
0000
0000
0000
0000
3300
0000
0000
0000
1100
0000
0000
0011
0000
0000
1001
0000
,  // measure 28
0000
0000
0000
0000
1000
0000
0000
0001
0000
0000
1000
0000
1000
0000
0000
0010
,  // measure 29
0000
0100
0000
0000
0010
0000
0000
0000
1010
0000
0000
0101
0000
0000
1001
0000
,  // measure 30
0000
0000
0000
0000
0001
0000
0000
1000
0000
0000
0100
0000
0100
0000
0000
1000
,  // measure 31
0000
0000
0001
0000
0010
0000
0010
0000
0011
0000
0000
1100
0000
0000
1001
0000
,  // measure 32
0000
0000
0000
0000
1000
0000
0000
0001
0000
0000
0010
0000
0100
0000
0000
1000
,  // measure 33
0000
0001
0000
0000
1000
0000
0000
0000
1100
0000
0000
0011
0000
0000
1001
0000
,  // measure 34
0000
0000
0000
0000
0001
0000
0000
0100
0000
0000
0001
0000
1000
0000
0000
0100
,  // measure 35
0000
0000
0010
0000
0001
0000
0001
0000
0101
0000
0000
0101
0000
0000
0101
0000
,  // measure 36
0000
0100
0000
0000
0010
0000
1000
0000
0001
0000
0000
0001
0000
0000
0100
0000
,  // measure 37
0000
0100
0000
0000
0010
0000
1000
0000
1100
0000
0000
1100
0000
0000
1100
0000
,  // measure 38
0000
0010
0000
0000
0001
0000
0100
0000
0010
0000
0000
1000
0000
0000
0100
0000
,  // measure 39
0000
1000
0000
0000
0010
0000
0100
0000
0101
0000
0000
0101
0000
0000
0101
0000
,  // measure 40
0000
0010
0000
0000
1000
0000
0100
0000
0010
0000
0000
0001
0000
0000
1000
0000
,  // measure 41
0000
0001
0000
0000
0010
0000
0100
0000
1100
0000
0000
1100
0000
0000
1100
0000
,  // measure 42
0000
0010
0000
0000
0001
0000
1000
0000
0010
0000
0000
0100
0000
0000
0001
0000
,  // measure 43
0000
1000
0000
0000
0100
0000
0010
0000
0002
0000
0000
0000
0000
0000
0000
0000
,  // measure 44
0000
0000
0000
0000
0000
0000
0000
0000
0000
0000
0000
0000
0103
0000
0000
0000
0000
0000
0000
0000
0000
0000
0000
0000
2001
0000
0000
0000
0000
0000
0000
0000
0000
3100
0000
0000
1000
0000
0010
0000
0100
0000
0020
0000
0000
0000
0000
0000
,  // measure 45
2030
0000
3001
0010
0200
0000
1300
0000
1002
0000
0000
0013
0200
1000
1300
0000
,  // measure 46
0001
0000
0010
0000
0001
0000
0100
0000
0010
0000
1000
0000
0200
0000
0000
0000
0000
0000
2300
0000
0000
0000
0000
0000
3020
0000
0000
0000
0000
0000
0000
0000
0000
0130
0000
0000
0001
0000
0010
0000
0100
0000
0010
0000
0000
0000
0000
0000
,  // measure 47
0002
0000
0000
0100
0000
0000
0203
0000
0000
0000
0000
0000
0310
0000
0000
0000
0010
0000
0000
0000
0010
0000
0000
0000
2001
0000
0000
0000
0000
0000
0000
0000
0000
3100
0000
0000
1001
0000
0000
0000
0000
0000
1001
0000
0000
0000
0000
0000
,  // measure 48
0001
0000
0010
0000
0001
0000
0010
0000
0000
0000
0001
0000
2000
0000
0000
0000
0000
0000
0000
0000
0000
0000
0000
0000
3001
0000
0000
0000
0000
0000
1000
0000
0000
0000
0000
0000
0001
0000
0000
0100
0000
0000
0000
0000
0000
0010
0000
0000
,  // measure 49
0000
0100
0000
0000
0001
1000
0000
0100
0000
1000
0000
0000
0010
0100
0000
0001
,  // measure 50
0000
0100
0000
0000
0001
1000
0000
0100
0000
0000
0000
0000
0010
0001
0000
1000
,  // measure 51
0000
0010
0000
0000
1000
0001
0000
0010
0000
0100
0000
0000
0010
0001
0000
0100
,  // measure 52
0000
0000
0002
0000
2000
0000
3003
0000
1001
0000
1000
0000
0010
0100
0000
0001
,  // measure 53
0000
0010
0000
0000
0100
1000
0000
0001
0000
0100
0000
0000
0001
1000
0000
0100
,  // measure 54
0000
0010
0000
0000
0001
1000
0000
0010
0000
0000
0000
0000
0100
0001
0000
1000
,  // measure 55
0000
0100
0000
0000
0010
0000
0000
0001
2000
0000
0000
3200
0000
0000
0020
0000
,  // measure 56
0000
0000
0000
0000
0330
0000
0000
0000
1001
0000
0001
0000
0100
0010
0000
1000
,  // measure 57
0000
0100
0000
0000
0010
0001
0000
0100
0000
0010
0000
0000
0100
0001
0000
0010
,  // measure 58
0000
0100
0000
0000
0010
0001
0000
1000
0000
0000
0000
0000
0001
1000
0000
0010
,  // measure 59
0000
0000
0000
0100
0000
0000
0000
0000
0000
0000
0000
0000
0001
0000
0000
0000
0000
0000
0000
0000
0000
1000
0000
0000
0010
0000
0000
0000
0100
0000
0000
0000
0010
0000
0000
0000
0200
0000
0000
0000
0000
0000
0000
0000
0000
0000
0000
0000
,  // measure 60
0001
0000
0000
0000
0000
0000
0000
0000
0001
0000
0000
0000
0000
0000
0000
0000
0301
0000
0000
0000
0000
0000
0000
0000
1001
0000
0000
0000
0000
0000
1000
0000
0000
0000
0000
0000
0010
0000
0000
0100
0000
0000
0000
0000
0000
0001
0000
0000
,  // measure 61
0000
1000
0000
0000
0100
0010
0000
0001
0000
1000
0000
0000
0010
0100
0000
0001
,  // measure 62
0000
0010
0000
0000
0001
1000
0000
0100
0000
0000
0000
0000
0010
0000
0000
0001
,  // measure 63
0100
0000
0010
0000
1000
0000
0100
0000
0020
0000
0000
0032
0000
0000
2003
0000
,  // measure 64
0000
0000
0001
0001
,  // measure 65
0001
0000
0000
0000
3000
0000
0000
0000
0000
0000
0000
0000
0220
0000
0000
0000
0000
0000
0000
0000
0000
0330
0000
0000
;

//---------------dance-single - ----------------
#NOTES:
     dance-single:
     :
     Challenge:
     14:
     0.753,1.000,0.731,0.625,0.945: // measure 1
0000
0000
0000
0000
,  // measure 2
0000
0000
0000
0000
,  // measure 3
0000
0000
0000
0000
,  // measure 4
0000
0000
0000
0000
,  // measure 5
0000
0000
0000
0000
,  // measure 6
0011
0000
0000
0110
0000
0000
1100
0000
0000
0110
0000
0000
0011
0000
0001
0000
,  // measure 7
0101
0000
0000
0110
0000
0000
1010
0000
0000
0110
0000
0000
0101
0000
0001
0000
,  // measure 8
1001
0000
0000
1100
0000
0000
0110
0000
0000
0011
0000
0000
1001
0000
1000
0000
,  // measure 9
1001
0000
0000
0101
0000
0000
0110
0000
0000
1010
0000
0000
1001
0000
1000
0000
,  // measure 10
0000
0000
0000
0000
0011
0000
0000
0000
1001
0000
1000
0000
0001
0100
0000
0001
,  // measure 11
0000
1000
0000
0000
0000
0100
0000
0010
0000
0001
0100
0000
0000
0001
0000
1000
,  // measure 12
0000
0100
0000
1000
0001
0000
0000
2002
0000
0000
0000
3003
0000
0001
0000
1000
,  // measure 13
0000
0100
0000
0000
0000
0010
0000
0100
0000
1000
0001
0000
0000
1000
0000
0001
,  // measure 14
0000
0010
0000
0001
1000
0000
0000
0000
1001
0000
0001
0000
0100
0001
0000
0010
,  // measure 15
0000
0100
0000
0000
0000
0010
0000
0001
0000
1000
0010
0000
0000
1000
0000
0001
,  // measure 16
0000
0100
0000
0001
1000
0000
0000
2002
0000
0000
0000
3003
0000
1000
0000
0001
,  // measure 17
0000
0010
0000
0000
0100
0000
0100
0000
1100
0000
0000
0110
0000
0000
0022
0000
,  // measure 18
0000
0000
0000
0000
0000
0000
0033
0000
0001
0000
1000
0010
0000
0010
0100
0000
,  // measure 19
0001
0000
1000
0100
0000
0100
0010
0000
0001
0000
0100
0010
0000
0010
1000
0000
,  // measure 20
0001
0000
0010
0100
0000
0100
1000
0000
0010
0000
0100
0001
0000
0001
1000
0000
,  // measure 21
0100
0000
0000
0000
0000
0000
0010
0000
0000
0100
0000
0000
0000
0000
0000
0100
0000
0000
1000
0000
0000
0000
0000
0000
0020
0000
0000
0000
2030
0000
0000
0000
3020
0000
0000
0000
0230
0000
0000
0000
0000
0000
0000
0000
0000
0000
0000
0000
,  // measure 22
0302
0000
0000
0000
1003
0000
0000
0000
1001
0000
0001
0100
0000
0100
0010
0000
,  // measure 23
0100
0000
0001
1000
0000
1000
0100
0000
0010
0000
0001
0010
0000
0010
0100
0000
,  // measure 24
0010
0000
0001
1000
0000
1000
0010
0000
0100
0000
0001
0010
0000
0010
0100
0000
,  // measure 25
1000
0010
1000
0010
0100
0001
0100
0001
1000
0000
0000
1001
0000
0000
1020
0000
,  // measure 26
0000
0000
0000
0000
0000
0000
0130
0010
0100
0010
0100
0010
,  // measure 27
0100
0000
0000
0000
0010
0000
0000
0000
0100
0000
0000
0000
0220
0000
0000
0000
0000
0000
0330
0000
0000
0000
0000
0000
1001
0000
0000
0000
0000
0000
0000
0000
0000
1000
0000
0000
0010
0000
0000
0000
0000
0000
0110
0000
0000
0000
0000
0000
,  // measure 28
0000
0010
0000
0000
0100
0001
0000
1000
0000
0000
0001
0000
1001
0000
0000
1000
,  // measure 29
0000
0100
0000
0000
1100
0000
0000
0000
1001
0000
0000
0001
0100
0000
0000
0001
,  // measure 30
0000
1000
0000
0000
1001
0000
0000
1001
0000
0000
0001
0000
0011
0000
0000
0100
,  // measure 31
0000
1000
0010
0000
0100
0000
0100
0000
0110
0000
0000
0100
0001
0000
1001
0000
,  // measure 32
0000
1000
0000
0000
0001
0010
0000
0100
0000
0000
1000
0000
1010
0000
0000
0010
,  // measure 33
0000
0100
0000
0000
0110
0000
0000
0000
1001
0000
0000
0001
0010
0000
0000
0001
,  // measure 34
0000
1000
0000
0000
1001
0000
0000
1001
0000
0000
0001
0000
0101
0000
0000
0100
,  // measure 35
0000
0000
0010
0000
1000
0000
1000
0000
2200
0000
3300
0022
0000
0033
1002
0000
,  // measure 36
0000
1000
0000
0000
1000
0000
1000
0000
1000
0000
0000
0100
0000
0000
0100
0000
,  // measure 37
0000
0100
0000
0000
0100
0000
0103
0000
0202
0000
0303
2020
0000
3030
2001
0000
,  // measure 38
0000
0001
0000
0000
0001
0000
0001
0000
0001
0000
0000
0100
0000
0000
0100
0000
,  // measure 39
0000
0100
0000
0000
0100
0000
3100
0000
2200
0000
3300
0022
0000
0033
0001
1000
,  // measure 40
0000
0001
1000
0000
0010
0000
0010
0000
0010
0000
0100
0001
0000
0100
0001
0000
,  // measure 41
1000
0100
0000
1000
0100
0000
0100
0000
2200
0000
3300
0022
0000
0033
0001
0000
,  // measure 42
1000
0001
0000
1000
0001
0000
0100
0001
0000
0100
0001
0000
0010
0100
0000
0010
,  // measure 43
0100
0000
0000
0000
0000
0000
1000
0000
0000
0010
0000
0000
0000
0000
0000
1000
0000
0000
0010
0000
0000
0000
0000
0000
0100
0000
0000
0001
0000
0000
0010
0000
0000
0100
0000
0000
1000
0000
0000
0000
0001
0000
0000
0000
0010
0000
0000
0000
,  // measure 44
0100
0000
0000
0000
1000
0000
0000
0000
0001
0000
0000
0000
0200
0000
0000
0000
0000
0000
0300
0000
0000
0000
0000
0000
2002
0000
0000
0000
0000
0000
3003
0000
0000
1100
0000
0000
0100
0000
1000
0000
0010
0000
0220
0000
0000
0330
0000
0000
,  // measure 45
0201
0000
0310
1000
2002
3003
2002
3003
0022
0000
0033
1001
0001
1000
0020
0230
,  // measure 46
0301
0000
0100
0000
1000
0000
0001
0000
0010
0000
1000
0000
0002
0000
0000
0000
0000
0000
0200
0000
0000
0303
0000
0000
2002
0000
0000
0000
0000
0000
3003
0000
0000
0101
0000
0000
0100
0000
0001
0000
1000
0000
2200
0000
0000
3300
0000
0000
,  // measure 47
2000
0000
0000
0010
0000
0000
3020
0000
0000
0000
0000
0000
0130
0000
0000
0000
0101
0000
0000
0000
1010
0000
0000
0000
2002
0000
0000
0000
0000
0000
3003
0000
0000
1010
0000
0000
0220
0000
0000
0330
0000
0000
0220
0000
0000
0330
0000
0000
,  // measure 48
0100
0000
0001
0000
1000
0000
0200
0000
0000
0000
1300
0000
0020
0000
0000
0000
0000
0000
0000
0000
0000
0030
0000
0000
1001
0000
0000
0000
0000
0000
0001
0000
0000
0000
0000
0000
0100
0000
0000
0010
0000
0000
0000
0000
0000
1000
0000
0000
,  // measure 49
0000
0100
0000
0000
0010
0100
0000
1000
0000
0001
0100
0000
0001
1000
0000
0010
,  // measure 50
0000
1000
0000
0001
0010
0000
0000
2002
0000
0000
3003
0000
1000
0001
0000
0010
,  // measure 51
0000
0100
0000
0000
0010
0001
0000
0100
0000
0001
0010
0000
0100
1000
0000
0001
,  // measure 52
0000
1000
0000
0100
1000
0000
0000
0000
1001
0000
0001
0000
0100
0001
0000
0010
,  // measure 53
0000
0100
0000
0000
0010
0001
0000
1000
0000
0010
0100
0000
0001
1000
0000
0100
,  // measure 54
0000
1000
0000
0001
0100
0000
0000
2002
0000
0000
3003
0000
1000
0001
0000
0100
,  // measure 55
0000
0010
0000
0000
0100
0001
0000
1000
0100
0000
0000
1100
0000
0000
2002
0000
,  // measure 56
0000
0000
0000
0000
0000
0000
3003
0000
1001
0000
1000
0100
0000
0100
0010
0000
,  // measure 57
0001
0000
0100
0010
0000
0010
1000
0000
0001
0000
0010
0001
0000
0001
1000
0000
,  // measure 58
0100
0000
0010
0100
0000
0100
1000
0000
0001
0000
1000
0100
0000
0100
0010
0000
,  // measure 59
0100
0000
0000
0000
0000
0000
1000
0000
0000
0010
0000
0000
0000
0000
0000
0010
0000
0000
0100
0000
0000
0000
0000
0000
0002
0000
0000
0000
2003
0000
0000
0000
3002
0000
0000
0000
0200
0000
0000
0000
0000
0000
0303
0000
0000
0000
0000
0000
,  // measure 60
0110
0000
0000
0000
0000
0000
0000
0000
0110
0000
0000
0000
0000
0000
0000
0000
1001
0000
0000
0000
0000
0000
0000
0000
1001
0000
0000
0000
0000
0000
1000
0000
0000
0100
0000
0000
0000
0000
0000
1000
0000
0000
0001
0000
0000
0000
0000
0000
,  // measure 61
0010
0000
0100
1000
0000
0001
1000
0000
0010
0000
0100
0001
0000
1000
0100
0000
,  // measure 62
0010
0100
0000
1000
0001
0000
0100
0001
0000
1000
0100
0000
0010
0001
0000
0100
,  // measure 63
0010
1000
0100
1000
0100
0010
0001
0010
0001
0000
0000
0011
0000
0000
2001
0000
,  // measure 64
0000
0000
0000
0000
0000
0000
3010
0100
0010
0100
0010
0100
,  // measure 65
0010
0000
0100
0000
0020
0000
0000
0000
0000
0030
0000
0000
2002
0000
0000
0000
0000
0000
0000
0000
0000
3003
0000
0000
;

//---------------dance-single - ----------------
#NOTES:
     dance-single:
     :
     Beginner:
     2:
     0.087,0.159,0.090,0.000,0.000:
0000
0000
0000
0000
,
0000
0000
0000
0000
,
0000
0000
0000
0000
,
0000
0000
0000
0000
,
0000
0000
0000
0000
,
1000
0000
0000
0000
,
0010
0000
0000
0000
,
0100
0000
0000
0000
,
0001
0000
0000
0000
,
0000
1000
0001
0000
,
0000
0000
0001
0000
,
0000
0000
0010
0000
,
0000
0000
0010
0000
,
0000
0000
0100
0000
,
0000
0000
0100
0000
,
0000
0000
1000
0000
,
0000
0000
1000
0000
,
0000
0000
0001
0000
,
0000
0000
0001
0000
,
0000
0000
0100
0000
,
0000
0000
0100
0000
,
0000
0000
0010
0000
,
0000
0000
0010
0000
,
0000
0000
1000
0000
,
0000
0000
1000
0000
,
0000
0000
0000
0000
,
0000
0000
1001
0000
,
0000
0000
1000
0000
,
0000
0000
1001
0000
,
0000
0000
0001
0000
,
0000
0000
1001
0000
,
0000
0000
1000
0000
,
0000
0000
1001
0000
,
0000
0000
0001
0000
,
0000
0000
1001
0000
,
0000
0000
1000
0000
,
0000
0000
0001
0000
,
0000
0000
0001
0000
,
0000
0000
1000
0000
,
0000
0000
1000
0000
,
0000
0000
0001
0000
,
0000
0000
0001
0000
,
0000
0000
1000
0000
,
0000
0000
1001
0000
,
0010
0000
0100
0000
,
0010
0000
1001
0000
,
0100
0000
0010
0000
,
0100
0000
1001
0000
,
0000
0000
1000
0000
,
0000
0000
0001
0000
,
0000
0000
0001
0000
,
0000
0000
0100
0000
,
0000
0000
0100
0000
,
0000
0000
0010
0000
,
0000
0000
0010
0000
,
0000
0000
1001
0000
,
0000
0000
1000
0000
,
0000
0000
0100
0000
,
0000
0000
0100
0000
,
0000
0000
1001
0000
,
0000
0000
0001
0000
,
0000
0000
0100
0000
,
0000
0000
0100
0000
,
0000
0000
0000
0000
,
0000
0000
1001
0000
;
