#TITLE:Backflow;
#SUBTITLE:;
#ARTIST:lapix;
#TITLETRANSLIT:;
#SUBTITLETRANSLIT:;
#ARTISTTRANSLIT:;
#CREDIT:DigiMindAxel;
#BANNER:Backflow.png;
#BACKGROUND:Backflow-bg.png;
#LYRICSPATH:;
#CDTITLE:SOUND VOLTEX.png;
#MUSIC:Backflow.ogg;
#METERTYPE:DDR X;
#OFFSET:-4.019;
#SAMPLESTART:90.079;
#SAMPLELENGTH:12.000;
#SELECTABLE:YES;
#DISPLAYBPM:145.000;
#BPMS:0.000=145.000,237.500=72.500,238.000=145.000;
#STOPS:54.000=0.413793
,235.000=0.1034482
,235.500=0.1034482
;
#BGCHANGES:;

//---------------dance-single - ----------------
#NOTES:
     dance-single:
     :
     Easy:
     5:
     0.268,0.287,0.166,0.323,0.000: // measure 1
1000
0001
1000
0001
,  // measure 2
0000
1001
1000
1000
,  // measure 3
0010
0100
0010
0100
,  // measure 4
0001
0100
0001
0000
,  // measure 5
1000
0100
1000
0100
,  // measure 6
0020
0000
0032
0000
,  // measure 7
1003
0010
1000
0001
,  // measure 8
1001
0000
1001
0000
,  // measure 9
0010
0100
0010
0100
,  // measure 10
0000
1001
0001
0001
,  // measure 11
1000
0100
1000
0001
,  // measure 12
0000
1001
0001
0001
,  // measure 13
0010
0001
0010
0001
,  // measure 14
0100
0000
0000
0000
0010
0000
0000
0000
0200
0300
0000
0000
0001
0000
0000
0000
,  // measure 15
0001
1000
1000
0010
,  // measure 16
0100
0010
0100
0001
,  // measure 17
2000
0000
3002
0000
,  // measure 18
2003
0000
0000
3200
,  // measure 19
0000
0000
0000
0000
,  // measure 20
0000
0000
0300
1000
,  // measure 21
0002
0000
2003
0000
,  // measure 22
3002
0000
0000
0023
,  // measure 23
0000
0000
0000
0000
,  // measure 24
0000
0000
0030
2002
,  // measure 25
0000
0000
3003
2002
,  // measure 26
0000
0000
3003
2002
,  // measure 27
0000
0000
3003
2002
,  // measure 28
0000
0000
3003
1001
,  // measure 29
0000
0010
0000
0100
,  // measure 30
0000
1000
0000
0001
,  // measure 31
1000
0001
1000
0002
,  // measure 32
0000
0000
0000
2003
,  // measure 33
0000
3100
0000
0100
,  // measure 34
0000
0110
0000
0020
,  // measure 35
0000
0031
0000
0001
,  // measure 36
0000
1001
0000
2000
,  // measure 37
0000
3100
0000
0100
,  // measure 38
0000
0110
0000
0020
,  // measure 39
0000
0032
0000
0203
,  // measure 40
0000
0320
0000
2030
,  // measure 41
0000
3001
0000
0001
,  // measure 42
0000
1001
0000
2000
,  // measure 43
0000
3010
0000
0010
,  // measure 44
0000
0110
0000
0200
,  // measure 45
0000
0301
0000
0001
,  // measure 46
0000
1001
0000
0020
,  // measure 47
0000
0000
0000
0230
,  // measure 48
0000
0000
0000
0310
,  // measure 49
0000
0000
0000
0010
,  // measure 50
0000
0000
0000
0100
,  // measure 51
0000
0000
0000
0100
,  // measure 52
0000
0000
0000
1001
,  // measure 53
1000
0001
1000
0100
,  // measure 54
0010
0100
0010
0001
,  // measure 55
1000
0100
1000
0001
,  // measure 56
0001
1000
0100
0010
,  // measure 57
0001
0100
0001
0010
,  // measure 58
0100
0010
0100
1000
,  // measure 59
0001
0001
1000
2002
,  // measure 60
0000
0000
0000
3003
0001
0000
1000
0000
,  // measure 61
0100
1000
0001
0100
,  // measure 62
0001
0100
0010
0100
,  // measure 63
0010
1000
0200
0000
,  // measure 64
0310
0000
1001
1000
,  // measure 65
0100
1000
0010
0100
,  // measure 66
0002
0000
1003
0001
,  // measure 67
0010
0100
0020
0000
,  // measure 68
0000
0030
2002
0000
,  // measure 69
0000
0000
0000
0000
,  // measure 70
0000
0000
0000
3003
0000
0000
0000
0000
;

//---------------dance-single - ----------------
#NOTES:
     dance-single:
     :
     Hard:
     13:
     0.673,0.718,0.670,0.422,0.484: // measure 1
2001
0100
0001
0100
,  // measure 2
3001
0000
0000
0000
1001
0000
1000
0000
0001
0100
0001
0100
0001
0000
1000
0000
,  // measure 3
0100
0000
0000
0010
0000
0000
0010
0000
0001
0000
0100
0000
0010
0000
1000
0000
,  // measure 4
0200
0000
0000
0000
0000
0000
0010
0000
0000
0000
0000
0000
0310
0000
0000
0000
0000
0000
0001
0000
0000
1000
0000
0000
0000
0000
0000
0001
0000
0000
1000
0000
0000
0000
0000
0000
0100
0000
0000
0000
1000
0000
0100
0000
0000
0000
1000
0000
,  // measure 5
0100
0020
0001
0100
,  // measure 6
0031
0000
0001
0000
1000
0000
0100
0000
0010
0000
0000
0000
0001
1000
0001
0000
,  // measure 7
0100
0010
0000
0100
0020
0000
0000
0000
2030
0000
0001
0000
3001
0000
1000
0000
,  // measure 8
0010
0000
0010
0000
0010
0000
0100
0000
0001
0100
0001
0000
2000
0000
0000
0000
,  // measure 9
3002
0100
1000
0100
,  // measure 10
1003
0000
0000
0000
1001
0000
1000
0000
0001
0100
0001
0000
1000
0000
1000
0000
,  // measure 11
0100
0000
0000
0010
0000
0000
0010
0000
0001
0000
0010
0000
0100
0000
0010
0000
,  // measure 12
0001
0000
0000
0000
0000
0000
1001
0000
0000
0001
0000
0000
0100
0000
0000
0010
0000
0000
1000
0000
0001
1000
0000
0001
,  // measure 13
1000
0200
0010
1000
,  // measure 14
0310
0000
0000
0000
0001
0000
0100
0000
0202
0303
0000
0000
0100
0010
0000
0100
,  // measure 15
0020
0000
0000
0000
1030
0000
0100
0000
0001
0000
0100
0000
1000
0000
0010
0100
,  // measure 16
0000
0010
0100
0000
0001
0000
0000
1001
0000
0000
0000
0000
1001
0000
0000
0000
,  // measure 17
0011
0000
0000
0011
0000
0000
0000
0000
0110
0000
0000
0110
0000
0000
0000
0000
,  // measure 18
1100
0000
0000
1100
0000
0000
0100
0000
0000
0010
0000
0000
1002
0000
0000
0000
,  // measure 19
0000
0023
0000
0000
0000
0230
0000
0000
,  // measure 20
0000
2300
0000
0000
0000
3000
1001
0000
,  // measure 21
1010
0000
0000
1010
0000
0000
0000
0000
0110
0000
0000
0110
0000
0000
0000
0000
,  // measure 22
0101
0000
0000
0101
0000
0000
0100
0000
0000
0010
0000
0000
2001
0000
0000
0000
,  // measure 23
0000
3200
0000
0000
0000
0320
0000
0000
,  // measure 24
0000
0032
0000
0000
0000
0003
1001
1000
,  // measure 25
0000
2200
0000
0000
0000
0000
0000
0000
3300
0000
0000
0000
1001
0000
0001
0000
,  // measure 26
0000
0022
0000
0000
0000
0000
0000
0000
0033
0000
0000
0000
1001
0000
1000
0000
,  // measure 27
0000
2020
0000
0000
0000
0000
0000
0000
3030
0000
0000
0000
1001
0000
0001
0000
,  // measure 28
0000
0202
0000
0000
0000
0000
0000
0000
0303
0000
0000
0000
1001
0000
0001
0000
,  // measure 29
0020
0130
1100
1000
0200
0310
0011
0001
,  // measure 30
0200
0310
1010
1000
0020
0130
0001
1000
,  // measure 31
0001
1000
0010
0100
0001
0010
1000
0010
,  // measure 32
0001
0000
1000
0000
0200
0000
0000
0000
0000
0000
0000
0000
1300
0000
0001
2000
,  // measure 33
0000
3000
0000
0000
1001
0000
0000
1001
0000
0000
0000
0000
0011
0000
0000
0011
,  // measure 34
0000
0000
0000
0000
1100
0000
0000
1100
0000
0000
0000
0000
0001
0000
1000
0002
,  // measure 35
0000
0003
0000
0000
0101
0000
0000
0101
0000
0000
0000
0000
1010
0000
0000
1010
,  // measure 36
0000
0000
0000
0000
1001
0000
0000
1001
0000
0000
1001
0000
1000
0000
0010
2000
,  // measure 37
0000
3000
0000
0000
0110
0000
0000
0110
0000
0000
0000
0000
0011
0000
0000
0011
,  // measure 38
0000
0000
0000
0000
1100
0000
0000
1100
0000
0000
0000
0000
1000
0001
1000
0000
,  // measure 39
0001
0100
0000
0100
0010
0000
1000
0000
0100
0000
0010
0000
0001
1000
0000
1000
,  // measure 40
0001
0000
0010
0000
0200
0000
0000
0000
1300
0000
0000
0000
0001
0000
1000
0002
,  // measure 41
0000
0003
0000
0000
0011
0000
0000
0011
0000
0000
0000
0000
0110
0000
0000
0110
,  // measure 42
0000
0000
0000
0000
1100
0000
0000
1100
0000
0000
0000
0000
1000
0000
0001
2000
,  // measure 43
0000
3000
0000
0000
1010
0000
0000
1010
0000
0000
0000
0000
0110
0000
0000
0110
,  // measure 44
0000
0000
0000
0000
0101
0000
0000
0101
0000
0000
0101
0000
0001
0000
1000
0002
,  // measure 45
0000
0003
0000
0000
1001
0000
0000
1001
0000
0000
0000
0000
1100
0000
0000
1100
,  // measure 46
0000
0000
0000
0000
0011
0000
0000
0011
0000
0000
0000
0000
0002
0000
0000
0000
,  // measure 47
0203
2300
3200
0302
,  // measure 48
0000
0000
1003
0100
0010
0000
0001
0000
,  // measure 49
0100
1000
0100
0001
,  // measure 50
1000
0100
0010
0001
1000
0010
1000
0000
,  // measure 51
0100
0010
0001
0010
0100
1000
0001
0000
,  // measure 52
0100
0000
0000
0000
0110
0000
0000
0000
1001
0000
0000
0000
1000
0010
1000
0000
,  // measure 53
0001
0000
1000
0001
0000
0100
0000
0001
1000
0000
0001
0000
0100
0010
0100
0000
,  // measure 54
0001
1000
0001
0000
0010
0000
0100
0000
0000
1000
0001
1000
0000
0001
0010
0001
,  // measure 55
0010
0000
0100
1000
0100
0000
1000
0001
0000
0000
1000
0001
1000
0000
0010
0000
,  // measure 56
0100
0001
0000
0001
1000
0000
0100
0000
0001
0000
0100
0000
1000
0001
1000
0000
,  // measure 57
0010
0000
0000
0010
1000
0000
0100
0000
0010
0001
0000
1000
0000
0001
0010
0000
,  // measure 58
0000
0001
1000
0001
1000
0000
0001
0100
0001
0000
0100
0010
0000
0000
0000
1000
,  // measure 59
0100
1000
0100
0000
0010
0000
0001
0000
0010
0000
0100
0000
1001
0000
1001
0000
,  // measure 60
1001
0000
0000
2002
0000
0000
3003
0000
0001
0010
0001
0000
0100
0010
0100
0000
,  // measure 61
0001
1000
0100
0000
1000
0001
1000
0001
1000
0000
0010
0000
0100
0000
0001
1000
,  // measure 62
0001
0000
1000
0000
0010
0100
0000
0010
1000
0001
1000
0001
1000
0000
0100
0010
,  // measure 63
0001
0000
0100
0000
1000
0000
0100
0000
0001
0000
0010
0100
0000
0010
0100
0000
,  // measure 64
2000
0000
0001
0000
3001
0000
0000
0000
1001
0000
0000
0000
0001
0100
0001
0100
,  // measure 65
0001
0000
1000
0000
0100
1000
0000
1000
0001
0000
0100
0000
0000
0010
1000
0010
,  // measure 66
1000
0000
0010
0200
0000
0310
0100
0001
0100
0000
0000
0001
0100
0010
0100
0000
,  // measure 67
0010
0000
1000
0100
1000
0100
0010
0001
0010
0000
0000
0110
0000
0000
1001
0000
,  // measure 68
0000
0001
1000
0000
0002
0000
0000
0000
2003
0000
0000
0000
0000
0000
0200
0000
,  // measure 69
0000
0000
0000
0000
,  // measure 70
0000
0000
0000
3300
0000
0000
0000
0000
;

//---------------dance-single - ----------------
#NOTES:
     dance-single:
     :
     Challenge:
     15:
     0.877,0.861,0.372,0.646,0.993: // measure 1
1000
0000
0000
1000
0001
0000
0000
0001
0100
0000
0000
0100
0010
0000
0100
0000
,  // measure 2
0001
0000
0000
0000
1001
0000
1000
0000
0001
0010
0001
0010
0100
0000
1100
0000
,  // measure 3
1000
0000
0001
0100
0000
0001
0100
0000
0001
0000
1000
0100
1000
0100
1000
0000
,  // measure 4
0001
0000
0000
0000
0000
0000
0200
0000
0000
0000
0000
0000
0010
0000
0000
0000
0000
0000
0310
0000
0000
1000
0000
0000
0000
0000
0000
0100
0000
0000
0010
0000
0000
0000
0000
0000
0001
0000
0000
0000
1000
0000
0001
0000
0000
0000
1000
0000
,  // measure 5
0001
0000
0000
0001
0010
0000
0000
0010
0100
0000
0000
0100
1000
0000
0002
0000
,  // measure 6
1000
0000
1003
0000
0001
0000
0010
0000
0001
0000
0000
0000
0100
0010
0100
0000
,  // measure 7
0001
1000
0000
0010
2000
0000
0000
0000
3010
0000
0200
0000
0001
0000
0301
0000
,  // measure 8
1000
0000
1000
0000
0100
0000
0100
0000
0010
0001
0010
0000
0001
1000
0001
1000
,  // measure 9
0001
0000
0000
0001
0100
0000
0000
0100
0010
0000
0000
0010
1000
0000
0010
0000
,  // measure 10
0100
0000
0000
0000
1001
0000
0001
0000
1000
0100
1000
0100
0010
0000
0011
0000
,  // measure 11
0001
0000
0010
0100
0000
0010
0100
0000
1000
0000
0001
0000
0100
0000
0001
0000
,  // measure 12
1000
0000
0000
0000
0000
0000
0000
0000
0000
0000
0000
0000
1001
0000
0000
0000
0000
0000
1000
0000
0000
0010
0000
0000
0000
0000
0000
1000
0000
0000
0010
0000
0000
0000
0000
0000
1000
0000
0000
0000
0001
0000
1000
0000
0000
0000
0001
0000
,  // measure 13
1000
0000
0000
1000
0001
0000
0000
0001
0100
0000
0000
0100
0010
0000
1000
0000
,  // measure 14
0200
0000
1000
0000
1300
0000
0001
0000
2002
3003
0000
0000
0001
0100
0000
0001
,  // measure 15
2000
0000
0000
0000
3010
0000
0100
0001
0100
0001
1000
0000
0100
0000
0100
0010
,  // measure 16
0000
0010
0001
0000
1000
0001
1000
0001
0010
0100
0010
0100
1000
0000
0000
0000
,  // measure 17
1200
0000
0000
0020
0000
0330
0000
0000
0120
0000
0000
0002
0000
0033
0000
0000
,  // measure 18
2001
0000
0000
0001
0000
0000
0001
0000
0000
3001
0000
0000
0021
0000
0000
0000
,  // measure 19
0000
0200
0000
0300
0000
0002
0000
0003
,  // measure 20
0000
0200
0000
0000
0330
0000
1001
0000
,  // measure 21
1200
0000
0000
0020
0000
0330
0000
0000
0120
0000
0000
0002
0000
0033
0000
0000
,  // measure 22
1002
0000
0000
1000
0000
0000
1000
0000
0000
1003
0000
0000
1020
0000
0000
0000
,  // measure 23
0000
0200
0000
0300
0000
2000
0000
3000
,  // measure 24
0000
0200
0000
0000
0330
0000
1001
0001
,  // measure 25
0100
0001
0000
0000
1000
0100
1000
0100
1000
0010
0100
0000
1001
0000
1000
0000
,  // measure 26
0100
1000
0000
0000
0001
0100
0001
0100
0010
0000
1000
0000
1001
0000
0001
0000
,  // measure 27
0010
0001
0010
0001
0100
0010
1000
0010
0100
0010
1000
0000
1001
0000
1000
0000
,  // measure 28
0010
1000
0000
0000
0001
1000
0100
1000
0001
0000
0100
0001
1000
0000
1000
0000
,  // measure 29
0100
0010
0001
0010
0100
0000
0100
0000
1000
0010
0100
0010
1000
0000
1000
0000
,  // measure 30
0001
0010
0100
0010
0001
0000
0001
0000
1000
0100
1000
0010
0100
0001
0100
0001
,  // measure 31
0100
0001
0100
0001
1000
0100
1000
0100
0010
0001
0010
0001
1000
0001
1000
0001
,  // measure 32
1000
0001
1000
0001
2000
0000
0000
0000
0000
0000
3000
0000
1001
0000
0002
0200
,  // measure 33
0000
0303
0000
0000
1020
0000
0000
0130
0000
0000
0001
0000
0021
0000
0000
0130
,  // measure 34
0000
0000
1000
0000
1200
0000
0000
0310
0000
0000
0000
0000
1001
0000
2000
0200
,  // measure 35
0000
3300
0000
0000
0021
0000
0000
0130
0000
0000
1000
0000
1020
0000
0000
0130
,  // measure 36
0000
0000
0001
1000
0002
0000
0000
1000
0000
0000
1003
0000
1001
0000
0002
2000
,  // measure 37
0000
3003
0000
0000
1200
0000
0000
0310
0000
0000
0001
0000
0201
0000
0000
0310
,  // measure 38
0000
0000
1000
0000
1002
0000
0000
0013
0000
0000
0100
0000
1000
0010
1000
0000
,  // measure 39
0001
0010
0001
0010
0100
0010
0100
1000
0100
1000
0001
0100
0001
1000
0000
1000
,  // measure 40
0100
0000
0010
0001
0100
0000
0100
0000
0100
0000
0000
0000
1001
0000
0002
0200
,  // measure 41
0000
0303
0000
0000
2010
0000
0000
3100
0000
0000
0010
0000
0012
0000
0000
1003
,  // measure 42
0000
0000
0010
0000
0210
0000
0000
0301
0000
0000
0000
0000
1001
0000
2000
0020
,  // measure 43
0000
3030
0000
0000
0102
0000
0000
0013
0000
0000
0100
0000
2100
0000
0000
3001
,  // measure 44
0000
0000
1000
0001
2000
0000
0000
0001
0000
0000
3001
0000
1001
0000
2000
0002
,  // measure 45
0000
3003
0000
0000
0021
0000
0000
0130
0000
0000
1000
0000
1020
0000
0000
0130
,  // measure 46
0000
0000
0001
0000
2001
0000
0000
3100
0000
0000
0010
0000
0002
0000
0203
0000
,  // measure 47
0302
0003
0020
0230
2300
3020
0230
0302
,  // measure 48
0203
0000
0300
0000
0001
1000
0001
1000
0001
0000
0000
0000
1000
0010
1000
0000
,  // measure 49
0001
1000
0000
1000
0010
0000
0100
0000
0001
1000
0000
1000
0100
0010
0100
0000
,  // measure 50
0000
1000
0001
1000
0001
0010
0100
0010
0100
1000
0010
1000
0000
0000
0000
0001
,  // measure 51
0010
0100
1000
0001
1000
0100
1000
0100
1000
0010
0100
0001
1000
0001
1000
0001
,  // measure 52
1000
0001
1000
0001
1000
0000
0000
0000
1001
0000
0000
0000
1000
0100
0010
0000
,  // measure 53
0001
0100
0001
1000
0000
0100
0000
1000
0001
0000
1000
0001
0010
0100
0010
0001
,  // measure 54
0010
0100
0010
0001
0200
0000
0310
0000
0000
1000
0010
1000
0000
0001
0010
0100
,  // measure 55
1000
0000
0100
1000
0010
0000
1000
0001
0000
0000
0010
0100
1000
0000
1000
0000
,  // measure 56
0010
0100
0000
0100
0001
0010
1000
0010
0001
0100
0010
0100
0001
0100
0010
0000
,  // measure 57
0100
0010
0000
0010
1000
0000
1000
0000
0100
0010
0000
0010
0001
0100
0010
0000
,  // measure 58
0000
1000
0001
0010
0100
0010
0001
0010
0100
1000
0100
0010
0100
0000
0000
1000
,  // measure 59
0010
0001
0010
1000
0100
0010
0100
1000
0100
0010
0100
1000
0010
0000
1010
0000
,  // measure 60
1001
0000
0000
1000
0001
0000
2000
0000
3001
0100
0010
0100
0001
0100
0010
0100
,  // measure 61
0001
0010
1000
0010
0001
0100
0000
0100
0002
0000
2003
0000
3002
0000
0013
0100
,  // measure 62
1000
0000
0100
1000
0010
0100
0000
0100
0001
1000
0100
1000
0001
0100
0000
0100
,  // measure 63
0001
1000
0100
0010
0100
1000
0100
0010
0001
0100
0001
1000
0000
0100
1000
0010
,  // measure 64
0200
0000
0001
0000
0301
1000
0000
0000
1001
0000
0000
0000
0001
0100
0010
0100
,  // measure 65
0002
0000
1003
0000
0001
1000
0000
1000
0100
0010
0100
0000
0000
1000
0001
0100
,  // measure 66
1000
0100
0001
2000
0000
3100
0010
0001
0100
0000
0000
0001
0100
0010
0100
0001
,  // measure 67
1000
0100
0001
0100
1000
0010
0100
0001
0010
0000
0100
1000
0000
1000
0010
0000
,  // measure 68
0100
0001
1000
0000
2000
0000
0000
0000
3002
0000
0000
0000
0000
0000
0020
0000
,  // measure 69
0000
0000
0000
0000
,  // measure 70
0000
0000
0000
0033
0000
0000
0000
0000
;

//---------------dance-single - ----------------
#NOTES:
     dance-single:
     :
     Medium:
     10:
     0.439,0.488,0.174,0.381,0.128: // measure 1
1000
0001
0100
0001
,  // measure 2
1000
0000
1001
0000
0001
0100
0001
1000
,  // measure 3
0100
0010
0001
1000
,  // measure 4
0010
0000
1010
0000
1000
0000
0010
0100
,  // measure 5
0001
1000
0001
0010
,  // measure 6
0200
0000
1300
0000
0001
1000
0001
0000
,  // measure 7
0020
0000
0130
0000
1000
0001
0010
0000
,  // measure 8
0100
1000
0100
1000
0001
0001
0000
0000
,  // measure 9
0100
0010
1000
0001
,  // measure 10
1000
0000
1001
0000
0001
0100
0001
0010
,  // measure 11
0100
1000
0010
0100
,  // measure 12
0001
0000
0101
0000
0100
0010
1000
0000
,  // measure 13
1001
0001
0100
0010
,  // measure 14
2000
0000
0000
0000
3001
0000
0000
0000
0220
0330
0000
0000
1001
0000
0000
0000
,  // measure 15
0001
0000
0000
0000
0010
0000
0001
0000
0010
0000
0001
0000
1000
0000
0000
1000
,  // measure 16
0000
1000
0001
0010
0100
1000
0002
0000
,  // measure 17
0103
0000
0000
0100
0000
0000
0000
0000
0010
0000
0000
0010
0000
0000
0000
0000
,  // measure 18
1000
0000
0000
2000
0000
0000
0000
0000
0000
0000
0000
0000
3002
0000
0000
0000
,  // measure 19
0000
0023
0000
0000
0000
0230
0000
0000
,  // measure 20
0000
2300
0000
0000
3000
0000
0002
0000
,  // measure 21
1003
0000
0000
1000
0000
0000
0000
0000
0010
0000
0000
0010
0000
0000
0000
0000
,  // measure 22
0100
0000
0000
0200
0000
0000
0000
0000
0000
0000
0000
0000
0302
0000
0000
0000
,  // measure 23
0000
0023
0000
0000
0000
0230
0000
0000
,  // measure 24
0000
2300
0000
0000
3000
0000
0010
0100
,  // measure 25
0000
0100
0000
0000
0000
0000
0000
0000
0000
0000
0000
0000
0010
0000
0100
0000
,  // measure 26
0000
0100
0000
0000
0000
0000
0000
0000
0000
0000
0000
0000
0001
0000
1000
0000
,  // measure 27
0000
1000
0000
0000
0000
0000
0000
0000
0000
0000
0000
0000
0001
0000
1000
0000
,  // measure 28
0000
1000
0000
0000
0000
0000
0000
0000
0000
0000
0000
0000
0001
0000
0100
0000
,  // measure 29
0002
0003
1000
0100
2000
3000
0001
0100
,  // measure 30
0020
0030
0100
0010
2000
3000
0010
0100
,  // measure 31
0010
0100
0001
0010
0100
1000
0020
0000
,  // measure 32
0100
0130
0000
2002
,  // measure 33
3003
0000
0000
0000
0001
0000
0000
0010
0000
0000
0000
0000
0001
0000
0000
0010
,  // measure 34
0000
0000
0000
0000
0001
0000
0000
0010
0000
0000
0000
0000
2002
0000
0000
0000
,  // measure 35
3003
0000
0000
0000
1000
0000
0000
0100
0000
0000
0000
0000
1000
0000
0000
0100
,  // measure 36
0000
0000
0000
0000
1000
0000
0000
0001
0000
0000
1000
0000
2002
0000
0000
0000
,  // measure 37
3003
0000
0000
0000
0001
0000
0000
0100
0000
0000
0000
0000
0001
0000
0000
0100
,  // measure 38
0000
0000
0000
0000
0001
0000
0000
0100
0000
0000
0000
0000
1001
0000
0000
0000
,  // measure 39
1001
0000
0001
0010
0100
1000
0001
0000
,  // measure 40
1001
0000
1000
0001
1000
0000
2002
0000
,  // measure 41
3003
0000
0000
0000
1000
0000
0000
0010
0000
0000
0000
0000
1000
0000
0000
0010
,  // measure 42
0000
0000
0000
0000
1000
0000
0000
0010
0000
0000
0000
0000
2002
0000
0000
0000
,  // measure 43
3003
0000
0000
0000
0001
0000
0000
0100
0000
0000
0000
0000
0001
0000
0000
0100
,  // measure 44
0000
0000
0000
0000
0001
0000
0000
1000
0000
0000
0001
0000
2002
0000
0000
0000
,  // measure 45
3003
0000
0000
0000
1000
0000
0000
0100
0000
0000
0000
0000
1000
0000
0000
0100
,  // measure 46
0000
0000
0000
0000
1000
0000
0000
0100
0000
0000
0000
0000
2000
0000
0000
0000
,  // measure 47
0000
3002
0000
0203
,  // measure 48
0000
0320
0000
1030
,  // measure 49
0001
0100
0001
1000
,  // measure 50
0000
0100
0010
0001
,  // measure 51
0100
0010
0100
0001
,  // measure 52
0100
0000
0010
0000
1000
0000
0001
0100
,  // measure 53
0001
0100
0010
0000
0010
0000
1000
0100
,  // measure 54
0010
0001
1000
0001
0000
1000
0001
0100
,  // measure 55
0001
0000
1001
0000
1000
0000
0100
0010
,  // measure 56
0001
0010
0100
0000
1100
0000
1000
0100
,  // measure 57
1000
0100
0010
0000
0001
0100
0001
1000
,  // measure 58
0000
0100
1000
0010
1000
0010
0100
0000
,  // measure 59
0010
0100
0001
0010
0100
1000
0001
0001
,  // measure 60
1001
0000
0000
1001
0000
0000
0000
0000
0001
0000
0100
0000
0010
0000
0100
0000
,  // measure 61
0001
0100
0001
0000
0010
0100
0010
0100
,  // measure 62
1000
0000
1100
0000
1000
0001
0001
0001
,  // measure 63
2000
0000
3020
0000
0130
0001
1000
0000
,  // measure 64
0002
0000
0000
0000
1003
0000
0001
0100
,  // measure 65
0001
1000
0100
0000
0100
0000
0010
0001
,  // measure 66
2000
0000
0000
0000
0000
0001
0000
0000
3001
0000
0000
0000
1000
0000
0010
0000
,  // measure 67
0100
0001
0010
0100
0020
0000
0000
0032
,  // measure 68
0000
0000
0103
0000
0020
0000
0000
0200
,  // measure 69
0000
0000
0000
0000
,  // measure 70
0000
0000
0000
0330
0000
0000
0000
0000
;

//---------------dance-single - ----------------
#NOTES:
     dance-single:
     :
     Beginner:
     2:
     0.105,0.112,0.149,0.000,0.000: // measure 1
1001
0000
0000
0000
,  // measure 2
1000
0000
0000
0000
,  // measure 3
0001
0000
0000
0000
,  // measure 4
0100
0000
0000
0000
,  // measure 5
0001
0000
0000
0000
,  // measure 6
1000
0000
0000
0000
,  // measure 7
0100
0000
0000
0000
,  // measure 8
1000
0000
0000
0000
,  // measure 9
1001
0000
0000
0000
,  // measure 10
0001
0000
0000
0000
,  // measure 11
0010
0000
0000
0000
,  // measure 12
0100
0000
0000
0000
,  // measure 13
1000
0000
0000
0000
,  // measure 14
0001
0000
0000
1000
,  // measure 15
0000
0000
0000
0010
,  // measure 16
0000
0000
0000
0110
,  // measure 17
0000
0000
0000
0000
,  // measure 18
0000
0000
0000
1001
,  // measure 19
0000
0000
0000
0000
,  // measure 20
0000
0000
0000
0001
,  // measure 21
0000
0000
0100
0000
,  // measure 22
0000
0010
0000
1001
,  // measure 23
0000
0000
0000
0000
,  // measure 24
0000
0000
0000
1001
,  // measure 25
0000
0000
0000
1001
,  // measure 26
0000
0000
0000
1001
,  // measure 27
0000
0000
0000
1001
,  // measure 28
0000
0000
0000
1000
,  // measure 29
0000
0100
0000
0010
,  // measure 30
0000
0001
0000
1000
,  // measure 31
0000
1000
0000
0001
,  // measure 32
0000
0000
0000
1001
,  // measure 33
0000
0000
0000
0000
,  // measure 34
0000
0000
0000
0110
,  // measure 35
0000
0000
0000
0000
,  // measure 36
0000
0000
0000
1001
,  // measure 37
0000
0000
0000
0000
,  // measure 38
0000
0000
0000
0001
,  // measure 39
0000
0010
0000
0100
,  // measure 40
0000
0010
0000
0001
,  // measure 41
0000
1001
0000
0000
,  // measure 42
0000
0000
0000
0110
,  // measure 43
0000
0000
0000
0000
,  // measure 44
0000
0000
0000
1001
,  // measure 45
0000
0000
0000
0000
,  // measure 46
0000
0000
0000
1000
,  // measure 47
0000
0000
0000
0000
,  // measure 48
0000
0100
0000
1000
,  // measure 49
0000
0000
0000
0000
,  // measure 50
0000
0000
0000
0001
,  // measure 51
0000
0000
0000
0000
,  // measure 52
0000
1000
0000
1001
,  // measure 53
0000
0001
0000
0001
,  // measure 54
0000
0000
0000
1000
,  // measure 55
0000
1000
0000
1000
,  // measure 56
0000
0000
0000
0001
,  // measure 57
0000
0001
0000
0001
,  // measure 58
0000
0000
0000
0100
,  // measure 59
0000
0100
0000
0100
,  // measure 60
0000
0000
0010
0000
,  // measure 61
0000
0000
0100
0000
,  // measure 62
0000
0000
0001
0000
,  // measure 63
0000
0000
0100
0000
,  // measure 64
0000
0000
1001
0000
,  // measure 65
0000
0000
1000
0000
,  // measure 66
0001
0000
0000
1000
,  // measure 67
0000
0000
0100
0000
,  // measure 68
0000
0000
1001
0000
;
