#TITLE:BREATH;
#SUBTITLE:;
#ARTIST:SPARKER;
#TITLETRANSLIT:;
#SUBTITLETRANSLIT:;
#ARTISTTRANSLIT:;
#CREDIT:DigiMindAxel;
#BANNER:BREATH.png;
#BACKGROUND:BREATH-bg.png;
#LYRICSPATH:;
#CDTITLE:beatmania IIDX.png;
#MUSIC:BREATH.ogg;
#METERTYPE:DDR X;
#OFFSET:-6.331;
#SAMPLESTART:18.292;
#SAMPLELENGTH:12.000;
#SELECTABLE:YES;
#BPMS:0.000=160.000,225.000=128.241,226.000=128.254,227.000=126.663,228.000=125.000,229.000=109.843,230.000=58.300,231.000=53.056;
#STOPS:148.000=0.750
;
#BGCHANGES:;

//---------------dance-single - ----------------
#NOTES:
     dance-single:
     :
     Easy:
     5:
     0.254,0.247,0.103,0.019,0.000: // measure 1
0000
1001
0000
1001
,  // measure 2
0000
1001
0000
1001
,  // measure 3
0000
0001
1000
0100
,  // measure 4
0010
0001
1000
0001
,  // measure 5
0000
1000
0100
0010
,  // measure 6
0001
1000
0001
1000
,  // measure 7
0000
0001
0010
0100
,  // measure 8
1000
0001
1000
0000
,  // measure 9
0000
1001
0000
1001
,  // measure 10
0000
1001
0000
1001
,  // measure 11
0000
0001
0100
0010
,  // measure 12
1000
0001
1000
0001
,  // measure 13
0000
1000
0010
0100
,  // measure 14
0001
1000
0001
1000
,  // measure 15
0000
0100
0010
0001
,  // measure 16
0010
0100
0010
0100
,  // measure 17
1000
1000
1000
0000
,  // measure 18
0001
0001
0001
0000
,  // measure 19
1000
0001
1000
0000
,  // measure 20
0001
1000
0001
0000
,  // measure 21
0100
0010
0100
0000
,  // measure 22
0010
0100
0010
0000
,  // measure 23
1000
0010
1000
0000
,  // measure 24
0001
0100
0001
0000
,  // measure 25
1000
0001
1000
0000
,  // measure 26
0001
1000
0001
0000
,  // measure 27
0010
0001
0010
0001
,  // measure 28
0100
0010
0100
0000
,  // measure 29
0010
1000
0010
1000
,  // measure 30
0100
0010
0100
0000
,  // measure 31
1000
0001
1000
0001
,  // measure 32
0100
0010
0100
0000
,  // measure 33
0001
1000
0001
1000
,  // measure 34
0010
0100
0010
0000
,  // measure 35
0100
0010
0100
0000
,  // measure 36
0001
1000
0001
0000
,  // measure 37
1000
0001
1000
0000
,  // measure 38
1001
0000
1001
0000
,  // measure 39
1000
0000
0001
0000
,  // measure 40
0010
0000
0100
0000
,  // measure 41
1000
0000
0001
0000
,  // measure 42
0100
0000
0010
1000
,  // measure 43
0010
0000
1000
0001
,  // measure 44
1000
0000
0001
0010
,  // measure 45
0001
0000
1000
0100
,  // measure 46
1000
0000
0001
1000
,  // measure 47
0001
0000
1000
0100
,  // measure 48
1000
0000
0010
0100
,  // measure 49
0010
0000
0100
0001
,  // measure 50
0100
0000
0001
1000
,  // measure 51
0001
1000
0100
0010
,  // measure 52
0100
0010
0001
0100
,  // measure 53
0001
0100
0010
1000
,  // measure 54
0010
1000
0001
0001
,  // measure 55
0001
0000
1000
1000
,  // measure 56
1000
0000
0001
0000
,  // measure 57
0000
0000
0010
0000
,  // measure 58
0100
0000
1000
0001
,  // measure 59
2002
0000
0000
3003
;

//---------------dance-single - ----------------
#NOTES:
     dance-single:
     :
     Medium:
     9:
     0.476,0.412,0.383,0.028,0.000: // measure 1
1000
1001
0001
1001
,  // measure 2
1000
1001
0001
1001
,  // measure 3
1000
0000
0100
0010
0001
0000
0010
0100
,  // measure 4
1000
0000
0010
0100
0001
0100
0000
0000
,  // measure 5
0000
0000
0001
0010
0100
0000
1000
0100
,  // measure 6
0010
0000
0001
1000
0010
1000
0000
0000
,  // measure 7
0000
0000
0001
0100
0010
0000
1000
0010
,  // measure 8
0100
0000
0001
0010
0100
0010
0001
0000
,  // measure 9
1000
1001
0001
1001
,  // measure 10
1000
1001
0001
1001
,  // measure 11
0000
0000
1000
0100
0010
0000
0100
0010
,  // measure 12
0001
0000
0100
0010
1000
0010
0000
0000
,  // measure 13
0000
0000
1000
0100
0010
0000
0001
0010
,  // measure 14
0100
0000
1000
0010
0100
0010
0000
0000
,  // measure 15
0000
0000
1000
0001
0100
0000
0010
1000
,  // measure 16
0001
0000
0010
0100
1000
0100
0010
0000
,  // measure 17
1001
0001
0001
0001
,  // measure 18
0011
1100
0011
1100
,  // measure 19
1001
0100
1001
0001
,  // measure 20
1000
0100
1000
0000
0001
0010
0001
0000
,  // measure 21
1000
0010
1000
0000
0001
0100
0001
0000
,  // measure 22
0010
0100
1000
0000
0100
0010
0001
0000
,  // measure 23
0001
0101
0100
0110
,  // measure 24
0010
1010
1010
1001
,  // measure 25
0001
0010
0100
0000
1000
0010
0100
0000
,  // measure 26
0001
0010
0100
1000
0010
1000
0000
0000
,  // measure 27
0001
0100
0001
0100
0010
0000
1000
0000
,  // measure 28
0010
1000
0010
1000
0100
0000
1100
0000
,  // measure 29
0010
0001
0010
0001
1000
0000
0100
0000
,  // measure 30
0010
0001
0010
0001
1000
0000
1010
0000
,  // measure 31
0100
0001
0100
0001
1000
0000
0010
0000
,  // measure 32
0100
0001
0100
0001
1000
0000
1001
0000
,  // measure 33
0001
1000
0100
1000
0001
0000
0100
0000
,  // measure 34
0001
0010
0100
0010
0001
0010
0100
0000
,  // measure 35
1000
0100
0010
0100
1000
0100
0010
0000
,  // measure 36
0001
0100
0010
0100
0001
0100
0010
0000
,  // measure 37
1000
0010
0100
0010
1000
0010
0100
0000
,  // measure 38
0101
0000
1001
0100
,  // measure 39
1100
0010
0011
0100
,  // measure 40
1100
0010
0011
0001
,  // measure 41
1001
1000
1001
0001
,  // measure 42
1001
0000
1000
0000
0010
0100
0010
0000
,  // measure 43
1000
0010
1000
0000
0010
0100
0010
0000
,  // measure 44
1000
0010
1000
0000
0001
0010
0100
0000
,  // measure 45
0010
0001
0010
0000
0001
0010
0100
0000
,  // measure 46
0010
0001
0010
0000
0001
1000
0001
1000
,  // measure 47
0100
0010
0100
0000
1000
0001
1000
0001
,  // measure 48
0010
0100
0010
0000
0001
0100
0001
0100
,  // measure 49
0010
1000
0100
0000
0010
0001
0010
0001
,  // measure 50
1000
0100
0010
0000
0001
0100
0001
1000
,  // measure 51
0100
1000
0001
0000
0010
0100
0010
0100
,  // measure 52
1000
0100
0010
0000
0001
0100
0001
0100
,  // measure 53
0001
1000
0100
0000
1000
0100
1000
0100
,  // measure 54
1000
0001
0100
0000
0110
0000
0010
0000
,  // measure 55
0010
0010
1010
1010
,  // measure 56
0101
0101
1001
0000
,  // measure 57
0000
0000
1200
0001
,  // measure 58
1000
0001
1300
1001
,  // measure 59
2002
0000
0000
3003
;

//---------------dance-single - ----------------
#NOTES:
     dance-single:
     :
     Hard:
     13:
     0.644,0.742,0.281,0.056,0.281: // measure 1
0100
0010
1001
0000
0100
0010
1001
0000
,  // measure 2
0010
0100
1001
0000
0010
0100
1001
0000
,  // measure 3
0000
0000
0001
0100
0010
1000
0100
0001
,  // measure 4
1000
0010
0001
1000
0010
1000
0001
1000
,  // measure 5
0000
0000
0100
0010
0001
1000
0100
0001
,  // measure 6
1000
0010
0001
1000
0100
1000
0001
1000
,  // measure 7
0000
0000
0010
0100
0001
1000
0100
0001
,  // measure 8
1000
0010
0001
1000
0100
1000
0001
1000
,  // measure 9
0100
0010
1001
0000
0100
0010
1001
0000
,  // measure 10
0010
0100
1001
0000
0010
0100
1001
0000
,  // measure 11
0000
0000
1000
0010
1000
0001
0100
1000
,  // measure 12
0001
0010
1000
0001
0010
0001
0100
0010
,  // measure 13
0000
0000
1000
0010
1000
0001
0100
1000
,  // measure 14
0001
0010
1000
0100
0010
0100
1000
0010
,  // measure 15
0000
0000
0100
0001
1000
0001
0100
1000
,  // measure 16
0001
0010
1000
0001
0010
0100
0010
0001
,  // measure 17
1001
1000
1000
1000
,  // measure 18
0100
1000
0100
0000
1000
0001
1000
0000
0001
0100
0001
0000
0100
0010
0100
0000
,  // measure 19
0101
0000
1001
0000
2200
0000
3300
1000
,  // measure 20
0100
0001
0100
1000
0001
0010
0100
1000
,  // measure 21
1010
0000
0110
0000
0101
0001
1000
0100
,  // measure 22
0010
0001
0100
1000
0100
0001
0010
0000
,  // measure 23
0100
1000
1001
0000
0010
0001
1001
0000
,  // measure 24
1000
0010
0100
0010
1000
0100
0110
0000
,  // measure 25
0001
0100
0101
0000
0010
1000
1010
0000
,  // measure 26
0100
0001
1001
0000
0100
1100
0000
0000
,  // measure 27
1000
0010
0100
1000
0100
0010
1000
0001
,  // measure 28
1000
0010
0001
0010
1000
1000
0001
0001
,  // measure 29
1000
0100
0010
1000
0010
0100
1000
0001
,  // measure 30
0100
1000
0100
0001
1000
0010
0110
0000
,  // measure 31
0001
0100
0010
0001
0010
0100
0001
1000
,  // measure 32
0010
0001
0010
1000
0001
0001
1000
1000
,  // measure 33
0001
0010
0100
0001
0100
0010
0001
1000
,  // measure 34
0010
1000
0010
1000
0010
1000
0010
1000
0010
1000
0010
1000
0010
0000
0000
0000
,  // measure 35
0100
0001
0100
0001
0100
0001
0100
0001
0100
0001
0100
0001
0100
0000
0000
0000
,  // measure 36
0001
1000
0001
1000
0001
1000
0001
1000
0001
1000
0001
1000
0001
0000
0000
0000
,  // measure 37
1000
0001
1000
0001
1000
0001
1000
0001
1000
0001
1000
0001
1000
0000
0000
0000
,  // measure 38
0110
0000
0100
0000
1001
0000
0001
1000
,  // measure 39
0100
0001
0100
1000
0010
0000
0100
0001
,  // measure 40
0010
1000
0010
0001
1000
0000
0010
0001
,  // measure 41
0010
1000
0100
0010
0001
0000
0100
1000
,  // measure 42
0100
0001
0100
0010
1000
0000
0100
0001
,  // measure 43
0100
1000
0100
0010
0001
0000
0100
1000
,  // measure 44
0100
0001
0010
0100
1000
0000
0010
0001
,  // measure 45
0010
1000
0010
0100
0001
0000
0010
1000
,  // measure 46
0010
0000
0001
0000
0100
0000
0010
0000
1000
0000
0100
1000
0000
0000
0001
0100
,  // measure 47
0000
0000
0001
1000
0001
0000
0000
0000
0100
0000
0001
0010
0000
0000
0100
0010
,  // measure 48
0000
0000
0001
0100
0001
0000
0000
0000
0010
0000
0100
1000
0000
0000
0001
0100
,  // measure 49
0000
0000
0010
0100
0010
0000
0000
0000
1000
0000
0100
1000
0000
0000
0001
0100
,  // measure 50
0000
0000
0001
1000
0001
0000
0000
0000
0010
0000
0100
0010
0100
0000
1000
0100
,  // measure 51
1000
0000
0010
0100
0010
0000
0000
0000
1000
0000
0010
1000
0010
0000
1000
0001
,  // measure 52
1000
0000
0001
0010
0001
0000
0000
0000
0010
0000
0100
0010
0100
0000
1000
0010
,  // measure 53
1000
0000
0001
1000
0001
0000
1000
0000
0100
0000
0010
0100
0010
0000
0001
0100
,  // measure 54
0001
0000
0100
0010
0100
0000
0000
0000
0001
0100
0001
0000
1000
0001
1000
0000
,  // measure 55
0001
0100
0001
0000
0100
0010
0100
0000
0001
1000
0001
0000
1000
0100
1000
0000
,  // measure 56
0001
0010
0001
0000
1000
0001
1000
0000
0010
0000
0000
0000
0010
0000
0000
0000
,  // measure 57
0010
0010
1001
0100
,  // measure 58
0011
0000
0100
0000
1010
0000
2002
3003
,  // measure 59
0220
0000
0000
0330
;

//---------------dance-single - ----------------
#NOTES:
     dance-single:
     :
     Beginner:
     2:
     0.099,0.163,0.075,0.000,0.000: // measure 1
0000
1000
0000
1000
,  // measure 2
0000
1000
0000
1000
,  // measure 3
0000
0001
0000
0000
,  // measure 4
0010
0000
0000
0000
,  // measure 5
0000
0100
0000
0000
,  // measure 6
1000
0000
0000
0000
,  // measure 7
0000
0010
0000
0000
,  // measure 8
0100
0000
0000
0000
,  // measure 9
0000
0001
0000
0001
,  // measure 10
0000
0001
0000
0001
,  // measure 11
0000
1000
0000
0000
,  // measure 12
0100
0000
0000
0000
,  // measure 13
0000
0010
0000
0000
,  // measure 14
0100
0000
0000
0000
,  // measure 15
0000
1000
0000
0000
,  // measure 16
0010
0000
0000
0000
,  // measure 17
1001
0000
0000
0000
,  // measure 18
1000
0000
0000
0000
,  // measure 19
0001
0000
0000
0000
,  // measure 20
0010
0000
0000
0000
,  // measure 21
0100
0000
0000
0000
,  // measure 22
1000
0000
0000
0000
,  // measure 23
0000
1001
0000
0001
,  // measure 24
0000
0001
0000
0000
,  // measure 25
0000
1001
0000
1000
,  // measure 26
0000
1000
0000
0000
,  // measure 27
0100
0000
0000
0000
,  // measure 28
0010
0000
0000
0000
,  // measure 29
0001
0000
0000
0000
,  // measure 30
0100
0000
0000
0000
,  // measure 31
0001
0000
0000
0000
,  // measure 32
1000
0000
0000
0000
,  // measure 33
0100
0000
0000
0000
,  // measure 34
0010
0000
0000
0000
,  // measure 35
0010
0000
0000
0000
,  // measure 36
0010
0000
0000
0000
,  // measure 37
0010
0000
0000
0000
,  // measure 38
0000
0000
1001
0000
,  // measure 39
0000
0000
0001
0000
,  // measure 40
0000
0000
0100
0000
,  // measure 41
0000
0000
0001
0000
,  // measure 42
0000
0000
1000
0000
,  // measure 43
0000
0000
0100
0000
,  // measure 44
0000
0000
0010
0000
,  // measure 45
0000
0000
0001
0000
,  // measure 46
0000
0000
1001
0000
,  // measure 47
0000
0000
1000
0000
,  // measure 48
0000
0000
0001
0000
,  // measure 49
0000
0000
0001
0000
,  // measure 50
0000
0000
0010
0000
,  // measure 51
0000
0000
0100
0000
,  // measure 52
0000
0000
1000
0000
,  // measure 53
0001
0000
1000
0000
,  // measure 54
0000
0000
1001
0000
,  // measure 55
0000
0000
0000
0000
,  // measure 56
0000
0000
0010
0000
,  // measure 57
0000
0000
0110
0000
,  // measure 58
0010
0000
0010
0000
,  // measure 59
1001
0000
0000
0000
;
