#TITLE:BREAK OVER;
#SUBTITLE:;
#ARTIST:MASAYOSHI IIMORI;
#TITLETRANSLIT:;
#SUBTITLETRANSLIT:;
#ARTISTTRANSLIT:;
#CREDIT:DigiMindAxel;
#BANNER:BREAK OVER.png;
#BACKGROUND:BREAK OVER-bg.png;
#LYRICSPATH:;
#CDTITLE:beatmania IIDX.png;
#MUSIC:BREAK OVER.ogg;
#METERTYPE:DDR X;
#OFFSET:-0.915;
#SAMPLESTART:13.680;
#SAMPLELENGTH:12.000;
#SELECTABLE:YES;
#DISPLAYBPM:106.000:150.000;
#BPMS:0.000=150.000,104.000=75.000,105.000=150.000,111.000=75.000,112.000=150.000,126.000=75.000,127.000=150.000,133.000=75.000,134.000=150.000,140.000=75.000,141.000=150.000,155.000=13.250,157.000=26.500,158.000=53.000,159.000=79.500,166.500=106.000,247.500=26.500;
#STOPS:;
#BGCHANGES:0.000=BREAK OVER.avi=1.000=1=1=0,
248.000=BREAK OVER-bg.png=1.000=1=0=1,
99999=-nosongbg-=1.000=0=0=0 // don't automatically add -songbackground-
;

//---------------dance-single - ----------------
#NOTES:
     dance-single:
     :
     Easy:
     5:
     0.219,0.231,0.067,0.120,0.000:
0000
0000
0000
0000
,
0000
0000
0000
0000
,
0000
0000
0000
0000
,
0000
0000
0000
0000
,
0001
0001
0001
1000
,
1000
1000
0001
0001
,
0001
0010
0100
1000
,
0020
0000
0000
0030
,
1001
0100
0010
0000
,
0001
0010
0100
0000
,
2000
0001
3001
0100
,
0010
0100
0001
0000
,
2001
0000
0000
3100
,
0020
0000
0000
0031
,
2000
0000
0000
3001
,
0200
0000
0000
0300
,
0110
0100
0010
0000
,
1000
0100
0010
0000
,
1001
0001
1000
0000
,
0001
0100
0010
0000
,
0100
0000
0100
0000
,
0010
0000
0010
0000
,
1000
0100
0010
0001
,
2000
0000
0000
3000
,
1001
0000
0001
1000
,
0001
0000
0010
0100
,
0020
0031
1000
0001
,
0000
1000
0100
2000
,
3010
0100
0010
0000
,
1000
0001
1000
0000
,
0001
0100
0001
0000
,
0010
0100
0020
0031
,
1000
0100
1000
0100
,
0010
0000
0001
0100
,
0010
0100
0001
0010
,
0000
0100
1000
0010
,
0100
0010
0100
0010
,
0000
1000
0100
0010
,
0001
1000
0000
2002
,
0000
0000
0000
0000
,
0000
0000
0000
0000
,
0000
0000
0000
0000
0000
0000
0000
3003
0000
0000
1001
0000
0000
0000
1000
0000
,
0000
1000
0000
1000
0000
0001
0000
0001
,
0000
0001
0000
0001
0000
1000
0000
0010
,
0000
0100
0000
0001
0000
2000
0000
0000
,
0000
3000
0000
0000
0000
0001
0000
0100
,
0000
0010
0000
0010
0000
0100
0000
0100
,
0000
0001
0000
0010
0000
0100
0000
1000
,
0000
0001
0000
0001
0000
0100
0000
0100
,
0000
0002
0000
0000
0000
1003
0000
0100
,
0000
0010
0000
0010
0000
0100
0000
1000
,
0000
0001
0000
0001
0000
0100
0000
0010
,
0000
1000
0000
1000
0000
0001
0000
0001
,
0000
1001
0000
0000
0000
0010
0000
0100
,
0000
1000
0000
1000
0000
0001
0000
0001
,
0000
0100
0000
0010
0000
0100
0000
0001
,
0000
1000
0000
1000
0000
0100
0000
0100
,
0000
0010
0000
0001
0000
0100
0000
0100
,
0000
0010
0000
0010
0000
1000
0000
0100
,
0000
0010
0000
0001
0000
1000
0000
0010
,
0000
0100
0000
0001
0000
1000
0000
0001
,
0000
0000
0000
0000
0100
0000
0000
0000
0000
0000
0000
0000
0010
0000
0000
0000
0000
0000
0000
0000
2002
0000
0000
0000
0000
0000
0000
0000
0000
3003
0000
0000
;

//---------------dance-single - ----------------
#NOTES:
     dance-single:
     :
     Hard:
     13:
     0.575,0.740,0.291,0.224,0.430: // measure 1
0000
0000
0000
0000
,  // measure 2
0000
0000
0000
0000
,  // measure 3
0000
0000
0000
0000
,  // measure 4
0000
0000
0000
0000
,  // measure 5
1000
0001
1000
0001
0100
0001
0100
0001
,  // measure 6
0010
0100
0010
0100
1000
0010
1000
0010
,  // measure 7
0100
0100
0001
0001
0010
0010
0100
0100
,  // measure 8
2002
0000
0000
3003
,  // measure 9
2002
0000
3003
0000
0001
0000
0000
0000
0100
0000
0000
1000
0000
0000
0100
0000
,  // measure 10
0001
0000
0000
0000
1000
0000
0000
0000
0100
0000
0000
0001
0000
0000
0100
0000
,  // measure 11
1000
0001
1000
0001
1000
0000
0000
0000
0010
0000
0000
0001
0000
0000
0010
0000
,  // measure 12
1000
0001
0010
1010
,  // measure 13
1001
0000
0010
0011
0000
0100
0110
0000
,  // measure 14
2002
0000
3003
1000
0100
0000
1100
0000
0000
0000
0010
0000
0100
0010
0100
0010
,  // measure 15
0100
0000
0001
0101
0000
0010
0110
0000
,  // measure 16
2002
0000
0000
0000
0000
0000
0000
3003
,  // measure 17
2002
3003
0101
0000
0110
0000
1010
0000
,  // measure 18
1001
0000
0000
0000
1100
0000
0000
0000
0011
0000
0000
0000
0010
0100
0010
0000
,  // measure 19
0001
1000
0001
1000
0001
0000
0000
0000
1100
0000
0000
0000
0011
0000
0000
0000
,  // measure 20
0010
0000
0010
0000
0001
0000
0001
0000
1000
0000
0010
0100
0010
0000
0100
0000
,  // measure 21
0101
0001
0000
1001
1000
0000
1010
0010
,  // measure 22
0100
0001
0000
1001
0001
0000
0110
0010
,  // measure 23
0100
1000
0000
1001
0001
0000
0110
0010
,  // measure 24
1000
0100
0010
0001
,  // measure 25
1001
0000
0001
1000
0100
0010
0010
0010
,  // measure 26
0100
1000
0001
0100
1000
0100
0001
0100
,  // measure 27
0220
0000
0000
0330
0100
0000
0001
0000
1000
0000
1000
0000
0100
0000
0100
0000
,  // measure 28
0010
0010
0100
1000
0010
0001
0020
0000
,  // measure 29
1030
0000
0001
0100
0001
0000
1000
0000
0100
0000
0010
0000
0010
0000
0100
0000
,  // measure 30
1000
0010
0001
0010
1000
0000
0010
0010
,  // measure 31
0100
0000
0001
0100
0001
0000
0010
0000
0100
0000
1000
0000
0010
0000
0001
0000
,  // measure 32
0010
0000
1000
0000
0100
0000
0010
0000
0022
0000
0000
0033
1001
0000
0000
1000
,  // measure 33
0010
0000
0000
0010
0001
0000
0000
0001
0010
0000
0000
0010
1000
0000
0000
1001
,  // measure 34
0000
0000
1001
0000
2000
0000
0000
0000
3001
0000
0000
0001
1000
0000
0000
1000
,  // measure 35
0100
0000
0000
0100
0001
0000
0000
0001
0100
0000
0000
0100
1000
0000
1000
0000
,  // measure 36
0001
0000
0001
0000
1001
0000
0000
1000
0001
0000
0010
0000
0100
0000
0000
0100
,  // measure 37
1000
0000
0010
0000
0100
0000
0000
0100
0001
0000
0010
0000
0100
0000
0100
0000
,  // measure 38
1000
0000
1000
0000
0010
0000
0010
0000
0100
0000
0100
0000
0001
1000
0001
1000
,  // measure 39
0001
1000
0001
1000
0001
1000
0001
1000
0000
0000
0000
0000
2002
0000
0000
0000
,  // measure 40
0000
0000
0000
0000
0000
0000
0000
0000
0000
0000
0000
3003
1000
0000
0000
0001
,  // measure 41
0000
0000
1000
0000
0000
0100
0000
0000
0001
0000
0000
0100
0000
0000
1000
0000
,  // measure 42
0000
0010
0000
0000
0001
0000
0000
0010
0000
0000
1000
0000
0010
0000
0100
0000
,  // measure 43
0001
1000
0010
0100
0001
1000
0100
0001
,  // measure 44
0100
1000
0010
0001
0010
1000
1000
0100
,  // measure 45
0100
0000
1000
0001
1000
0001
0100
0001
0100
0001
0100
0000
0100
0000
0100
0000
,  // measure 46
0100
0000
0100
0000
0100
0000
0010
1000
0010
1000
2002
0000
3003
0001
1000
0000
,  // measure 47
0001
0000
1000
0010
1000
0000
0001
1000
0001
0000
1000
0010
1000
0000
0001
1000
,  // measure 48
0001
0000
0010
0100
0010
0100
2000
0000
3010
0000
0100
0000
0000
0100
0001
0000
,  // measure 49
0010
0000
0100
1000
0100
0000
1000
0001
1000
0000
0100
1000
0100
0000
1000
0010
,  // measure 50
0100
0010
1000
0000
1000
0000
0001
0000
0001
0000
0100
0000
0100
0010
0100
0000
,  // measure 51
0001
0010
0100
0010
0001
0000
2000
0000
3010
0000
0100
0000
0100
0010
0100
0000
,  // measure 52
0001
0100
0010
0100
0001
0000
0010
0100
0010
0100
1000
0000
0001
0100
0001
0000
,  // measure 53
0010
0100
1000
0100
0010
0000
0002
0000
1003
0000
0010
0100
0010
0100
0001
0010
,  // measure 54
0001
0010
0200
0000
0000
0000
0000
0000
0300
0000
2002
0000
3003
0001
1000
0000
,  // measure 55
0001
0000
1000
0100
0010
0000
0001
0100
0001
0000
0010
0100
1000
0000
0010
0100
,  // measure 56
0010
1000
0100
0001
0100
1000
0001
0000
1001
0000
0001
1000
0000
1000
0001
0000
,  // measure 57
1000
0000
0100
0010
0001
0000
1000
0010
1000
0000
0100
0010
0001
0000
0100
0010
,  // measure 58
0100
0010
1000
0000
1000
2000
0000
0000
3000
0000
1001
0000
0001
0100
0000
0100
,  // measure 59
0010
0000
0100
0001
0000
0001
1000
0100
0010
0001
1000
0000
0001
1000
0000
1000
,  // measure 60
0010
0000
0100
0001
0000
0001
0010
0100
0010
0000
0001
0100
0010
0100
0001
0100
,  // measure 61
0010
0100
0001
0010
1000
0010
0001
0100
0010
0100
0010
1000
0100
0010
0100
1000
,  // measure 62
0001
0000
0010
0000
1000
0000
0010
0000
0001
0000
1000
0000
0010
0000
0100
0000
0001
0000
1000
0000
0200
0000
0000
0000
0320
0000
0000
0000
0200
0330
0000
0000
;

//---------------dance-single - ----------------
#NOTES:
     dance-single:
     :
     Challenge:
     15:
     0.758,0.856,0.209,0.366,0.815:
0000
0000
0000
0000
,
0000
0000
0000
0000
,
0000
0000
0000
0000
,
0000
0000
0000
0000
,
1000
0010
0100
0010
1000
0100
0001
0100
,
1000
0001
0010
0100
0010
0001
1000
0010
,
1000
0001
1000
0001
0100
0001
0100
0001
1000
0001
1000
0001
0100
0001
0100
0001
,
2000
0010
0010
3010
,
2002
0000
3003
0000
0001
0100
0001
0000
0010
0000
0100
1000
0100
0000
1000
0001
,
1000
0000
0100
0010
0001
0000
0010
0100
1000
0000
0010
0100
0001
0000
0100
0010
,
1000
0001
0010
0001
2000
0000
3010
0000
0100
0000
0010
0100
0010
0000
1000
0100
,
0010
0000
0001
0010
0100
0000
1000
0010
0100
0000
0010
0100
0002
0000
0003
0000
,
1001
0000
1000
0000
0100
1000
0001
0000
0001
0000
0100
0001
1000
0000
1000
0000
,
0002
0000
0013
0001
1000
0000
1000
0000
0010
1000
0001
0000
0100
0010
0100
0010
,
0200
0000
0000
0000
0301
0010
0100
0000
0100
0000
1000
0100
0010
0000
0010
0000
,
0002
0000
0023
0000
0230
0000
2000
3300
,
1001
0000
0000
0000
0001
0100
0001
0000
0100
0001
1000
0000
0100
0000
0010
0001
,
1000
0000
0001
1000
0001
0000
0010
0001
1000
0000
0100
1000
0100
0010
0100
0010
,
0001
1000
0010
1000
0002
0000
0103
0000
0010
0100
0001
0000
1000
0100
0010
0000
,
0001
0100
0001
0000
0100
0010
0100
0000
0010
0000
1000
0010
1000
0000
0001
0000
,
1001
0000
1000
0000
0100
1000
0100
0000
0010
0000
0001
0100
0010
0000
0010
0000
,
1001
0000
0001
0000
0010
0001
0010
0000
0100
0000
1000
0010
0100
0000
0100
0000
,
1001
0000
1000
0000
0010
1000
0010
0000
1000
0000
0001
0010
0100
0000
0100
0000
,
1100
0000
0000
0000
0110
0000
0000
0000
0011
0000
0000
0000
0001
1000
0001
1000
,
0001
0000
0000
0000
0010
0000
0100
0000
1000
0000
0001
1000
0010
0000
0010
0000
,
0100
0000
0000
0001
0000
0000
0010
0000
0000
0000
0000
0000
0100
0000
0000
1000
0000
0000
0001
0000
0000
0000
0000
0000
0100
0000
0000
0000
0000
0000
0010
0000
0100
0000
0010
0000
0100
0000
0000
0000
0000
0000
0010
0000
0000
0000
0000
0000
,
2000
3002
2003
3002
2003
0000
3002
0000
1003
0000
0000
0000
0100
0000
0000
0000
0010
0000
0001
0000
1000
0000
0000
0000
0010
0000
0000
0000
1000
0000
0010
0000
,
1000
0000
0000
0000
0001
0000
0000
0000
0010
0000
0001
0000
1000
0000
0000
0000
0010
0000
0000
0000
0010
0000
0000
0000
0200
0300
0200
0300
0200
0300
0000
0000
,
0001
0000
0000
0000
0000
0000
1000
0000
0100
0000
1000
0000
0100
0000
0000
0000
0000
0000
0010
0000
0000
0000
0000
0000
0001
0000
0000
0000
0000
0000
0100
0000
0000
0000
0000
0000
0110
0000
0000
0000
0000
0000
0010
0000
0000
0100
0000
0000
,
0001
1000
0010
1000
0001
0000
0100
0010
,
0010
0000
0000
0000
0000
0000
1000
0000
0010
0000
1000
0000
0010
0000
0000
0000
0000
0000
0100
0000
0000
0000
0000
0000
0001
0000
0000
0000
0000
0000
1000
0000
0000
0000
0000
0000
1000
0000
0000
0000
0000
0000
0010
0000
0000
0100
0000
0000
,
0001
0000
0010
0000
0100
0000
0020
0000
0200
0000
0000
0330
1001
0000
1000
0100
,
1000
0000
0000
0000
0000
0000
0001
0000
0000
0000
0000
0000
0100
0000
0000
0001
0000
0000
0100
0000
0000
0000
0000
0000
0010
0000
0000
0100
0000
0000
0010
0000
0000
0000
0000
0000
1000
0000
0000
0000
0000
0000
0001
0000
0010
0000
0001
0000
,
0010
0000
0000
0000
0011
0000
0000
0000
0002
2003
3002
2003
3002
0023
0230
2300
3001
0000
0000
0000
0001
0000
0000
0000
0010
0000
0100
0000
1000
0000
0000
0000
,
0010
0000
0100
0010
0100
0000
0001
0100
0001
0010
1000
0010
0001
1000
0001
1000
,
0020
0000
0000
0030
0000
0000
0020
0000
0000
0030
0000
0000
1001
0000
0000
0000
0000
0000
0001
0000
0100
0000
0001
0000
0100
0000
0000
0000
0000
0000
0010
0000
0000
0000
0000
0000
1000
0000
0000
0000
0000
0000
0100
0000
0000
0010
0000
0000
,
0001
0000
0000
0000
0000
0000
0100
0000
0010
0000
0100
0000
0010
0000
0000
0100
0000
0000
0001
0000
0000
0010
0000
0000
0100
0000
0000
0010
0000
0000
0001
0000
0000
0000
0000
0000
1000
0000
0000
0000
0000
0000
1000
0000
0000
0000
0000
0000
,
0100
0000
0100
0000
0001
0000
0001
0000
0100
0000
0100
0000
1000
0010
1000
0010
,
1000
0010
0100
0010
0100
0010
0100
0010
0000
0000
0000
0000
2002
0000
0000
0000
,
0000
0000
0000
0000
0000
0000
0000
0000
0000
0000
0000
3003
0001
0000
0000
0001
,
0000
0000
0000
0000
1000
0000
0000
0010
0000
0000
0100
0000
0000
0000
0000
0000
0010
0000
0000
0100
0000
0000
0001
0000
0000
0000
0000
0000
1000
0000
0000
0100
,
0000
0000
0001
0000
0000
1000
0000
0000
0010
0000
0000
0001
0000
0000
1000
0000
0000
0001
0000
0000
0101
0000
0000
0000
0100
0000
0010
0000
0000
0000
0100
0000
,
0001
0000
1000
0000
0100
1000
0000
0100
0010
0001
0001
0000
0010
0100
0000
1000
,
0010
0000
0000
0000
0100
0000
0000
0000
0001
0000
0010
0000
0000
0000
0100
0000
1000
0001
1000
0000
1001
0000
0000
0000
1000
0000
0000
0000
1010
0000
0000
0000
,
0010
0000
0100
0010
0100
0001
0010
0100
0010
0001
0100
0000
0100
0000
0100
0000
,
0100
0000
0100
0000
0110
0000
0100
0001
0010
0100
2020
3030
0000
1000
0001
0000
,
1001
0000
1000
0001
0100
0000
0001
0010
0100
0000
1000
0001
0100
0000
0001
0010
,
0100
1000
0010
0001
0010
1000
0002
0000
1003
0001
1000
0000
0000
0010
0100
0000
,
0110
0000
0010
1000
0001
0000
0010
0100
1000
0000
0010
1000
0001
0010
1000
0010
,
0001
0010
0100
0000
1100
0000
1100
0000
1100
0000
1001
0000
0001
1000
0200
0000
,
1300
0010
0001
0010
0100
0001
2000
0000
3001
0000
1000
0000
0100
0010
0002
0000
,
1003
0001
0100
1000
0100
0010
1000
1000
0001
0001
1000
0000
0010
0100
0002
0000
,
1003
0001
0010
1000
0010
0100
2000
0000
3001
0000
1000
1000
0010
0010
0100
0100
,
0001
0001
1000
0000
1000
0000
1000
0000
0001
0000
2002
3003
0000
0001
1000
0000
,
1001
0000
0000
0000
0000
0000
0001
0000
0000
0100
0000
0000
0010
0000
0000
0000
0000
0000
1000
0000
0000
0000
0001
0000
0000
0000
0001
0000
0000
0000
1000
0000
0000
0100
0000
0000
0010
0000
0000
0000
0000
0000
0001
0000
0000
0100
0000
0000
,
1000
0100
0001
0010
0100
0010
0001
0000
1001
0000
1000
0010
0000
0010
2000
0000
,
3001
0000
0000
0000
0000
0000
1000
0000
0000
0100
0000
0000
0010
0000
0000
0000
0000
0000
0001
0000
0000
0000
1000
0000
0000
0000
1000
0000
0000
0000
0001
0000
0000
0010
0000
0000
1000
0000
0000
0010
0000
0000
0001
0000
0000
0100
0000
0000
,
0010
0100
0001
0000
0001
0002
0000
0000
0003
0000
1000
0100
0010
0100
1000
0010
,
0100
1000
0100
0010
1000
0001
0100
0100
0010
0010
1000
0010
0100
0010
1000
0100
,
0010
1000
0010
0100
1000
0001
0010
0010
0100
0100
1000
0001
0010
0001
1000
0010
,
0001
0010
0100
0001
1000
0010
0100
0100
0001
0001
0100
1000
0100
0010
1000
0001
,
0100
0000
0100
0000
0010
0000
0010
0000
1000
0000
0100
0000
0010
0000
0001
0000
1000
0000
0010
0000
0100
0000
0100
0000
0002
0000
0000
0000
2000
3003
0000
0000
;

//---------------dance-single - ----------------
#NOTES:
     dance-single:
     :
     Medium:
     8:
     0.378,0.417,0.463,0.120,0.049:
0000
0000
0000
0000
,
0000
0000
0000
0000
,
0000
0000
0000
0000
,
0000
0000
0000
0000
,
1001
1001
1100
1100
,
1001
1001
0101
0101
,
0110
0110
0110
0110
,
2002
0000
0000
3003
,
1001
0000
0001
0000
1000
0000
0100
0010
,
0001
0100
0001
0000
0100
0010
0100
0001
,
2000
0000
3001
0000
1000
0100
0010
0000
,
0001
0100
0010
0000
0100
0010
0100
0000
,
1001
0000
0000
1100
0000
0000
0100
0000
,
0110
0000
0000
1001
0000
0000
0001
0000
,
0101
0000
0000
0110
0000
0000
1000
0000
,
2002
0000
0000
3003
,
1001
0101
0101
0101
,
0110
0110
0110
0110
,
1100
1100
1100
1100
,
2002
0000
0000
3003
,
1001
0000
0000
0101
0000
0000
0100
0000
,
0110
0000
0000
0110
0000
0000
1000
0000
,
1001
0000
0000
0110
0000
0000
0100
0000
,
0202
0000
0000
0303
,
1001
0000
0001
0000
0010
0001
0010
0000
,
0100
0010
0100
0000
1000
0100
1000
0000
,
1001
0000
0001
1000
0001
0000
1000
0010
,
1000
0000
0001
0100
0001
0000
1000
0000
,
1001
0000
0001
0010
0000
0001
0010
0000
,
0100
0010
0001
0000
1000
0000
0010
0100
,
0001
0000
1000
0100
0000
1000
0100
0000
,
0010
0100
1000
0000
0000
0000
1001
0000
,
0001
0011
0010
0110
,
0100
1100
1001
1000
,
1010
0010
0110
0100
,
0101
1001
0001
0011
,
0010
0000
0110
0000
0100
0000
1000
0100
,
1000
0100
1000
0001
1000
0001
1000
0010
,
0100
0010
1000
0010
0000
0000
0220
0000
,
0000
0000
0000
0000
0000
0000
0000
0000
0000
0000
0000
0330
0000
0000
0000
0000
,
0000
1000
0000
0000
0001
0000
0000
1000
,
0000
0000
0000
0000
0001
0000
0000
0000
0000
0000
0100
0000
0000
0100
0000
0000
,
0100
0000
0010
0000
0000
0010
0000
0000
0010
0000
0100
0000
0000
0100
0000
0000
,
0100
0000
0010
0000
0000
0010
0000
0000
0010
0000
1000
0000
0001
0000
1000
0000
,
0001
0010
0001
0010
0001
0200
0000
0000
,
0000
0000
0300
0010
0100
0001
0000
1001
,
0000
1000
1000
0001
0001
1000
1000
0001
,
0001
0010
0100
2000
3010
0000
0000
0100
,
0010
0100
0100
0001
0001
0100
0100
0001
,
0001
2000
0000
0000
3000
0000
0100
0100
,
1000
0010
0010
0100
0001
0000
0010
0010
,
0001
0100
0100
0010
0010
0000
1000
1000
,
0100
0010
0010
0100
1000
0010
0010
0010
,
0010
0110
0000
0000
0000
0110
0000
1001
,
0000
0001
0001
1000
1000
0001
0001
1000
,
1000
0010
0100
0001
0010
0000
0000
0100
,
1000
0010
0010
0100
0100
0010
0010
0100
,
0100
0000
0001
0000
0000
0001
0000
0000
0000
0000
0110
0000
0000
0010
0000
0000
,
0100
0000
0000
1000
0000
0000
0001
0000
0001
0000
0100
0000
0000
0010
0000
0000
,
1000
0000
0000
0100
0000
0000
0010
0000
0010
0000
0001
0000
0000
0100
0000
0000
,
0010
0000
0000
1000
0000
0000
0100
0000
0100
0000
0010
0000
0000
0001
0000
0000
,
0100
0000
0000
0010
0000
0000
1000
0000
1000
0000
0010
0000
0010
0000
0220
0330
;

//---------------dance-single - ----------------
#NOTES:
     dance-single:
     :
     Beginner:
     2:
     0.124,0.138,0.090,0.000,0.000:
0000
0000
0000
0000
,
0000
0000
0000
0000
,
0000
0000
0000
0000
,
0000
0000
0000
0000
,
1001
0000
0001
0000
,
1000
0000
0001
0000
,
1000
0000
0000
0000
,
1001
0000
0000
0000
,
1001
0000
0000
0000
,
1000
0000
0000
0000
,
0001
0000
0000
0000
,
0100
0000
0000
0000
,
0010
0000
0000
0000
,
0010
0000
0000
0000
,
0100
0000
0000
0000
,
0100
0000
0000
0000
,
1001
0000
1000
0000
,
0001
0000
1000
0000
,
0100
0000
0010
0000
,
0100
0000
0000
0000
,
1000
0000
0000
0000
,
0010
0000
0000
0000
,
0100
0000
0000
0000
,
0001
0000
0000
0000
,
1001
0000
1000
0000
,
0001
0000
1000
0000
,
0001
0100
0000
0010
,
0000
0100
0000
0010
,
1000
0000
0001
0000
,
1000
0000
0001
0000
,
0010
0000
0001
0000
,
0010
0000
0001
0100
,
0000
0010
0000
0100
,
0000
0001
1000
0000
,
0100
0000
0010
0000
,
0100
1000
0000
0001
,
0000
0100
0000
0001
,
0000
0001
0000
1000
,
0000
1000
0000
1001
,
0000
0000
0000
0000
,
0000
0000
0000
0000
,
0000
0000
0000
0000
0000
1001
0000
0000
,
0000
1000
0000
0000
0000
0001
0000
0000
,
0000
0100
0000
0000
0000
0001
0000
1000
,
0000
0001
0000
1000
0000
0100
0000
0000
,
0000
0000
0000
0000
0000
1001
0000
0000
,
0000
0001
0000
0000
0000
1000
0000
0000
,
0000
0010
0000
0000
0000
0100
0000
0000
,
0000
0010
0000
0000
0000
1000
0000
0000
,
0000
0001
0000
0000
0000
1001
0000
0000
,
0000
1000
0000
0000
0000
1001
0000
0000
,
0000
0001
0000
0000
0000
0110
0000
0000
,
0000
0100
0000
0000
0000
0110
0000
0000
,
0000
0000
0000
0000
0000
0010
0000
0000
,
0000
1000
0000
0000
0000
0100
0000
0000
,
0000
1000
0000
0000
0000
0010
0000
0000
,
0000
0100
0000
0000
0000
0001
0000
0000
,
0000
0010
0000
0000
0000
0100
0000
0010
,
0000
0100
0000
0000
0000
1000
0000
0010
,
0000
1000
0000
0000
0000
0001
0000
1000
,
0000
0001
0000
0000
0000
0010
0000
0100
,
0000
0010
0000
0100
0000
1000
0000
0000
;
