#TITLE:BRASIL OVER ZURICH;
#SUBTITLE:;
#ARTIST:TANGA CHICKS feat. DIMITRI & TOM;
#TITLETRANSLIT:;
#SUBTITLETRANSLIT:;
#ARTISTTRANSLIT:;
#CREDIT:DigiMindAxel;
#BANNER:BRASIL OVER ZURICH.png;
#BACKGROUND:BRASIL OVER ZURICH-bg.png;
#LYRICSPATH:;
#CDTITLE:Dancemania SUMMERS 2001.png;
#MUSIC:BRASIL OVER ZURICH.ogg;
#METERTYPE:DDR X;
#OFFSET:-7.713;
#SAMPLESTART:23.800;
#SAMPLELENGTH:12.000;
#SELECTABLE:YES;
#BPMS:0.000=125.000;
#STOPS:;
#BGCHANGES:;

//---------------dance-single - ----------------
#NOTES:
     dance-single:
     :
     Easy:
     3:
     0.164,0.238,0.088,0.141,0.000:
2002
0000
0000
0000
,
0000
0000
0000
0000
,
0000
0000
0000
0000
,
3003
0000
0000
0000
,
0220
0000
0000
0000
,
0000
0000
0000
0330
,
2002
0000
0000
3003
,
0110
0000
0000
0000
,
0001
0000
0000
0000
,
1000
0000
0001
0010
,
0100
0000
0010
0100
,
1000
0000
0001
0010
,
0100
0000
0010
0000
,
0001
0000
1000
0010
,
0100
0000
0010
0100
,
0001
0000
1000
0010
,
0100
0000
0001
0000
,
1000
0000
0100
0010
,
0001
0000
1000
0100
,
0010
0000
0100
0010
,
0001
0000
0100
0000
,
0010
0000
0100
0001
,
1000
0000
0100
1000
,
0001
0000
0100
0001
,
2000
0000
0000
0000
,
3200
0000
0300
0000
,
0020
0000
0000
0000
,
0032
0000
0003
0000
,
1001
0000
0000
0000
,
1000
0000
0000
0000
,
0100
0000
0000
0000
,
0010
0000
0000
0000
,
0100
0000
1000
0000
,
0100
0000
1000
0000
,
0001
0000
0100
0000
,
0010
0000
0100
0000
,
0001
0000
1000
0000
,
0001
0000
1000
0000
,
0001
1000
0001
1000
,
1001
0000
1001
0000
,
0110
0000
0010
0000
,
1001
0000
0000
0000
,
1000
0000
0001
0100
,
0010
0000
0100
0001
,
0010
0000
0001
0010
,
0100
0000
0010
0000
,
0001
0000
1000
0010
,
0100
0000
0010
1000
,
0100
0000
1000
0100
,
0020
0000
0001
0000
,
0032
0000
1003
0000
,
0020
0000
1000
0000
,
2030
0000
3000
0000
,
2002
0000
0000
0000
,
3003
0000
0000
0000
;

//---------------dance-single - ----------------
#NOTES:
     dance-single:
     :
     Medium:
     8:
     0.361,0.404,0.220,0.238,0.000:
1001
1000
0001
1000
,
0001
1000
0001
1000
,
0100
0010
0100
0010
,
0200
0010
0010
0310
,
1001
0001
1000
0001
,
1000
0001
1000
0001
,
0110
0100
0010
0100
,
2002
0000
0000
3003
,
1001
0000
0000
0000
,
1100
0000
0010
0001
0010
0001
1000
0000
,
0010
0000
0100
0000
0001
1000
0001
1000
,
0100
0000
0010
0000
0001
0100
0001
0100
,
0010
0200
0302
0203
,
0310
0000
1000
0000
0100
0010
0100
0010
,
0001
0000
1000
0000
0010
0100
0010
0100
,
0001
0000
0010
0000
0100
1000
0100
1000
,
0001
0200
0320
0230
,
0301
0000
1000
0100
1000
0100
0010
0000
,
0100
0000
1000
0000
0010
0100
0010
0100
,
0001
0000
1000
0000
0100
0010
0100
0010
,
0001
2000
3020
2030
,
3001
0000
1000
0100
1000
0100
0010
0000
,
0100
0000
1000
0010
1000
0010
0100
0000
,
0001
0000
0010
0100
0010
0100
1000
0000
,
0200
1000
1000
1000
,
2300
0001
3001
2000
,
3020
0100
0100
0100
,
0130
0000
0000
0101
0000
0000
0000
0000
,
1002
0000
0000
0100
,
0203
0000
0010
0000
,
0310
0010
1000
1000
,
0100
0010
0001
1000
,
1010
0010
0100
0001
,
1001
1000
0100
0010
,
0110
0100
0010
0001
,
1001
1000
0001
0010
,
0011
0001
0101
0100
,
0110
0010
1010
1000
,
1001
1001
0110
0110
,
1000
0001
1000
0001
0010
0100
1000
0001
,
1000
0000
1100
0100
,
0110
0000
0000
0000
,
1001
0000
0001
0000
0010
0100
1000
0100
,
0010
0000
0001
0000
0100
0010
1000
0010
,
0100
0000
0001
0000
1000
0100
0001
0100
,
1000
0200
0320
0032
,
1003
0000
0001
0000
0100
0010
1000
0010
,
0100
0000
0001
0000
0010
0100
1000
0100
,
0010
0000
0001
0000
1000
0010
0001
0010
,
2000
0001
0001
0001
,
3002
0100
0103
0002
,
0203
0010
0010
0010
,
0310
0000
0000
1010
0000
0000
0000
0000
,
2002
0000
0000
0000
,
3003
0000
0000
0000
;

//---------------dance-single - ----------------
#NOTES:
     dance-single:
     :
     Hard:
     12:
     0.553,0.571,0.229,0.308,0.630:
1002
0100
1000
0100
,
2003
0100
0001
0100
,
3002
0100
0010
0100
,
0023
0000
0000
0000
0100
0000
0000
0000
0130
1000
0100
1000
0100
0000
0010
0000
,
1001
0000
0000
0000
1000
0000
0000
0010
0100
0000
0010
0000
0100
0000
0001
0000
,
0010
0000
0000
0000
0001
0000
0000
0010
0100
0000
0010
0000
0100
0000
1000
0000
,
1001
0000
0000
0000
0001
0000
0000
0100
0010
0000
0100
0000
0010
0000
1000
0000
,
1002
0000
0000
0100
0000
0100
0100
0103
,
0110
0000
2000
3002
,
1003
0000
0000
0000
0001
0000
0100
0000
0001
1000
0000
0100
0000
1000
0000
0020
,
0000
0000
0000
0000
0130
0000
0001
0000
1000
0001
0000
0010
0000
0001
0000
0200
,
0000
0000
0000
0000
0310
0000
1000
0000
0001
1000
0000
0100
0000
1000
0000
0020
,
0000
0000
0000
0000
0130
0000
0000
0100
0001
0000
0000
0001
1000
0000
0000
1000
,
0002
0000
0000
0000
1003
0000
0100
0000
1000
0001
0000
0100
0000
0001
0000
2000
,
0000
0000
0000
0000
3100
0000
1000
0000
0001
0100
0000
0010
0000
0100
0000
0002
,
0000
0000
0000
0000
1003
0000
0010
0000
1000
0001
0000
0010
0000
0001
0000
2000
,
0000
0000
0000
0000
3001
0000
0000
0001
0100
0000
0000
0100
0010
0000
0000
0010
,
1000
0000
0000
0000
0001
0000
0100
0000
0010
1000
0000
0100
0000
0010
0000
0200
,
0000
0000
0000
0000
1300
0000
0010
0000
0100
0001
0000
0010
0000
0100
0000
0020
,
0000
0000
0000
0000
0031
0000
1000
0000
0100
1000
0000
0010
0000
0100
0000
0002
,
0000
0000
0000
0000
1003
0000
0000
1000
0100
0000
0000
0100
0010
0000
0000
0010
,
0002
0000
0000
0000
0103
0000
0010
0000
1000
0100
0000
0001
0000
0100
0000
2000
,
0000
0000
0000
0000
3100
0000
0010
0000
0001
0100
0000
1000
0000
0100
0000
0002
,
0000
0000
0000
0000
0013
0000
0100
0000
1000
0010
0000
0001
0000
0010
0000
1000
,
0002
1000
0010
1000
,
0013
0000
0100
0000
1000
0000
0000
0000
1100
0000
0000
1001
0000
0000
0000
0000
,
2000
0001
0010
3001
,
1001
0000
0000
0110
0000
0000
1002
0000
0000
0000
1000
0000
1000
0000
1003
0000
,
1001
0000
0000
0000
0001
0010
0001
0010
0000
0100
0000
1000
0010
0000
0010
0000
,
0010
0000
0000
0100
0001
0100
0001
1000
0000
0100
0000
1000
0001
0000
0000
0000
,
0010
0001
0000
0010
0001
0000
1000
0010
0000
0100
0000
0010
1000
0000
0000
0000
,
0001
0100
0001
0000
1000
0100
1000
0000
0010
0100
0010
0100
0001
0000
0001
0000
,
1001
0000
1000
0000
0100
1000
0100
1000
0000
0000
0010
0000
0100
0001
0100
0001
,
1000
0000
0100
0000
0010
0001
0010
0001
0000
0010
0000
0001
0100
0000
0010
0000
,
1001
0000
1000
0000
0001
0100
0001
0100
0000
0000
0010
0000
1000
0001
1000
0001
,
0100
0000
0010
0000
1000
0100
1000
0100
0000
1000
0000
0100
0000
0010
0100
0000
,
1000
0001
0000
0100
0000
0001
1000
0000
0001
0010
0000
0100
0000
0010
0001
0000
,
1000
0010
0000
0100
0000
0010
1000
0000
0010
0100
0000
0010
0100
0000
0001
0000
,
1000
1000
0001
0001
0010
0010
0100
0100
,
1001
1000
1100
0100
0110
0010
0011
0001
,
1000
0000
0000
0000
0010
0000
0000
0000
0100
0000
0000
0000
0010
0000
0000
0000
0000
0000
0000
0000
0000
0000
0000
0000
1001
0000
0000
0000
0000
0000
0000
0000
0000
0001
0000
0000
1000
0000
0000
0000
0000
0000
1010
0000
0000
0000
0000
0000
,
0110
0000
2000
3002
,
1003
0000
0000
0000
0001
0000
0100
0000
0001
1000
0000
0100
0000
1000
0000
0010
,
0200
0000
0000
0000
0301
0000
0100
0000
0001
1000
0000
0100
0000
1000
0000
0010
,
0200
0000
0000
0000
0301
0000
1000
0000
0001
0100
0000
0010
0000
0100
0000
0001
,
1000
0000
0000
1000
0100
0000
0000
0100
0010
0000
0000
0010
0001
0000
0000
0001
,
2000
0000
0000
0000
3010
0000
0100
0000
0010
1000
0000
0100
0000
1000
0000
0001
,
0020
0000
0000
0000
0130
0000
1000
0000
0001
1000
0000
0100
0000
1000
0000
0001
,
0200
0000
0000
0000
0310
0000
1000
0000
0001
0100
0000
0010
0000
0100
0000
0001
,
2000
0100
0001
0100
,
3001
0000
1000
0000
0100
0000
0000
0000
1100
0000
0000
1001
0000
0000
0000
0000
,
0002
1000
0100
1003
,
1001
0000
0000
0110
0000
0000
1002
0000
0000
0000
1000
0000
1000
0000
1003
0000
,
0220
0000
0000
0000
,
0330
0000
0000
0000
;

//---------------dance-single - ----------------
#NOTES:
     dance-single:
     :
     Beginner:
     1:
     0.076,0.140,0.079,0.000,0.000: // measure 1
1000
0000
0000
0000
,  // measure 2
0000
0000
0000
0000
,  // measure 3
0001
0000
0000
0000
,  // measure 4
1000
0000
0000
0000
,  // measure 5
0010
0000
0000
0000
,  // measure 6
0000
0000
0000
0000
,  // measure 7
0100
0000
0000
0000
,  // measure 8
0010
0000
0000
0000
,  // measure 9
1001
0000
0000
0000
,  // measure 10
1000
0000
0000
0000
,  // measure 11
0100
0000
0000
0000
,  // measure 12
0010
0000
0000
0000
,  // measure 13
0001
0000
0000
0000
,  // measure 14
0001
0000
0000
0000
,  // measure 15
0010
0000
0000
0000
,  // measure 16
0100
0000
0000
0000
,  // measure 17
1000
0000
0000
0000
,  // measure 18
1000
0000
0000
0000
,  // measure 19
0010
0000
0000
0000
,  // measure 20
0100
0000
0000
0000
,  // measure 21
0001
0000
0000
0000
,  // measure 22
0001
0000
0000
0000
,  // measure 23
0100
0000
0000
0000
,  // measure 24
0010
0000
0000
0000
,  // measure 25
1000
0000
0000
0000
,  // measure 26
1000
0000
0000
0000
,  // measure 27
0001
0000
0000
0000
,  // measure 28
0001
0000
0000
0000
,  // measure 29
1001
0000
0000
0000
,  // measure 30
0000
0000
0000
0000
,  // measure 31
0000
0000
0000
0000
,  // measure 32
0000
0000
0000
0000
,  // measure 33
0110
0000
0000
0000
,  // measure 34
1001
0000
0000
0000
,  // measure 35
1001
0000
0000
0000
,  // measure 36
1001
0000
0000
0000
,  // measure 37
1001
0000
0001
0000
,  // measure 38
1000
0000
0001
0000
,  // measure 39
1000
0000
0000
0000
,  // measure 40
0010
0000
0000
0000
,  // measure 41
0100
0000
0000
0000
,  // measure 42
1001
0000
0000
0000
,  // measure 43
0001
0000
0000
0000
,  // measure 44
0010
0000
0000
0000
,  // measure 45
0100
0000
0000
0000
,  // measure 46
1000
0000
0000
0000
,  // measure 47
1000
0000
0000
0000
,  // measure 48
0010
0000
0000
0000
,  // measure 49
0100
0000
0000
0000
,  // measure 50
0001
0000
0000
0000
,  // measure 51
0001
0000
0000
0000
,  // measure 52
1000
0000
0000
0000
,  // measure 53
1000
0000
0000
0000
,  // measure 54
1001
0000
0000
0000
;
